osu file format v14

[General]
AudioFilename: audio.mp3
AudioLeadIn: 0
PreviewTime: 52594
Countdown: 0
SampleSet: Soft
StackLeniency: 0.7
Mode: 2
LetterboxInBreaks: 0
WidescreenStoryboard: 1

[Editor]
DistanceSpacing: 0.7
BeatDivisor: 4
GridSize: 32
TimelineZoom: 4.199998

[Metadata]
Title:Light My Fire (TV Size)
TitleUnicode:Light My Fire (TV Size)
Artist:KOTOKO
ArtistUnicode:KOTOKO
Creator:Secre
Version:Flame of Heaven
Source:灼眼のシャナⅢ-FINAL-
Tags:chickenbible bigh bighzonda bastian greaper kujinn reform shakugan no shana III opening anime japanese j rock op 1 ryo supercell j-rock 3 third
BeatmapID:3591117
BeatmapSetID:1754791

[Difficulty]
HPDrainRate:5
CircleSize:4.1
OverallDifficulty:9.4
ApproachRate:9.4
SliderMultiplier:2.13
SliderTickRate:2

[Events]
//Background and Video events
0,0,"she would make a good kfp cook.jpeg",0,0
//Break Periods
//Storyboard Layer 0 (Background)
//Storyboard Layer 1 (Fail)
//Storyboard Layer 2 (Pass)
//Storyboard Layer 3 (Foreground)
//Storyboard Layer 4 (Overlay)
//Storyboard Sound Samples

[TimingPoints]
295,322.58064516129,4,2,22,50,1,0
375,-100,4,2,22,5,0,0
6263,322.58064516129,4,2,22,50,1,0
6263,-100,4,2,22,55,0,0
8682,-100,4,2,22,60,0,0
9811,-100,4,2,22,50,0,0
10125,322.58064516129,4,2,22,50,1,0
10125,-100,4,2,22,65,0,0
11385,322.58064516129,4,2,22,50,1,0
11385,-100,4,2,22,75,0,0
16546,-100,4,2,22,55,0,0
26868,-100,4,2,22,65,0,0
37191,-100,4,2,22,45,0,0
49933,-100,4,2,22,75,0,0
52675,-100,4,2,22,80,0,1
65094,-100,4,2,22,80,0,0
65578,-100,4,2,22,85,0,1
75417,-100,4,2,22,85,0,0
75739,-100,4,2,22,90,0,1
86062,-100,4,2,22,90,0,0

[Colours]
Combo1 : 244,170,32
Combo2 : 99,14,14
Combo3 : 217,23,23
Combo4 : 237,82,7

[HitObjects]
256,192,295,12,0,5294,0:0:0:0:
406,256,6263,6,0,L|310:326,5,106.5,2|0|2|0|2|0,3:2|0:0|0:0|0:0|0:0|0:0,0:0:0:0:
81,254,7553,6,0,L|174:310,5,106.5,2|0|2|0|2|0,0:0|0:0|0:0|0:0|0:0|0:0,0:0:0:0:
346,202,8682,5,0,1:2:0:0:
349,234,8735,1,0,0:0:0:0:
352,266,8789,1,0,0:0:0:0:
206,195,8843,6,0,L|126:196,1,53.25,2|0,1:2|0:0,0:0:0:0:
316,138,9004,2,0,L|321:48,1,53.25,8|0,0:0|0:0,0:0:0:0:
159,89,9166,2,0,L|230:86,2,53.25,2|8|0,0:0|0:0|1:2,0:0:0:0:
302,169,9488,1,2,1:2:0:0:
34,221,9650,2,0,P|34:165|169:86,1,213,8|8,0:0|0:0,0:0:0:0:
377,113,10125,5,8,1:2:0:0:
126,83,10286,1,8,1:2:0:0:
377,113,10770,5,8,1:2:0:0:
33,151,10931,1,8,1:2:0:0:
402,200,11385,6,0,L|410:126,1,53.25,6|0,1:2|0:0,0:0:0:0:
241,95,11546,2,0,L|233:14,1,53.25,8|8,0:0|0:0,0:0:0:0:
77,59,11707,2,0,L|134:65,1,53.25,2|0,1:2|0:0,0:0:0:0:
220,125,11868,2,0,L|218:57,1,53.25,8|8,0:0|0:0,0:0:0:0:
382,88,12030,6,0,L|311:80,1,53.25,2|8,1:2|0:0,0:0:0:0:
116,168,12191,2,0,L|192:145,1,53.25,8|8,0:0|0:0,0:0:0:0:
342,154,12352,2,0,L|344:61,1,53.25,0|0,1:2|0:0,0:0:0:0:
251,57,12514,2,0,L|176:55,1,53.25,8|8,0:0|0:0,0:0:0:0:
398,33,12675,6,0,L|404:113,1,53.25,2|8,1:2|0:0,0:0:0:0:
241,183,12836,2,0,L|316:173,1,53.25,8|8,0:0|0:0,0:0:0:0:
449,168,12997,2,0,L|458:87,1,53.25,2|8,1:2|0:0,0:0:0:0:
299,73,13159,2,0,L|384:68,1,53.25,8|8,0:0|0:0,0:0:0:0:
172,63,13320,6,0,L|100:64,1,53.25,2|8,1:2|0:0,0:0:0:0:
212,74,13481,2,0,L|216:155,1,53.25,8|8,0:0|0:0,0:0:0:0:
43,187,13643,2,0,L|123:176,1,53.25,0|0,1:2|0:0,0:0:0:0:
194,158,13804,2,0,L|201:88,1,53.25,8|8,0:0|0:0,0:0:0:0:
30,75,13965,6,0,L|105:69,1,53.25,2|0,1:2|0:0,0:0:0:0:
246,63,14126,2,0,L|325:58,1,53.25,8|0,0:0|0:0,0:0:0:0:
114,142,14288,2,0,L|186:135,1,53.25,2|0,1:2|0:0,0:0:0:0:
342,133,14449,2,0,L|433:127,1,53.25,8|8,0:0|0:0,0:0:0:0:
222,227,14610,6,0,L|305:221,1,53.25,2|8,1:2|0:0,0:0:0:0:
440,209,14772,2,0,L|508:202,1,53.25,8|8,0:0|0:0,0:0:0:0:
295,103,14933,2,0,L|289:22,1,53.25,0|0,1:2|0:0,0:0:0:0:
385,42,15094,2,0,L|473:36,1,53.25,8|8,0:0|0:0,0:0:0:0:
229,132,15255,6,0,L|144:130,1,53.25,2|0,1:2|1:2,0:0:0:0:
358,132,15417,2,0,L|364:68,1,53.25,0|0,1:2|1:2,0:0:0:0:
271,54,15578,2,0,L|349:50,1,53.25,0|0,1:2|1:2,0:0:0:0:
420,52,15739,2,0,L|429:-19,1,53.25,0|0,1:2|1:2,0:0:0:0:
184,156,15901,6,0,L|281:148,1,53.25,10|8,0:0|0:0,0:0:0:0:
436,128,16062,2,0,L|496:120,1,53.25,8|8,0:0|0:0,0:0:0:0:
276,75,16223,2,0,L|210:73,1,53.25,8|8,0:0|0:0,0:0:0:0:
128,63,16384,2,0,L|123:-6,1,53.25,8|8,0:0|0:0,0:0:0:0:
325,122,16546,5,4,1:2:0:0:
183,128,16707,2,0,P|131:108|209:19,1,213
325,36,17191,1,2,0:0:0:0:
181,129,17352,2,0,L|403:120,1,213
236,193,17836,5,2,0:0:0:0:
366,193,17997,2,0,L|366:83,1,106.5,2|0,0:0|0:0,0:0:0:0:
213,80,18320,2,0,L|333:76,2,106.5,2|0|2,0:0|0:0|0:0,0:0:0:0:
53,96,18804,1,0,0:0:0:0:
215,77,18965,1,2,0:0:0:0:
53,96,19126,6,0,L|51:-30,1,106.5
331,151,19610,2,0,L|203:145,2,106.5
46,144,20255,6,0,L|174:137,2,106.5
346,150,20901,1,0,0:0:0:0:
194,115,21062,2,0,L|191:-2,1,106.5,2|2,0:0|0:0,0:0:0:0:
479,51,21546,6,0,L|362:46,2,106.5,2|0|0,0:0|0:0|0:0,0:0:0:0:
161,185,22191,1,0,0:0:0:0:
306,157,22352,1,0,0:0:0:0:
455,150,22514,1,0,0:0:0:0:
142,279,22836,6,0,L|270:275,2,106.5
431,208,23481,1,2,0:0:0:0:
290,166,23643,1,2,0:0:0:0:
431,208,23804,2,0,L|437:93,1,106.5,2|0,0:0|0:0,0:0:0:0:
158,73,24126,6,0,L|271:72,2,106.5,2|0|0,0:0|0:0|0:0,0:0:0:0:
449,125,24772,2,0,L|293:116,2,106.5
177,163,25417,1,0,0:0:0:0:
326,153,25578,6,0,L|331:31,1,106.5
47,85,26062,2,0,L|141:81,1,53.25,0|0,1:2|1:2,0:0:0:0:
309,85,26223,1,8,0:0:0:0:
162,145,26384,2,0,L|160:1,1,106.5,0|0,1:2|0:0,0:0:0:0:
309,85,26707,1,0,1:2:0:0:
52,173,26868,5,4,1:2:0:0:
202,178,27030,1,0,0:0:0:0:
52,173,27191,2,0,L|55:55,1,106.5,8|0,0:0|0:0,0:0:0:0:
295,113,27514,2,0,L|165:110,1,106.5,2|0,1:2|0:0,0:0:0:0:
346,52,27836,1,10,0:0:0:0:
96,138,27997,1,0,0:0:0:0:
346,52,28159,5,2,1:2:0:0:
200,37,28320,2,0,L|200:167,1,106.5,2|8,0:0|0:0,0:0:0:0:
461,169,28643,2,0,L|311:165,1,106.5,2|0,0:0|1:2,0:0:0:0:
106,197,28965,1,2,0:0:0:0:
260,200,29126,1,8,0:0:0:0:
106,197,29288,1,2,0:0:0:0:
395,210,29449,6,0,L|404:78,1,106.5,0|0,1:2|0:0,0:0:0:0:
147,92,29772,1,8,0:0:0:0:
306,96,29933,1,0,0:0:0:0:
147,92,30094,2,0,L|143:223,1,106.5,0|0,1:2|0:0,0:0:0:0:
382,205,30417,1,8,0:0:0:0:
224,192,30578,1,0,0:0:0:0:
382,205,30739,6,0,L|383:88,1,106.5,0|0,1:2|0:0,0:0:0:0:
111,98,31062,1,8,0:0:0:0:
258,94,31223,1,2,0:0:0:0:
19,158,31384,1,2,1:2:0:0:
176,152,31546,2,0,L|178:31,1,106.5,2|8,0:0|0:0,0:0:0:0:
19,158,31868,1,2,0:0:0:0:
323,194,32030,6,0,L|457:196,1,106.5,0|0,1:2|0:0,0:0:0:0:
200,108,32352,1,8,0:0:0:0:
354,104,32514,1,0,0:0:0:0:
64,201,32675,2,0,L|183:200,1,106.5,0|0,1:2|0:0,0:0:0:0:
458,197,32997,1,8,0:0:0:0:
194,198,33159,1,0,0:0:0:0:
344,187,33320,6,0,L|349:64,1,106.5,0|0,1:2|0:0,0:0:0:0:
55,78,33643,2,0,L|184:78,1,106.5,8|0,0:0|0:0,0:0:0:0:
432,78,33965,1,2,1:2:0:0:
169,75,34126,1,2,0:0:0:0:
320,72,34288,1,8,0:0:0:0:
36,132,34449,1,2,0:0:0:0:
311,132,34610,6,0,L|465:137,1,106.5,0|0,1:2|0:0,0:0:0:0:
146,182,34933,1,8,0:0:0:0:
303,182,35094,1,0,0:0:0:0:
146,182,35255,2,0,L|147:52,1,106.5,0|0,1:2|0:0,0:0:0:0:
383,71,35578,1,8,0:0:0:0:
226,65,35739,1,0,0:0:0:0:
485,134,35901,6,0,L|405:130,1,53.25,0|8,1:2|0:0,0:0:0:0:
236,113,36062,1,8,0:0:0:0:
390,143,36223,2,0,L|396:216,1,53.25,0|8,0:0|0:0,0:0:0:0:
208,209,36384,2,0,L|131:210,1,53.25,8|8,0:0|0:0,0:0:0:0:
294,142,36546,2,0,L|430:146,1,106.5,8|8,0:0|0:0,0:0:0:0:
160,268,36868,1,8,0:0:0:0:
313,274,37030,1,8,0:0:0:0:
52,207,37191,6,0,L|49:-31,1,213,6|0,3:2|0:0,0:0:0:0:
306,111,37836,2,0,L|91:101,1,213,2|0,0:0|0:0,0:0:0:0:
250,148,38320,6,0,P|323:173|366:303,1,213,2|0,0:0|0:0,0:0:0:0:
276,277,38804,2,0,L|274:157,1,106.5,0|2,0:0|0:0,0:0:0:0:
360,132,39126,1,0,0:0:0:0:
196,65,39288,2,0,P|120:79|203:236,1,319.5,2|2,0:0|0:0,0:0:0:0:
284,223,39933,5,2,0:0:0:0:
195,153,40094,2,0,L|192:39,1,106.5,2|0,0:0|0:0,0:0:0:0:
355,60,40417,2,0,P|435:72|492:207,1,213,2|0,0:0|0:0,0:0:0:0:
413,186,40901,1,2,0:0:0:0:
260,160,41062,6,0,L|259:23,1,106.5,2|0,0:0|0:0,0:0:0:0:
408,44,41384,2,0,L|409:176,1,106.5,2|0,0:0|0:0,0:0:0:0:
260,160,41707,1,0,0:0:0:0:
417,157,41868,2,0,P|421:92|274:39,1,213,2|0,0:0|0:0,0:0:0:0:
157,215,42352,5,2,0:0:0:0:
255,216,42514,1,0,0:0:0:0:
157,215,42675,2,0,L|153:90,1,106.5
297,96,42997,2,0,L|65:86,1,213,2|0,0:0|0:0,0:0:0:0:
232,153,43481,1,2,0:0:0:0:
85,110,43643,6,0,L|81:-4,1,106.5,2|2,0:0|0:0,0:0:0:0:
226,89,43965,2,0,L|373:92,1,106.5
186,178,44288,2,0,L|186:38,1,106.5,2|0,0:0|0:0,0:0:0:0:
334,71,44610,2,0,L|457:75,1,106.5,2|0,0:0|0:0,0:0:0:0:
180,59,44933,6,0,P|111:64|56:202,1,213,2|0,0:0|0:0,0:0:0:0:
137,177,45417,1,0,0:0:0:0:
275,146,45578,2,0,L|276:27,1,106.5,2|0,0:0|0:0,0:0:0:0:
127,55,45901,2,0,L|126:204,1,106.5,0|2,0:0|0:0,0:0:0:0:
391,124,46223,6,0,P|457:133|383:211,1,213,2|2,0:0|0:0,0:0:0:0:
261,209,46707,1,0,0:0:0:0:
395,216,46868,1,2,0:0:0:0:
261,209,47030,2,0,L|261:89,1,106.5
395,216,47352,1,2,0:0:0:0:
125,191,47514,5,0,1:2:0:0:
256,192,47594,12,0,49772,0:0:0:0:
304,154,49933,6,0,L|229:155,1,53.25,0|0,1:2|1:2,0:0:0:0:
98,105,50094,5,10,0:0:0:0:
339,63,50255,2,0,L|337:197,1,106.5,8|0,0:0|1:2,0:0:0:0:
266,173,50497,1,0,1:2:0:0:
456,179,50578,1,8,0:0:0:0:
193,217,50739,1,8,0:0:0:0:
41,141,50901,2,0,L|94:142,1,53.25,2|0,1:2|1:2,0:0:0:0:
331,101,51062,1,8,0:0:0:0:
477,109,51223,1,10,0:0:0:0:
336,47,51384,5,0,1:2:0:0:
262,41,51464,1,0,1:2:0:0:
94,142,51546,1,8,0:0:0:0:
361,121,51707,1,8,0:0:0:0:
504,83,51868,1,0,1:2:0:0:
444,79,51949,1,0,1:2:0:0:
207,65,52030,1,8,0:0:0:0:
479,93,52191,6,0,L|478:224,1,106.5,8|0,0:0|0:0,0:0:0:0:
70,258,52675,6,0,P|82:194|195:176,1,159.75,6|0,1:2|0:0,0:0:0:0:
351,179,52997,1,8,0:0:0:0:
215,123,53159,1,0,0:0:0:0:
471,114,53320,1,0,1:2:0:0:
215,123,53481,1,2,1:2:0:0:
351,179,53643,1,8,0:0:0:0:
106,272,53804,6,0,L|333:269,1,213,6|0,1:2|1:2,0:0:0:0:
34,200,54288,1,8,0:0:0:0:
318,205,54449,1,0,1:2:0:0:
160,199,54610,1,0,1:2:0:0:
442,212,54772,1,0,1:2:0:0:
160,199,54933,1,8,0:0:0:0:
318,205,55094,1,2,0:0:0:0:
64,243,55255,6,0,P|13:218|103:135,1,213,2|10,1:2|0:0,0:0:0:0:
348,115,55739,1,2,1:2:0:0:
276,108,55819,1,8,0:0:0:0:
80,122,55901,1,0,1:2:0:0:
222,169,56062,1,2,1:2:0:0:
363,182,56223,1,8,0:0:0:0:
62,198,56384,6,0,P|56:134|200:87,1,213,6|0,1:2|1:2,0:0:0:0:
446,228,56868,1,8,0:0:0:0:
208,280,57030,2,0,L|433:284,1,213,4|0,1:2|1:2,0:0:0:0:
271,198,57514,1,8,0:0:0:0:
420,283,57675,1,0,1:2:0:0:
111,141,57836,5,2,1:2:0:0:
261,99,57997,1,0,1:2:0:0:
411,88,58159,1,8,0:0:0:0:
261,99,58320,1,0,1:2:0:0:
491,144,58481,1,0,1:2:0:0:
168,91,58643,1,2,1:2:0:0:
325,69,58804,1,8,0:0:0:0:
14,207,58965,6,0,L|271:207,1,213,6|0,1:2|1:2,0:0:0:0:
501,207,59449,1,8,0:0:0:0:
341,131,59610,1,0,1:2:0:0:
282,128,59690,1,8,0:0:0:0:
104,98,59772,1,0,1:2:0:0:
249,69,59933,1,0,1:2:0:0:
104,98,60094,1,8,0:0:0:0:
461,99,60255,1,2,1:2:0:0:
217,207,60417,6,0,L|355:204,1,106.5,2|0,1:2|0:0,0:0:0:0:
69,136,60739,1,10,0:0:0:0:
353,142,60901,2,0,L|112:137,1,213,2|0,1:2|1:2,0:0:0:0:
443,72,61384,1,8,0:0:0:0:
51,59,61546,1,6,1:2:0:0:
443,72,61707,6,0,L|316:73,1,106.5,0|0,0:0|1:2,0:0:0:0:
51,59,62030,1,10,0:0:0:0:
204,78,62191,2,0,L|206:154,1,53.25,10|8,0:0|0:0,0:0:0:0:
27,158,62352,1,8,0:0:0:0:
181,152,62514,1,8,0:0:0:0:
334,153,62675,1,8,0:0:0:0:
487,157,62836,1,8,0:0:0:0:
95,253,62997,6,0,L|346:243,1,213,6|8,1:2|0:0,0:0:0:0:
151,158,63481,1,0,1:2:0:0:
393,155,63643,1,0,1:2:0:0:
151,158,63804,1,2,1:2:0:0:
477,111,63965,1,8,0:0:0:0:
151,158,64126,6,0,P|82:164|14:288,1,213,6|0,1:2|1:2,0:0:0:0:
349,273,64610,1,8,0:0:0:0:
196,172,64772,1,0,1:2:0:0:
258,169,64852,1,0,1:2:0:0:
450,167,64933,1,8,1:2:0:0:
144,107,65094,5,8,1:2:0:0:
425,256,65578,6,0,L|161:245,1,213,6|8,1:2|0:0,0:0:0:0:
366,156,66062,1,0,1:2:0:0:
111,153,66224,1,0,1:2:0:0:
366,156,66385,1,2,1:2:0:0:
23,106,66546,1,8,0:0:0:0:
366,156,66707,6,0,P|439:162|504:295,1,213,6|0,1:2|1:2,0:0:0:0:
158,277,67191,1,8,0:0:0:0:
319,170,67353,1,0,1:2:0:0:
253,167,67433,1,8,0:0:0:0:
51,165,67514,1,0,1:2:0:0:
373,102,67675,1,0,1:2:0:0:
221,87,67836,1,8,0:0:0:0:
475,74,67997,1,2,1:2:0:0:
412,57,68078,1,8,0:0:0:0:
224,208,68159,6,0,L|363:202,1,106.5,2|0,1:2|1:2,0:0:0:0:
61,130,68481,1,10,0:0:0:0:
353,105,68643,2,0,L|356:238,1,106.5,2|0,1:2|1:2,0:0:0:0:
112,239,68965,1,2,1:2:0:0:
388,252,69126,1,8,0:0:0:0:
79,167,69288,6,0,L|300:162,1,213,6|0,1:2|1:2,0:0:0:0:
21,87,69772,1,8,0:0:0:0:
315,198,69933,2,0,L|101:195,1,213,4|0,1:2|1:2,0:0:0:0:
418,149,70417,2,0,L|428:22,1,106.5,8|0,0:0|1:2,0:0:0:0:
124,149,70739,6,0,L|379:138,1,213,2|8,1:2|0:0,0:0:0:0:
70,66,71223,2,0,L|159:61,1,53.25,0|8,1:2|0:0,0:0:0:0:
320,62,71384,1,0,1:2:0:0:
175,50,71546,1,2,1:2:0:0:
447,139,71707,1,8,0:0:0:0:
107,216,71868,6,0,P|46:199|137:131,1,213,6|0,1:2|1:2,0:0:0:0:
358,180,72352,2,0,L|227:175,1,106.5,8|0,0:0|1:2,0:0:0:0:
498,184,72675,1,0,1:2:0:0:
186,81,72836,1,2,1:2:0:0:
340,75,72997,1,8,0:0:0:0:
63,109,73159,1,2,0:0:0:0:
340,75,73320,6,0,L|348:215,1,106.5,0|0,1:2|0:0,0:0:0:0:
63,109,73643,2,0,L|52:-24,1,106.5,8|0,0:0|0:0,0:0:0:0:
326,184,73965,1,0,1:2:0:0:
181,168,74126,1,0,1:2:0:0:
326,184,74288,1,8,0:0:0:0:
55,117,74449,1,6,1:2:0:0:
329,161,74610,6,0,L|329:43,1,106.5,2|0,0:0|1:2,0:0:0:0:
178,56,74933,1,10,0:0:0:0:
490,61,75094,2,0,L|376:51,1,106.5,2|8,1:2|0:0,0:0:0:0:
40,80,75417,2,0,L|178:74,1,106.5,2|0,1:2|0:0,0:0:0:0:
411,202,75739,6,0,L|156:182,1,213,6|0,1:2|1:2,0:0:0:0:
491,139,76223,2,0,L|496:22,1,106.5,10|0,0:0|0:0,0:0:0:0:
259,142,76546,1,10,0:0:0:0:
491,139,76707,1,0,0:0:0:0:
259,142,76868,2,0,L|256:24,1,106.5,10|0,0:0|1:2,0:0:0:0:
31,237,77191,6,0,L|25:108,1,106.5,10|0,0:0|1:2,0:0:0:0:
313,214,77514,2,0,L|308:77,1,106.5,10|0,0:0|1:2,0:0:0:0:
237,109,77755,1,0,1:2:0:0:
45,186,77836,2,0,L|36:55,1,106.5,10|0,0:0|1:2,0:0:0:0:
358,244,78159,2,0,L|365:116,1,106.5,10|0,0:0|1:2,0:0:0:0:
116,121,78481,5,10,0:0:0:0:
367,122,78642,1,0,1:2:0:0:
47,168,78804,2,0,L|39:50,1,106.5,10|0,0:0|1:2,0:0:0:0:
112,87,79046,1,0,1:2:0:0:
285,168,79126,2,0,L|400:170,1,106.5,10|0,0:0|1:2,0:0:0:0:
96,144,79449,2,0,L|86:28,1,106.5,10|0,0:0|1:2,0:0:0:0:
349,148,79772,5,10,0:0:0:0:
96,144,79933,1,0,1:2:0:0:
436,204,80094,2,0,L|443:88,1,106.5,10|0,0:0|1:2,0:0:0:0:
366,79,80336,1,0,1:2:0:0:
177,69,80417,2,0,L|28:71,1,106.5,10|0,0:0|1:2,0:0:0:0:
133,132,80659,1,0,1:2:0:0:
362,173,80739,2,0,L|367:64,1,106.5,10|0,0:0|1:2,0:0:0:0:
294,55,80981,1,0,1:2:0:0:
100,191,81062,5,10,0:0:0:0:
247,152,81223,1,0,1:2:0:0:
319,150,81304,1,0,1:2:0:0:
483,158,81384,1,10,0:0:0:0:
345,108,81546,1,0,1:2:0:0:
266,101,81627,1,0,1:2:0:0:
109,114,81707,1,10,0:0:0:0:
242,53,81868,1,0,1:2:0:0:
302,49,81949,1,0,1:2:0:0:
138,27,82030,1,10,0:0:0:0:
17,24,82191,1,0,1:2:0:0:
81,21,82272,1,0,1:2:0:0:
286,138,82352,5,10,0:0:0:0:
160,82,82514,1,0,1:2:0:0:
227,72,82594,1,0,1:2:0:0:
413,97,82675,1,10,0:0:0:0:
283,47,82836,1,0,1:2:0:0:
349,44,82917,1,0,1:2:0:0:
162,218,82997,2,0,L|159:69,1,106.5,10|0,0:0|1:2,0:0:0:0:
234,69,83239,1,0,1:2:0:0:
66,114,83320,2,0,L|197:86,1,106.5,10|0,0:0|1:2,0:0:0:0:
244,106,83562,1,0,1:2:0:0:
429,124,83643,6,0,L|435:194,1,53.25,10|8,0:0|0:0,0:0:0:0:
266,194,83804,2,0,L|180:192,1,53.25,0|0,1:2|1:2,0:0:0:0:
398,168,83965,1,10,0:0:0:0:
458,154,84045,1,8,0:0:0:0:
461,104,84126,1,0,1:2:0:0:
402,85,84206,1,0,1:2:0:0:
199,93,84288,6,0,L|271:79,1,53.25,10|8,0:0|0:0,0:0:0:0:
346,79,84449,2,0,L|353:13,1,53.25,0|0,1:2|1:2,0:0:0:0:
164,36,84610,2,0,L|82:33,1,53.25,10|8,0:0|0:0,0:0:0:0:
202,107,84772,2,0,L|257:108,1,53.25,0|0,1:2|1:2,0:0:0:0:
68,140,84933,6,0,L|62:71,1,53.25,10|8,0:0|0:0,0:0:0:0:
269,58,85094,2,0,L|169:56,1,53.25,0|0,1:2|1:2,0:0:0:0:
401,177,85255,1,10,0:0:0:0:
463,179,85335,1,8,0:0:0:0:
401,177,85417,1,0,1:2:0:0:
161,118,85578,5,10,1:2:0:0:
304,122,85739,1,10,1:2:0:0:
40,186,85901,1,10,1:2:0:0:
387,202,86062,5,14,1:2:0:0:
256,192,86223,12,0,87514,0:0:0:0:
