osu file format v14

[General]
AudioFilename: audio.mp3
AudioLeadIn: 0
PreviewTime: 52594
Countdown: 0
SampleSet: Soft
StackLeniency: 0.7
Mode: 0
LetterboxInBreaks: 0
WidescreenStoryboard: 0

[Editor]
DistanceSpacing: 0.7
BeatDivisor: 4
GridSize: 32
TimelineZoom: 4.199998

[Metadata]
Title:Light My Fire (TV Size)
TitleUnicode:Light My Fire (TV Size)
Artist:KOTOKO
ArtistUnicode:KOTOKO
Creator:Kujinn
Version:Eternal Sacred Fire
Source:灼眼のシャナⅢ-FINAL-
Tags:reform shakugan no shana III opening anime japanese j rock op 1 ryo supercell j-rock
BeatmapID:3222663
BeatmapSetID:1578248

[Difficulty]
HPDrainRate:5.5
CircleSize:4
OverallDifficulty:9
ApproachRate:9.3
SliderMultiplier:1.74
SliderTickRate:1

[Events]
//Background and Video events
0,0,"BG.jpg",0,0
//Break Periods
//Storyboard Layer 0 (Background)
//Storyboard Layer 1 (Fail)
//Storyboard Layer 2 (Pass)
//Storyboard Layer 3 (Foreground)
//Storyboard Layer 4 (Overlay)
//Storyboard Sound Samples

[TimingPoints]
295,322.58064516129,4,2,22,50,1,0
375,-133.333333333333,4,2,22,5,0,0
6263,322.58064516129,4,2,22,50,1,0
6263,-181.818181818181,4,2,22,55,0,0
8682,-181.818181818181,4,2,22,60,0,0
9811,-133.333333333333,4,2,22,50,0,0
10125,322.58064516129,4,2,22,50,1,0
10125,-133.333333333333,4,2,22,65,0,0
11385,322.58064516129,4,2,22,50,1,0
11385,-117.647058823529,4,2,22,75,0,0
16546,-133.333333333333,4,2,22,55,0,0
26868,-105.263157894737,4,2,22,65,0,0
37191,-133.333333333334,4,2,22,45,0,0
49933,-133.333333333334,4,2,22,75,0,0
52675,-80,4,2,22,80,0,0
65578,-74.0740740740741,4,2,22,85,0,0
75739,-68.9655172413793,4,2,22,90,0,0

[Colours]
Combo1 : 244,170,32
Combo2 : 99,14,14
Combo3 : 217,23,23
Combo4 : 237,82,7

[HitObjects]
256,192,295,12,0,5294,0:0:0:0:
77,40,6263,5,2,3:2:0:0:
83,50,6424,1,0,0:0:0:0:
166,77,6585,5,2,0:0:0:0:
153,77,6746,1,0,0:0:0:0:
88,133,6908,5,2,0:0:0:0:
94,121,7069,1,0,0:0:0:0:
149,251,7553,5,2,0:0:0:0:
143,261,7714,1,0,0:0:0:0:
60,288,7875,5,2,0:0:0:0:
73,288,8036,1,0,0:0:0:0:
138,344,8198,5,2,0:0:0:0:
132,332,8359,1,0,0:0:0:0:
331,273,8682,5,0,1:2:0:0:
331,273,8762,1,0,1:2:0:0:
331,273,8843,2,0,L|346:334,1,47.8500014602662,2|8,1:2|0:0,0:0:0:0:
303,170,9166,1,2,0:0:0:0:
409,226,9327,1,0,1:2:0:0:
387,88,9488,2,0,L|376:135,1,47.8500014602662,2|8,1:2|0:0,0:0:0:0:
203,8,9811,6,0,P|190:47|232:95,1,97.8750037336351
242,99,10125,5,8,1:2:0:0:
61,203,10286,1,8,1:2:0:0:
50,199,10770,5,8,1:2:0:0:
231,303,10931,1,8,1:2:0:0:
239,306,11385,6,0,P|255:239|280:142,1,147.900002820969,6|2,1:2|1:2,0:0:0:0:
232,29,11868,1,8,0:0:0:0:
232,29,11949,1,8,0:0:0:0:
232,29,12030,2,0,P|252:63|309:63,1,73.9500014104843,2|8,1:2|0:0,0:0:0:0:
342,120,12272,1,8,0:0:0:0:
347,126,12352,2,0,P|408:110|453:97,1,73.9500014104843,0|8,1:2|0:0,0:0:0:0:
476,61,12594,5,8,0:0:0:0:
476,53,12675,2,0,P|496:89|485:137,1,73.9500014104843,2|8,1:2|0:0,0:0:0:0:
423,192,12917,1,8,0:0:0:0:
417,188,12997,2,0,P|432:239|444:281,1,73.9500014104843,2|8,1:2|0:0,0:0:0:0:
385,336,13239,1,8,0:0:0:0:
390,329,13320,2,0,P|346:315|293:297,1,73.9500014104843,2|8,1:2|0:0,0:0:0:0:
259,349,13562,1,8,0:0:0:0:
264,356,13643,2,0,P|220:370|167:388,1,73.9500014104843,0|8,1:2|0:0,0:0:0:0:
32,282,13965,6,0,P|46:227|64:145,1,110.925002115727,2|0,1:2|0:0,0:0:0:0:
45,158,14288,1,2,1:2:0:0:
191,100,14449,1,8,0:0:0:0:
191,100,14530,1,8,0:0:0:0:
191,100,14610,1,2,1:2:0:0:
53,39,14772,2,0,L|41:4,2,36.9750007052422,8|8|0,0:0|0:0|1:2,0:0:0:0:
123,230,15094,1,8,0:0:0:0:
123,230,15175,1,8,0:0:0:0:
123,230,15255,6,0,L|139:171,3,36.9750007052422,2|0|0|0,1:2|1:2|1:2|1:2,0:0:0:0:
232,316,15578,2,0,L|248:375,3,36.9750007052422,0|0|0|0,1:2|1:2|1:2|1:2,0:0:0:0:
334,213,15901,5,10,0:0:0:0:
355,197,15981,1,8,0:0:0:0:
380,191,16062,1,8,0:0:0:0:
407,193,16142,1,8,0:0:0:0:
430,204,16223,1,8,0:0:0:0:
449,223,16304,1,8,0:0:0:0:
459,247,16384,1,8,0:0:0:0:
461,273,16465,1,8,0:0:0:0:
454,294,16546,6,0,P|403:308|315:341,1,130.50000497818,4|0,1:2|0:0,0:0:0:0:
234,377,17030,1,0,0:0:0:0:
225,377,17191,2,0,P|191:371|166:329,1,65.2500024890901,2|0,0:0|0:0,0:0:0:0:
116,263,17514,2,0,P|128:221|142:174,1,65.2500024890901,2|0,0:0|0:0,0:0:0:0:
74,87,17836,5,2,0:0:0:0:
69,80,17997,2,0,P|102:76|136:109,1,65.2500024890901,2|0,0:0|0:0,0:0:0:0:
202,17,18320,2,0,P|221:43|210:89,1,65.2500024890901,2|0,0:0|0:0,0:0:0:0:
304,117,18643,2,0,P|290:147|245:160,1,65.2500024890901,2|0,0:0|0:0,0:0:0:0:
146,253,18965,5,2,0:0:0:0:
94,192,19126,1,0,0:0:0:0:
93,186,19288,2,0,P|50:196|7:207,1,65.2500024890901,0|0,0:0|0:0,0:0:0:0:
148,245,19610,5,0,0:0:0:0:
179,162,19771,1,0,0:0:0:0:
184,158,19933,2,0,P|153:125|122:94,1,65.2500024890901
160,240,20255,5,0,0:0:0:0:
248,217,20416,1,0,0:0:0:0:
254,219,20578,2,0,P|266:176|278:134,1,65.2500024890901
167,235,20901,5,0,0:0:0:0:
226,299,21062,1,2,0:0:0:0:
228,305,21224,2,0,P|271:294|314:284,1,65.2500024890901,2|0,0:0|0:0,0:0:0:0:
357,331,21546,1,2,0:0:0:0:
472,286,21707,6,0,P|461:244|430:138,1,130.50000497818
376,106,22191,1,0,0:0:0:0:
436,58,22352,1,0,0:0:0:0:
444,63,22514,2,0,P|456:18|467:-29,1,65.2500024890901
367,117,22836,5,0,0:0:0:0:
307,69,22997,1,0,0:0:0:0:
299,74,23159,2,0,P|287:29|276:-18,1,65.2500024890901
374,130,23481,5,2,0:0:0:0:
434,82,23643,1,2,0:0:0:0:
442,87,23804,2,0,P|454:42|465:-5,1,65.2500024890901,2|0,0:0|0:0,0:0:0:0:
366,147,24126,1,2,0:0:0:0:
474,216,24288,6,0,P|439:233|351:285,1,130.50000497818
335,348,24772,1,0,0:0:0:0:
325,354,24933,2,0,P|296:335|288:291,1,65.2500024890901
294,231,25255,1,0,0:0:0:0:
207,318,25417,5,0,0:0:0:0:
196,312,25578,2,0,P|197:277|232:248,1,65.2500024890901
287,223,25900,1,0,0:0:0:0:
150,195,26062,5,0,1:2:0:0:
150,195,26143,1,0,1:2:0:0:
150,195,26223,1,8,0:0:0:0:
186,127,26384,2,0,P|199:180|222:281,1,130.50000497818,0|0,1:2|1:2,0:0:0:0:
16,384,26868,6,0,B|66:400|98:360|74:342|120:303|170:329,1,165.299995586014,4|8,1:2|0:0,0:0:0:0:
318,376,27352,1,0,0:0:0:0:
274,205,27514,2,0,P|231:223|219:284,1,82.649997793007,2|0,1:2|0:0,0:0:0:0:
382,324,27836,2,0,P|423:337|471:355,1,82.649997793007,10|0,0:0|0:0,0:0:0:0:
422,117,28159,5,2,1:2:0:0:
416,111,28320,2,0,P|405:163|394:216,1,82.649997793007,2|8,0:0|0:0,0:0:0:0:
298,354,28643,2,0,P|289:313|280:273,1,82.649997793007,2|0,0:0|1:2,0:0:0:0:
147,131,28965,2,0,P|185:167|227:163,1,82.649997793007,2|8,0:0|0:0,0:0:0:0:
290,119,29288,1,2,0:0:0:0:
28,12,29449,5,0,1:2:0:0:
19,7,29610,2,0,P|34:66|47:123,1,82.649997793007,0|8,0:0|0:0,0:0:0:0:
30,210,29933,1,0,0:0:0:0:
215,94,30094,5,0,1:2:0:0:
224,89,30255,2,0,P|209:148|196:205,1,82.649997793007,0|8,0:0|0:0,0:0:0:0:
252,293,30578,1,0,0:0:0:0:
401,151,30739,5,0,1:2:0:0:
392,146,30900,2,0,P|407:205|420:262,1,82.649997793007,0|8,0:0|0:0,0:0:0:0:
334,361,31223,1,2,0:0:0:0:
434,305,31384,1,2,1:2:0:0:
337,262,31546,1,2,0:0:0:0:
425,382,31707,2,0,P|471:377|504:333,1,82.649997793007,8|2,0:0|0:0,0:0:0:0:
286,178,32030,5,0,1:2:0:0:
221,279,32191,2,0,P|208:212|197:160,1,82.649997793007,0|8,0:0|0:0,0:0:0:0:
331,85,32514,5,0,0:0:0:0:
286,178,32675,1,0,1:2:0:0:
443,180,32836,2,0,P|398:167|344:152,1,82.649997793007,0|8,0:0|0:0,0:0:0:0:
205,197,33159,5,0,0:0:0:0:
262,291,33320,1,0,1:2:0:0:
105,293,33481,2,0,P|150:280|204:265,1,82.649997793007,0|8,0:0|0:0,0:0:0:0:
286,178,33804,1,0,0:0:0:0:
392,351,33965,5,2,1:2:0:0:
384,359,34126,2,0,P|342:358|306:312,1,82.649997793007,2|8,0:0|0:0,0:0:0:0:
399,210,34449,1,2,0:0:0:0:
480,370,34610,5,0,1:2:0:0:
473,357,34772,2,0,P|486:309|501:259,1,82.649997793007,0|8,0:0|0:0,0:0:0:0:
474,172,35094,1,0,0:0:0:0:
327,291,35255,5,0,1:2:0:0:
333,278,35417,2,0,P|320:230|305:180,1,82.649997793007,0|8,0:0|0:0,0:0:0:0:
333,93,35739,1,0,0:0:0:0:
136,199,35901,5,0,1:2:0:0:
136,199,35981,1,8,0:0:0:0:
136,199,36062,2,0,P|149:151|164:101,1,82.649997793007,8|0,0:0|0:0,0:0:0:0:
87,12,36384,1,2,1:2:0:0:
87,12,36465,1,8,0:0:0:0:
87,12,36546,5,8,0:0:0:0:
283,138,36707,1,8,0:0:0:0:
19,228,36868,1,8,0:0:0:0:
165,57,37030,1,8,0:0:0:0:
178,270,37191,6,0,P|128:287|56:337,1,130.50000497818,6|0,3:2|0:0,0:0:0:0:
63,329,37836,2,0,P|92:377|179:370,1,130.50000497818,2|0,0:0|0:0,0:0:0:0:
264,337,38320,2,0,P|248:270|221:195,1,130.50000497818,2|0,0:0|0:0,0:0:0:0:
312,161,38804,1,0,0:0:0:0:
316,152,38965,2,0,P|349:159|381:201,1,65.2500024890901,2|0,0:0|0:0,0:0:0:0:
450,127,39288,2,0,P|475:178|453:272,1,130.50000497818,2|0,0:0|0:0,0:0:0:0:
352,356,39772,6,0,P|312:342|271:335,1,65.2500024890901,0|2,0:0|0:0,0:0:0:0:
244,255,40094,2,0,P|204:269|163:276,1,65.2500024890901,2|0,0:0|0:0,0:0:0:0:
100,359,40417,2,0,P|84:301|56:206,1,130.50000497818,2|0,0:0|0:0,0:0:0:0:
13,85,40901,2,0,P|24:132|115:133,1,130.50000497818,2|0,0:0|0:0,0:0:0:0:
169,58,41384,2,0,P|182:95|192:142,1,65.2500024890901,2|0,0:0|0:0,0:0:0:0:
251,230,41707,1,0,0:0:0:0:
258,235,41868,2,0,P|271:186|290:89,1,130.50000497818,2|0,0:0|0:0,0:0:0:0:
389,25,42352,6,0,P|429:18|480:93,1,130.50000497818,2|0,0:0|0:0,0:0:0:0:
442,167,42836,1,0,0:0:0:0:
454,175,42997,2,0,P|396:194|320:234,1,130.50000497818,2|0,0:0|0:0,0:0:0:0:
250,289,43481,2,0,P|295:284|347:365,1,130.50000497818,2|2,0:0|0:0,0:0:0:0:
347,342,44126,1,0,0:0:0:0:
347,251,44288,2,0,P|359:214|378:166,1,65.2500024890901,2|0,0:0|0:0,0:0:0:0:
251,89,44610,2,0,P|262:119|272:150,1,65.2500024890901,2|0,0:0|0:0,0:0:0:0:
467,88,44933,6,0,P|424:100|359:29,1,130.50000497818,2|0,0:0|0:0,0:0:0:0:
361,50,45417,1,0,0:0:0:0:
258,8,45578,2,0,P|215:-4|150:67,1,130.50000497818,2|0,0:0|0:0,0:0:0:0:
59,93,46062,6,0,P|78:143|99:221,1,130.50000497818,2|0,0:0|0:0,0:0:0:0:
44,279,46546,1,2,0:0:0:0:
44,279,46707,1,0,0:0:0:0:
112,324,46868,1,2,0:0:0:0:
40,376,47030,2,0,P|84:360|180:335,1,130.50000497818,0|2,0:0|0:0,0:0:0:0:
247,374,47514,5,0,1:2:0:0:
256,192,47594,12,0,49772,0:0:0:0:
379,291,49933,5,0,1:2:0:0:
379,291,50014,1,0,1:2:0:0:
379,291,50094,1,10,0:0:0:0:
111,187,50255,1,8,0:0:0:0:
330,99,50417,5,0,1:2:0:0:
330,99,50497,1,0,1:2:0:0:
330,99,50578,1,8,0:0:0:0:
250,355,50739,1,8,0:0:0:0:
169,66,50901,5,2,1:2:0:0:
169,66,50981,1,0,1:2:0:0:
169,66,51062,1,8,0:0:0:0:
437,179,51223,1,10,0:0:0:0:
159,285,51384,5,0,1:2:0:0:
159,285,51465,1,0,1:2:0:0:
159,285,51546,1,8,0:0:0:0:
247,7,51707,1,8,0:0:0:0:
315,362,51868,6,0,L|294:302,1,32.625001244545,0|0,1:2|1:2,0:0:0:0:
41,267,52030,5,8,0:0:0:0:
447,96,52191,1,8,0:0:0:0:
447,96,52675,6,0,P|368:118|282:190,1,163.125,6|0,1:2|0:0,0:0:0:0:
219,168,52997,2,0,P|184:134|200:66,1,108.75,8|0,0:0|0:0,0:0:0:0:
332,305,53320,1,0,1:2:0:0:
133,205,53481,1,2,1:2:0:0:
326,112,53643,1,8,0:0:0:0:
176,329,53804,6,0,B|118:316|79:381|79:381|7:368|21:291,1,217.5,6|0,1:2|1:2,0:0:0:0:
125,18,54288,2,0,P|166:30|179:108,1,108.75,8|0,0:0|1:2,0:0:0:0:
167,158,54530,1,8,0:0:0:0:
163,169,54610,1,0,1:2:0:0:
266,333,54772,1,0,1:2:0:0:
19,271,54933,2,0,P|66:250|127:235,1,108.75,8|2,0:0|0:0,0:0:0:0:
368,21,55255,6,0,B|330:3|330:3|377:58|401:113,1,163.125,2|0,1:2|0:0,0:0:0:0:
368,169,55578,1,10,0:0:0:0:
505,36,55739,1,2,1:2:0:0:
500,29,55820,1,8,0:0:0:0:
496,22,55901,1,0,1:2:0:0:
260,142,56062,5,2,1:2:0:0:
476,257,56223,1,8,0:0:0:0:
344,58,56384,6,0,B|310:107|348:175|377:135|435:198|382:271,1,217.5,6|0,1:2|1:2,0:0:0:0:
336,309,56868,1,8,0:0:0:0:
407,98,57030,6,0,B|431:152|380:212|359:167|290:218|329:299,1,217.5,4|0,1:2|1:2,0:0:0:0:
436,378,57514,1,8,0:0:0:0:
448,370,57675,1,0,1:2:0:0:
239,137,57836,5,2,1:2:0:0:
135,301,57997,1,0,1:2:0:0:
310,215,58159,1,8,0:0:0:0:
129,69,58320,5,0,1:2:0:0:
125,63,58401,1,8,0:0:0:0:
120,57,58482,1,0,1:2:0:0:
218,298,58643,1,2,1:2:0:0:
335,115,58804,1,8,0:0:0:0:
23,204,58965,6,0,B|64:253|139:227|109:188|186:157|237:225,1,217.5,6|0,1:2|1:2,0:0:0:0:
396,373,59449,2,0,P|349:377|323:303,1,108.75,8|0,0:0|1:2,0:0:0:0:
304,260,59691,1,8,0:0:0:0:
309,251,59772,1,0,1:2:0:0:
452,156,59933,1,0,1:2:0:0:
162,345,60094,2,0,P|109:320|35:294,1,108.75,8|2,0:0|1:2,0:0:0:0:
282,37,60417,6,0,B|333:15|333:15|277:80|241:194,1,217.5,2|10,1:2|0:0,0:0:0:0:
351,337,60901,1,2,1:2:0:0:
357,332,60981,1,8,0:0:0:0:
363,328,61062,1,0,1:2:0:0:
188,240,61223,1,0,1:2:0:0:
363,148,61384,1,8,0:0:0:0:
86,109,61546,6,0,B|60:87|28:89|28:89|61:21|139:13|177:83,1,217.5,6|0,1:2|1:2,0:0:0:0:
25,174,62030,1,10,0:0:0:0:
244,55,62191,1,10,0:0:0:0:
241,49,62272,1,8,0:0:0:0:
238,42,62352,5,8,0:0:0:0:
174,293,62514,1,8,0:0:0:0:
403,119,62675,5,8,0:0:0:0:
461,364,62836,1,8,0:0:0:0:
295,261,62997,6,0,B|250:248|218:299|218:299|161:268|188:215,1,163.125,6|0,1:2|0:0,0:0:0:0:
217,177,63320,1,8,0:0:0:0:
135,55,63481,1,0,1:2:0:0:
143,53,63562,1,8,0:0:0:0:
152,50,63643,1,0,1:2:0:0:
67,219,63804,1,2,1:2:0:0:
303,85,63965,1,8,0:0:0:0:
42,30,64126,6,0,P|70:95|113:247,1,217.5,6|0,1:2|1:2,0:0:0:0:
346,294,64610,1,8,0:0:0:0:
239,146,64772,2,0,P|220:167|219:207,1,54.375,0|0,1:2|1:2,0:0:0:0:
174,361,64933,5,8,1:2:0:0:
288,24,65094,1,8,1:2:0:0:
288,24,65578,6,0,B|261:80|314:138|335:93|402:150|365:225,1,234.900000896072,6|8,1:2|0:0,0:0:0:0:
189,368,66062,1,0,1:2:0:0:
176,362,66143,1,8,0:0:0:0:
165,358,66223,1,0,1:2:0:0:
400,308,66384,1,2,1:2:0:0:
208,165,66546,1,8,0:0:0:0:
372,65,66707,6,0,B|377:41|396:21|396:21|307:78|302:223,1,234.900000896072,6|0,1:2|1:2,0:0:0:0:
54,332,67191,2,0,P|75:271|146:257,1,117.450000448036,8|0,0:0|1:2,0:0:0:0:
195,246,67433,1,8,0:0:0:0:
190,237,67514,1,0,1:2:0:0:
381,365,67675,1,0,1:2:0:0:
183,92,67836,5,8,0:0:0:0:
273,353,67997,1,2,1:2:0:0:
267,366,68078,1,8,0:0:0:0:
261,380,68159,2,0,P|278:309|309:225,1,117.450000448036,2|0,1:2|1:2,0:0:0:0:
406,103,68481,1,10,0:0:0:0:
224,194,68643,1,2,1:2:0:0:
214,190,68723,1,8,0:0:0:0:
204,186,68804,5,0,1:2:0:0:
432,304,68965,1,2,1:2:0:0:
305,101,69126,1,8,0:0:0:0:
73,303,69288,6,0,B|41:296|11:321|11:321|52:247|136:247|185:300,1,234.900000896072,6|0,1:2|1:2,0:0:0:0:
380,384,69772,1,8,0:0:0:0:
446,126,69933,6,0,B|378:113|335:171|381:190|335:267|244:232,1,234.900000896072,4|0,1:2|1:2,0:0:0:0:
95,82,70417,1,8,0:0:0:0:
86,72,70578,1,0,1:2:0:0:
156,264,70739,6,0,B|112:295|112:295|148:229|182:152,1,176.175000672054,2|0,1:2|0:0,0:0:0:0:
202,122,71062,1,8,0:0:0:0:
24,228,71223,1,0,1:2:0:0:
16,224,71304,1,8,0:0:0:0:
7,219,71384,1,0,1:2:0:0:
245,344,71546,1,2,1:2:0:0:
104,135,71707,1,8,0:0:0:0:
23,378,71868,6,0,P|98:317|259:257,1,234.900000896072,6|0,1:2|1:2,0:0:0:0:
428,371,72352,2,0,P|385:377|339:305,1,117.450000448036,8|0,0:0|1:2,0:0:0:0:
309,262,72594,1,8,0:0:0:0:
312,253,72675,1,0,1:2:0:0:
496,194,72836,1,2,1:2:0:0:
330,59,72997,2,0,P|348:121|363:194,1,117.450000448036,8|2,0:0|0:0,0:0:0:0:
94,343,73320,6,0,B|87:297|125:264|139:296|187:255|170:199,1,176.175000672054,0|0,1:2|0:0,0:0:0:0:
138,135,73643,2,0,P|166:186|236:179,1,117.450000448036,8|0,0:0|0:0,0:0:0:0:
352,85,73965,1,0,1:2:0:0:
361,88,74126,1,0,1:2:0:0:
199,7,74288,1,8,0:0:0:0:
243,247,74449,6,0,P|264:147|294:3,1,234.900000896072,6|0,1:2|1:2,0:0:0:0:
331,224,74933,5,10,0:0:0:0:
195,72,75094,1,2,1:2:0:0:
131,373,75255,5,8,0:0:0:0:
369,86,75417,1,2,1:2:0:0:
369,86,75739,6,0,B|340:71|294:78|294:78|365:97|410:181,1,189.225005774689,6|0,1:2|0:0,0:0:0:0:
427,206,76062,1,0,1:2:0:0:
472,29,76223,5,10,0:0:0:0:
244,172,76384,1,0,0:0:0:0:
472,29,76546,5,10,0:0:0:0:
244,172,76707,1,0,0:0:0:0:
419,310,76868,5,10,0:0:0:0:
308,24,77030,1,0,1:2:0:0:
354,356,77191,5,10,0:0:0:0:
232,73,77352,1,0,1:2:0:0:
163,309,77514,5,10,0:0:0:0:
409,173,77675,1,0,1:2:0:0:
409,173,77755,1,0,1:2:0:0:
409,173,77836,5,10,0:0:0:0:
126,43,77997,1,0,1:2:0:0:
407,17,78159,5,10,0:0:0:0:
109,193,78320,1,0,1:2:0:0:
279,359,78481,6,0,B|306:322|348:336|348:336|368:296|321:274,1,126.150003849793,10|0,0:0|1:2,0:0:0:0:
213,38,78804,5,10,0:0:0:0:
135,292,78965,1,0,1:2:0:0:
142,287,79046,1,0,1:2:0:0:
149,282,79126,5,10,0:0:0:0:
385,128,79288,1,0,1:2:0:0:
373,378,79449,5,10,0:0:0:0:
290,114,79610,1,0,1:2:0:0:
60,361,79772,5,10,0:0:0:0:
268,264,79933,1,0,1:2:0:0:
42,126,80094,5,10,0:0:0:0:
192,355,80255,1,0,1:2:0:0:
188,347,80336,1,0,1:2:0:0:
184,337,80417,1,10,0:0:0:0:
290,56,80578,1,0,1:2:0:0:
286,64,80659,1,0,1:2:0:0:
282,74,80740,1,10,0:0:0:0:
464,313,80901,5,0,1:2:0:0:
472,317,80981,1,0,1:2:0:0:
481,322,81062,2,0,P|477:262|386:245,1,126.150003849793,10|0,0:0|1:2,0:0:0:0:
363,299,81304,1,0,1:2:0:0:
357,293,81384,2,0,P|286:325|229:362,1,126.150003849793,10|0,0:0|1:2,0:0:0:0:
179,332,81626,1,0,1:2:0:0:
170,327,81707,1,10,0:0:0:0:
53,92,81868,6,0,P|54:118|89:153,1,63.0750019248963,0|0,1:2|1:2,0:0:0:0:
266,237,82030,1,10,0:0:0:0:
217,2,82191,5,0,1:2:0:0:
216,12,82272,1,0,1:2:0:0:
215,21,82352,1,10,0:0:0:0:
84,338,82514,6,0,P|111:309|162:276,1,63.0750019248963,0|0,1:2|1:2,0:0:0:0:
378,166,82675,1,10,0:0:0:0:
122,148,82836,6,0,P|154:171|211:193,1,63.0750019248963,0|0,1:2|1:2,0:0:0:0:
454,318,82997,1,10,0:0:0:0:
326,36,83159,5,0,1:2:0:0:
325,26,83240,1,0,1:2:0:0:
323,17,83320,2,0,P|302:83|286:161,1,126.150003849793,10|0,0:0|1:2,0:0:0:0:
347,357,83562,1,0,1:2:0:0:
342,366,83643,5,10,0:0:0:0:
311,315,83723,1,8,0:0:0:0:
259,295,83804,1,0,1:2:0:0:
205,304,83884,1,0,1:2:0:0:
173,340,83965,5,10,0:0:0:0:
119,349,84045,1,8,0:0:0:0:
67,329,84126,1,0,1:2:0:0:
36,278,84206,1,0,1:2:0:0:
67,202,84288,5,10,0:0:0:0:
71,188,84368,1,8,0:0:0:0:
75,173,84449,1,0,1:2:0:0:
79,159,84530,1,0,1:2:0:0:
85,140,84610,2,0,L|73:71,3,63.0750019248963,10|8|0|0,0:0|0:0|1:2|1:2,0:0:0:0:
215,18,84933,6,0,P|246:21|276:64,1,63.0750019248963,10|8,0:0|0:0,0:0:0:0:
364,209,85094,2,0,L|344:294,1,63.0750019248963,0|0,1:2|1:2,0:0:0:0:
481,83,85255,6,0,P|450:86|420:129,1,63.0750019248963,10|8,0:0|0:0,0:0:0:0:
257,250,85416,2,0,L|237:335,1,63.0750019248963,0|0,1:2|1:2,0:0:0:0:
348,15,85578,5,10,1:2:0:0:
446,301,85739,1,10,1:2:0:0:
164,61,85901,5,10,1:2:0:0:
73,360,86062,1,14,1:2:0:0:
