osu file format v14

[General]
AudioFilename: fluff.mp3
AudioLeadIn: 0
PreviewTime: 52824
Countdown: 0
SampleSet: Soft
StackLeniency: 0.9
Mode: 0
LetterboxInBreaks: 0
WidescreenStoryboard: 1

[Editor]
DistanceSpacing: 1.1
BeatDivisor: 4
GridSize: 4
TimelineZoom: 1.6

[Metadata]
Title:Light My Fire (TV Size)
TitleUnicode:Light My Fire (TV Size)
Artist:KOTOKO
ArtistUnicode:KOTOKO
Creator:Gaia
Version:oko's Extra
Source:灼眼のシャナⅢ-FINAL-
Tags:p_a_n pan giralda okoratu okorin akitoshi -laura- corinn -yuzuriha -yuzuriha-inori- Shakugan no Shana III opening anime japanese
BeatmapID:1080531
BeatmapSetID:398134

[Difficulty]
HPDrainRate:5
CircleSize:4.1
OverallDifficulty:8.5
ApproachRate:9.4
SliderMultiplier:1.8
SliderTickRate:2

[Events]
//Background and Video events
Video,-106,"fire.mp4"
0,0,"shanaFire.jpg",0,0
//Break Periods
//Storyboard Layer 0 (Background)
//Storyboard Layer 1 (Fail)
//Storyboard Layer 2 (Pass)
//Storyboard Layer 3 (Foreground)
//Storyboard Layer 4 (Overlay)
//Storyboard Sound Samples

[TimingPoints]
559,322.58064516129,4,2,1,5,1,0
859,560.747663551402,4,2,1,5,1,0
1139,517.241379310345,4,2,1,5,1,0
1397,480,4,2,1,5,1,0
1637,444.444444444444,4,2,1,5,1,0
1859,416.666666666667,4,2,1,5,1,0
2067,397.350993377483,4,2,1,5,1,0
2265,389.61038961039,4,2,1,5,1,0
2459,387.096774193548,4,2,1,5,1,0
2652,384.615384615385,4,2,1,5,1,0
2849,382.165605095541,4,2,1,5,1,0
3040,307.692307692308,4,2,1,5,1,0
3193,260.869565217391,4,2,1,5,1,0
3323,244.897959183673,4,2,1,5,1,0
3445,243.90243902439,4,2,1,5,1,0
3566,242.914979757085,4,2,1,5,1,0
3687,241.935483870968,4,2,1,5,1,0
3812,240,4,2,1,5,1,0
3932,238.095238095238,4,2,1,5,1,0
4052,236.220472440945,4,2,1,5,1,0
4171,233.463035019455,4,2,1,5,1,0
4287,230.769230769231,4,2,1,5,1,0
4402,228.571428571429,4,2,1,5,1,0
4516,226.415094339623,4,2,1,5,1,0
4629,224.299065420561,4,2,1,5,1,0
4741,222.222222222222,4,2,1,5,1,0
4852,220.183486238532,4,2,1,5,1,0
4962,218.181818181818,4,2,1,5,1,0
5071,217.785843920145,4,2,1,5,1,0
5179,217.391304347826,4,2,1,5,1,0
5287,216.998191681736,4,2,1,5,1,0
5395,216.606498194946,4,2,1,5,1,0
5503,500,4,2,1,5,1,0
6496,322.58064516129,4,2,2,50,1,0
6496,-111.111111111111,4,2,2,50,0,0
9076,-111.111111111111,4,2,1,50,0,0
9883,-100,4,2,1,50,0,0
10366,-100,4,2,1,70,0,0
10850,-100,4,2,1,10,0,0
11012,-100,4,2,1,70,0,0
11495,-100,4,2,1,10,0,0
11615,322.58064516129,4,2,1,80,1,0
11615,-100,4,2,1,80,0,0
16131,-100,4,2,1,60,0,0
16776,-133.333333333333,4,2,2,60,0,0
26292,-133.333333333333,4,2,1,70,0,0
27098,-100,4,2,1,70,0,0
37421,-133.333333333333,4,2,2,40,0,0
46292,-117.647058823529,4,2,2,40,0,0
47744,-117.647058823529,4,2,2,70,0,0
47824,-117.647058823529,4,2,31,5,0,0
48389,-117.647058823529,4,2,2,5,0,0
49034,-117.647058823529,4,2,2,5,0,0
49679,-117.647058823529,4,2,2,5,0,0
50163,-117.647058823529,4,2,1,70,0,0
52905,-90.9090909090909,4,2,1,80,0,1
65324,-76.9230769230769,4,2,1,80,0,0
65808,-76.9230769230769,4,2,1,80,0,1
75647,-76.9230769230769,4,2,1,60,0,1
75969,-100,4,2,1,80,0,1
78711,-83.3333333333333,4,2,1,80,0,1
81292,-66.6666666666667,4,2,1,80,0,1
82260,-66.6666666666667,4,2,1,50,0,1
82421,-66.6666666666667,4,2,1,80,0,1
82582,-66.6666666666667,4,2,1,60,0,1
82744,-66.6666666666667,4,2,1,80,0,1
82905,-58.8235294117647,4,2,1,70,0,1
83066,-58.8235294117647,4,2,1,80,0,1
83227,-50,4,2,1,80,0,1
83550,-43.4782608695652,4,2,1,90,0,1
83711,-43.4782608695652,4,2,1,80,0,1
83873,-76.9230769230769,4,2,1,80,0,1
86561,-66.6666666666667,4,2,1,80,0,0

[Colours]
Combo1 : 236,19,19
Combo2 : 206,206,206
Combo3 : 255,121,121
Combo4 : 255,255,128
Combo5 : 255,149,43

[HitObjects]
256,192,559,12,0,5503,0:0:0:0:
168,168,6496,5,2,0:0:0:0:
77,140,6657,1,0,0:0:0:0:
152,68,6818,1,2,0:0:0:0:
252,100,6979,1,0,0:0:0:0:
252,100,7060,1,0,0:0:0:0:
252,100,7141,1,2,0:0:0:0:
154,55,7302,2,0,P|150:95|145:135,1,80.9999975280763,0|2,0:0|0:0,0:0:0:0:
79,334,7625,5,0,0:0:0:0:
79,334,7705,1,0,0:0:0:0:
79,334,7786,1,2,0:0:0:0:
163,280,7947,1,0,0:0:0:0:
254,344,8108,1,2,0:0:0:0:
357,290,8270,1,0,0:0:0:0:
465,358,8431,1,2,0:0:0:0:
368,191,8592,1,0,0:0:0:0:
369,304,8754,1,2,0:0:0:0:
369,304,8834,1,0,0:0:0:0:
369,304,8915,2,0,L|404:298,2,20.2499993820191
507,221,9076,6,0,L|454:212,1,40.4999987640381,8|0,0:0|0:0,0:0:0:0:
388,108,9237,2,0,L|337:114,1,40.4999987640381,8|0,0:0|0:0,0:0:0:0:
229,208,9399,1,0,0:0:0:0:
259,225,9479,1,0,0:0:0:0:
293,227,9560,2,0,L|286:182,1,40.4999987640381
199,26,9721,2,0,L|194:76,1,40.4999987640381,8|0,0:0|0:0,0:0:0:0:
26,203,9883,2,0,L|75:194,1,45,8|0,0:0|0:0,0:0:0:0:
136,128,10044,6,0,B|151:181|125:211|144:271,1,135
230,217,10366,5,10,0:0:0:0:
26,99,10528,1,10,0:0:0:0:
25,113,11012,5,10,0:0:0:0:
362,48,11173,1,10,0:0:0:0:
362,48,11615,5,6,0:0:0:0:
350,171,11776,1,0,0:0:0:0:
350,171,11856,1,0,0:0:0:0:
350,171,11937,1,2,0:0:0:0:
335,295,12098,1,0,0:0:0:0:
461,245,12260,1,2,0:0:0:0:
231,222,12421,1,0,0:0:0:0:
231,222,12502,1,0,0:0:0:0:
231,222,12582,2,0,P|284:214|345:211,1,90,2|0,0:0|0:0,0:0:0:0:
463,48,12905,5,2,0:0:0:0:
373,141,13066,1,0,0:0:0:0:
373,141,13147,1,0,0:0:0:0:
373,141,13227,1,2,0:0:0:0:
262,57,13389,1,0,0:0:0:0:
366,8,13550,1,2,0:0:0:0:
198,172,13711,1,0,0:0:0:0:
198,172,13792,1,0,0:0:0:0:
198,172,13873,2,0,P|206:224|206:273,1,90,2|0,0:0|0:0,0:0:0:0:
32,238,14195,6,0,L|83:229,1,45,2|0,0:0|0:0,0:0:0:0:
235,341,14356,1,0,0:0:0:0:
235,341,14437,1,0,0:0:0:0:
235,341,14518,2,0,L|174:333,1,45,2|0,0:0|0:0,0:0:0:0:
70,300,14679,2,0,L|82:352,1,45
195,201,14840,2,0,L|202:146,1,45,2|0,0:0|0:0,0:0:0:0:
89,57,15002,1,0,0:0:0:0:
89,57,15082,1,0,0:0:0:0:
89,57,15163,2,0,P|97:124|100:154,1,90,2|0,0:0|0:0,0:0:0:0:
377,93,15485,6,0,P|418:117|435:141,1,45,2|0,0:0|0:0,0:0:0:0:
367,322,15647,2,0,P|365:264|373:243,1,45
499,177,15808,2,0,P|443:183|395:185,1,90,2|0,0:0|0:0,0:0:0:0:
104,150,16131,1,8,0:0:0:0:
80,193,16211,1,8,0:0:0:0:
102,237,16292,1,8,0:0:0:0:
151,234,16373,1,8,0:0:0:0:
188,265,16453,1,8,0:0:0:0:
182,314,16534,1,8,0:0:0:0:
140,339,16614,1,8,0:0:0:0:
90,333,16695,1,8,0:0:0:0:
54,342,16776,6,0,P|39:286|32:270,1,67.5000025749208,6|2,0:0|0:0,0:0:0:0:
117,191,17098,2,0,P|138:146|153:131,1,67.5000025749208
54,37,17421,2,0,P|62:79|68:110,1,67.5000025749208,2|0,0:0|0:0,0:0:0:0:
205,197,17744,2,0,P|261:190|299:189,1,67.5000025749208,2|0,0:0|0:0,0:0:0:0:
383,94,18066,5,0,0:0:0:0:
429,252,18227,2,0,P|386:236|370:205,1,67.5000025749208,2|0,0:0|0:0,0:0:0:0:
500,139,18550,2,0,P|497:189|494:223,1,67.5000025749208,2|0,0:0|0:0,0:0:0:0:
331,290,18873,2,0,P|338:340|342:370,1,67.5000025749208,2|0,0:0|0:0,0:0:0:0:
403,209,19195,6,0,P|409:162|438:65,1,135.000005149842,2|2,0:0|0:0,0:0:0:0:
432,77,19598,1,0,0:0:0:0:
432,77,19679,1,0,0:0:0:0:
268,163,19840,1,2,0:0:0:0:
310,95,20002,1,0,0:0:0:0:
268,163,20163,2,0,P|328:171|355:176,1,67.5000025749208,2|0,0:0|0:0,0:0:0:0:
153,86,20485,5,2,0:0:0:0:
182,165,20647,1,0,0:0:0:0:
153,86,20808,2,0,P|115:79|85:80,1,67.5000025749208,2|0,0:0|0:0,0:0:0:0:
14,244,21131,1,2,0:0:0:0:
73,180,21292,1,2,0:0:0:0:
180,350,21453,2,0,P|141:340|89:339,1,67.5000025749208,2|0,0:0|0:0,0:0:0:0:
231,213,21776,6,0,P|285:212|379:213,1,135.000005149842,2|2,0:0|0:0,0:0:0:0:
493,100,22260,1,0,0:0:0:0:
374,125,22421,1,2,0:0:0:0:
465,253,22582,1,2,0:0:0:0:
465,253,22744,2,0,B|457:199|448:165|447:165,1,67.5000025749208,2|0,0:0|0:0,0:0:0:0:
321,23,23066,5,2,0:0:0:0:
277,118,23227,1,0,0:0:0:0:
413,65,23389,2,0,P|449:58|480:55,1,67.5000025749208,2|0,0:0|0:0,0:0:0:0:
372,168,23711,5,2,0:0:0:0:
330,42,23873,1,0,0:0:0:0:
368,188,24034,2,0,P|370:234|371:302,1,101.250003862381,2|0,0:0|0:0,0:0:0:0:
367,323,24356,2,0,P|331:302|293:298,1,67.5000025749208,2|0,0:0|0:0,0:0:0:0:
225,346,24679,2,0,L|142:352,1,67.5000025749208,2|0,0:0|0:0,0:0:0:0:
53,171,25002,5,2,0:0:0:0:
129,231,25163,1,0,0:0:0:0:
47,330,25324,2,0,P|52:290|57:253,1,67.5000025749208,2|0,0:0|0:0,0:0:0:0:
149,118,25647,1,2,0:0:0:0:
226,199,25808,1,0,0:0:0:0:
334,78,25969,2,0,P|276:86|247:89,1,67.5000025749208,2|0,0:0|0:0,0:0:0:0:
50,44,26292,5,2,0:0:0:0:
86,69,26373,1,2,0:0:0:0:
82,123,26453,1,8,0:0:0:0:
378,0,26614,1,2,0:0:0:0:
392,6,26937,1,2,0:0:0:0:
286,224,27098,6,0,P|216:221|179:215,1,90,6|0,0:0|0:0,0:0:0:0:
1,49,27421,1,8,0:0:0:0:
25,211,27582,1,0,0:0:0:0:
106,50,27744,2,0,P|102:116|95:153,1,90,2|0,0:0|0:0,0:0:0:0:
234,322,28066,2,0,P|171:307|115:302,1,90,8|0,0:0|0:0,0:0:0:0:
228,133,28389,5,2,0:0:0:0:
342,348,28550,2,0,P|405:337|440:310,1,90,0|8,0:0|0:0,0:0:0:0:
370,114,28873,1,0,0:0:0:0:
370,114,28953,1,0,0:0:0:0:
370,114,29034,2,0,P|361:193|358:224,1,90,2|0,0:0|0:0,0:0:0:0:
508,124,29356,1,8,0:0:0:0:
351,25,29518,1,0,0:0:0:0:
236,182,29679,6,0,P|183:193|139:200,1,90,2|0,0:0|0:0,0:0:0:0:
23,55,30002,1,8,0:0:0:0:
229,71,30163,1,0,0:0:0:0:
42,165,30324,1,2,0:0:0:0:
241,66,30485,1,0,0:0:0:0:
112,76,30647,1,8,0:0:0:0:
188,260,30808,1,0,0:0:0:0:
188,260,30889,1,0,0:0:0:0:
188,260,30969,6,0,P|190:199|193:161,1,90,2|0,0:0|0:0,0:0:0:0:
68,307,31292,1,8,0:0:0:0:
278,214,31453,1,0,0:0:0:0:
323,241,31534,1,0,0:0:0:0:
329,291,31614,1,2,0:0:0:0:
248,106,31776,1,0,0:0:0:0:
386,21,31937,1,8,0:0:0:0:
493,194,32098,6,0,P|430:177|345:174,1,135
350,183,32421,2,0,P|369:254|377:294,1,90,0|8,0:0|0:0,0:0:0:0:
98,331,32744,1,0,0:0:0:0:
227,230,32905,1,2,0:0:0:0:
343,348,33066,1,0,0:0:0:0:
224,305,33227,1,8,0:0:0:0:
360,354,33389,1,0,0:0:0:0:
274,160,33550,6,0,P|229:145|176:166,1,90,2|0,0:0|0:0,0:0:0:0:
17,335,33873,2,0,P|67:316|114:305,1,90,8|0,0:0|0:0,0:0:0:0:
282,68,34195,1,2,0:0:0:0:
118,225,34356,2,0,P|91:174|98:113,1,90,0|8,0:0|0:0,0:0:0:0:
370,18,34679,1,0,0:0:0:0:
370,18,34759,1,0,0:0:0:0:
370,18,34840,6,0,P|344:74|341:112,1,90,2|0,0:0|0:0,0:0:0:0:
312,369,35163,1,8,0:0:0:0:
270,185,35324,1,0,0:0:0:0:
460,169,35485,1,2,0:0:0:0:
287,207,35647,1,0,0:0:0:0:
475,46,35808,1,8,0:0:0:0:
387,122,35969,1,0,0:0:0:0:
81,30,36131,5,8,0:0:0:0:
95,41,36211,1,8,0:0:0:0:
109,52,36292,1,8,0:0:0:0:
97,326,36453,2,0,L|84:274,1,45,2|0,0:0|0:0,0:0:0:0:
183,161,36614,1,8,0:0:0:0:
176,213,36695,1,8,0:0:0:0:
167,266,36776,1,2,0:0:0:0:
52,132,36937,1,8,0:0:0:0:
281,204,37098,1,2,0:0:0:0:
32,216,37260,1,8,0:0:0:0:
314,106,37421,6,0,P|354:120|373:151,1,67.5000025749208,2|0,0:2|0:0,0:0:0:0:
483,225,37744,2,0,P|442:221|412:224,1,67.5000025749208,10|0,1:2|0:0,0:0:0:0:
315,352,38066,2,0,P|315:315|316:282,1,67.5000025749208,2|0,0:2|0:0,0:0:0:0:
302,256,38308,1,0,0:0:0:0:
302,256,38389,2,0,P|250:257|219:262,1,67.5000025749208,10|2,1:2|0:0,0:0:0:0:
54,135,38711,6,0,P|100:141|159:227,1,135.000005149842,0|10,0:0|1:2,0:0:0:0:
80,336,39195,1,2,0:0:0:0:
80,336,39276,1,0,0:0:0:0:
80,336,39356,2,0,P|44:330|10:328,1,67.5000025749208
243,265,39679,2,0,P|288:248|322:247,1,67.5000025749208,10|0,1:2|0:0,0:0:0:0:
417,116,40002,6,0,P|374:87|296:108,1,135.000005149842,2|10,0:2|1:2,0:0:0:0:
253,273,40485,1,2,0:0:0:0:
354,173,40647,1,2,3:2:0:0:
354,173,40727,1,0,0:0:0:0:
354,173,40808,1,0,0:0:0:0:
433,286,40969,1,10,1:2:0:0:
338,381,41131,1,2,0:0:0:0:
235,227,41292,6,0,B|293:218|302:266|386:245,1,135.000005149842,0|10,0:0|1:2,0:0:0:0:
473,140,41776,1,0,0:0:0:0:
473,140,41856,1,0,0:0:0:0:
473,140,41937,2,0,L|421:157,1,33.7500012874604,2|0,3:2|0:0,0:0:0:0:
402,67,42098,2,0,L|454:50,1,33.7500012874604,0|0,3:0|0:0,0:0:0:0:
506,67,42260,1,10,1:2:0:0:
368,138,42421,1,0,0:0:0:0:
253,10,42582,6,0,B|264:55|244:77|260:155,1,135.000005149842,2|10,0:2|1:2,0:0:0:0:
163,278,43066,1,2,0:0:0:0:
49,198,43227,1,0,3:2:0:0:
49,198,43308,1,0,0:0:0:0:
49,198,43389,1,0,0:0:0:0:
171,286,43550,1,10,1:2:0:0:
148,164,43711,6,0,P|141:119|141:84,1,67.5000025749208,2|0,0:0|0:0,0:0:0:0:
87,288,44034,2,0,P|52:282|18:282,1,67.5000025749208,2|8,0:0|1:2,0:0:0:0:
206,232,44356,1,2,0:0:0:0:
261,354,44518,1,2,3:2:0:0:
261,354,44598,1,0,0:0:0:0:
261,354,44679,1,0,0:0:0:0:
308,219,44840,1,10,1:2:0:0:
354,98,45002,1,0,0:0:0:0:
511,188,45163,6,0,P|449:178|367:174,1,135.000005149842,2|8,0:2|1:2,0:0:0:0:
207,126,45647,1,0,0:0:0:0:
363,264,45808,1,2,0:2:0:0:
363,264,45889,1,0,0:0:0:0:
363,264,45969,1,0,0:0:0:0:
310,147,46131,1,10,1:2:0:0:
207,295,46292,6,0,P|150:315|78:253,1,153.000002918243,2|0,0:0|0:0,0:0:0:0:
81,79,46776,1,10,0:2:0:0:
149,198,46937,1,0,0:0:0:0:
238,62,47098,1,0,3:2:0:0:
158,35,47260,2,0,P|167:77|175:92,1,38.2500007295609,0|0,3:0|0:0,0:0:0:0:
254,180,47421,2,0,P|288:193|316:194,1,38.2500007295609,10|0,0:2|0:0,3:0:0:0:
452,277,47582,2,0,P|480:267|498:249,1,38.2500007295609
444,32,47744,6,0,B|411:65|409:94|409:94|343:184|414:241|501:224|533:111|384:29|278:44|278:44|249:114|283:185|283:185|328:291|282:332|206:353|165:295|161:259|161:259|271:222|389:290,1,1147.50002188683,4|2,3:3|0:0,0:0:0:0:
457,347,50324,5,8,0:0:0:0:
73,175,50485,1,8,0:0:0:0:
122,30,50647,5,2,0:0:0:0:
167,43,50727,1,2,0:0:0:0:
186,86,50808,1,8,0:0:0:0:
45,353,50969,1,8,0:0:0:0:
214,172,51131,5,2,0:0:0:0:
193,207,51211,1,2,0:0:0:0:
194,250,51292,1,8,0:0:0:0:
481,62,51453,1,8,0:0:0:0:
440,329,51614,5,2,0:0:0:0:
425,285,51695,1,2,0:0:0:0:
408,237,51776,1,8,0:0:0:0:
36,337,51937,1,8,0:0:0:0:
104,162,52098,5,2,0:0:0:0:
151,193,52179,1,2,0:0:0:0:
143,249,52260,1,8,0:0:0:0:
400,24,52421,1,8,0:0:0:0:
410,42,52905,6,0,P|338:37|288:36,1,99.0000030212403,6|0,0:0|0:0,0:0:0:0:
215,120,53147,1,0,0:0:0:0:
225,128,53227,2,0,P|292:120|355:113,1,99.0000030212403,8|0,0:0|0:0,0:0:0:0:
439,161,53550,1,2,0:0:0:0:
88,69,53711,1,2,0:0:0:0:
387,257,53873,1,8,0:0:0:0:
134,10,54034,6,0,B|137:76|137:76|114:106|114:106|120:181,1,148.50000453186,6|0,0:0|0:0,0:0:0:0:
123,231,54356,1,2,0:0:0:0:
311,89,54518,2,0,P|249:92|202:96,1,99.0000030212403,8|0,0:0|0:0,0:0:0:0:
111,331,54840,1,2,0:0:0:0:
17,118,55002,1,2,0:0:0:0:
282,218,55163,1,8,0:0:0:0:
95,224,55324,1,2,0:0:0:0:
95,224,55405,1,0,0:0:0:0:
95,224,55485,6,0,P|138:217|208:216,1,99.0000030212403,2|0,0:0|0:0,0:0:0:0:
382,342,55808,1,8,0:0:0:0:
292,171,55969,1,2,0:0:0:0:
290,220,56050,1,8,0:0:0:0:
316,271,56131,1,2,0:0:0:0:
434,207,56292,1,2,0:0:0:0:
196,73,56453,1,8,0:0:0:0:
512,19,56614,6,0,B|458:24|379:27|329:24,1,148.50000453186,6|0,0:0|0:0,0:0:0:0:
277,44,56937,1,2,0:0:0:0:
284,299,57098,1,8,0:0:0:0:
40,186,57260,2,0,P|80:179|100:186,1,49.5000015106202,6|0,0:0|0:0,0:0:0:0:
168,224,57421,1,0,0:0:0:0:
88,52,57582,1,2,0:0:0:0:
141,327,57744,1,8,0:0:0:0:
27,276,57905,1,2,0:0:0:0:
301,238,58066,5,2,0:0:0:0:
179,128,58227,1,2,0:0:0:0:
352,15,58389,2,0,P|409:17|469:18,1,99.0000030212403,8|0,0:0|0:0,0:0:0:0:
482,145,58711,1,2,0:0:0:0:
231,25,58873,1,2,0:0:0:0:
229,296,59034,1,8,0:0:0:0:
25,174,59195,6,0,P|81:194|69:270,1,148.50000453186,6|0,0:0|0:0,0:0:0:0:
28,335,59518,1,2,0:0:0:0:
74,95,59679,2,0,P|153:93|190:92,1,99.0000030212403,8|2,0:0|0:0,0:0:0:0:
292,98,59921,1,8,0:0:0:0:
283,117,60002,2,0,L|172:123,1,99.0000030212403,2|2,0:0|0:0,0:0:0:0:
432,53,60324,2,0,L|422:112,1,49.5000015106202,8|0,0:0|0:0,0:0:0:0:
339,310,60485,1,2,0:0:0:0:
339,310,60566,1,0,0:0:0:0:
339,310,60647,6,0,P|350:240|378:160,1,148.50000453186,2|0,0:0|0:0,0:0:0:0:
467,172,60969,1,8,0:0:0:0:
214,258,61131,1,0,0:0:0:0:
268,172,61292,1,2,0:0:0:0:
103,186,61453,1,2,0:0:0:0:
151,352,61614,1,8,0:0:0:0:
383,26,61776,1,6,0:0:0:0:
383,26,61856,1,0,0:0:0:0:
383,26,61937,6,0,P|361:83|342:172,1,148.50000453186
388,239,62260,1,8,0:0:0:0:
159,114,62421,1,2,0:0:0:0:
190,143,62502,1,8,0:0:0:0:
233,153,62582,1,8,0:0:0:0:
64,17,62744,1,8,0:0:0:0:
173,303,62905,1,8,0:0:0:0:
38,18,63066,2,0,P|58:65|78:92,1,49.5000015106202,8|0,0:0|0:0,0:0:0:0:
271,234,63227,6,0,P|211:220|154:217,1,99.0000030212403,6|0,0:0|0:0,0:0:0:0:
60,314,63469,1,0,0:0:0:0:
70,306,63550,2,0,L|79:171,1,99.0000030212403,8|2,0:0|0:0,0:0:0:0:
262,33,63873,1,2,0:0:0:0:
493,211,64034,1,2,0:0:0:0:
237,356,64195,1,8,0:0:0:0:
474,200,64356,6,0,B|409:198|409:198|385:221|385:221|313:222|313:224,1,148.50000453186,6|0,0:0|0:0,0:0:0:0:
259,263,64679,1,2,0:0:0:0:
427,49,64840,1,8,0:0:0:0:
453,73,64921,1,0,0:0:0:0:
451,109,65002,1,2,0:0:0:0:
90,38,65163,1,10,0:0:0:0:
420,330,65324,1,10,0:0:0:0:
431,338,65647,6,0,P|394:313|350:313,1,58.4999973220826
153,333,65808,2,0,B|225:323|308:316|305:316,1,116.999994644165,6|0,0:0|0:0,0:0:0:0:
338,203,66050,1,0,0:0:0:0:
352,217,66131,2,0,P|426:225|488:231,1,116.999994644165,8|0,0:0|0:0,0:0:0:0:
310,51,66453,1,2,0:0:0:0:
145,319,66614,1,2,0:0:0:0:
30,41,66776,1,8,0:0:0:0:
263,195,66937,6,0,B|198:189|198:189|152:214|152:214|76:208,1,175.499991966248,6|0,0:0|0:0,0:0:0:0:
17,250,67260,1,2,0:0:0:0:
186,110,67421,2,0,L|319:122,1,116.999994644165,8|0,0:0|0:0,0:0:0:0:
504,42,67744,1,2,0:0:0:0:
232,10,67905,1,2,0:0:0:0:
409,339,68066,1,8,0:0:0:0:
399,164,68227,5,2,0:0:0:0:
452,155,68308,1,8,0:0:0:0:
504,182,68389,1,2,0:0:0:0:
159,113,68550,1,2,0:0:0:0:
250,324,68711,1,8,0:0:0:0:
41,226,68873,2,0,P|104:221|172:220,1,116.999994644165,0|2,0:0|0:0,0:0:0:0:
284,50,69195,2,0,P|239:57|210:93,1,58.4999973220826,2|0,0:0|0:0,0:0:0:0:
258,333,69356,1,8,0:0:0:0:
258,333,69437,1,0,0:0:0:0:
257,333,69518,6,0,B|243:262|243:262|275:212|275:212|256:133,1,175.499991966248,6|0,0:0|0:0,0:0:0:0:
352,113,69840,1,2,0:0:0:0:
51,124,70002,1,8,0:0:0:0:
401,38,70163,1,6,0:0:0:0:
442,82,70244,1,0,0:0:0:0:
435,140,70324,1,0,0:0:0:0:
206,15,70485,1,2,0:0:0:0:
331,324,70647,2,0,P|393:321|455:322,1,116.999994644165,8|2,0:0|0:0,0:0:0:0:
311,23,70969,6,0,P|317:91|321:153,1,116.999994644165,2|0,0:0|0:0,0:0:0:0:
76,354,71292,1,8,0:0:0:0:
161,120,71453,1,2,0:0:0:0:
213,149,71534,1,8,0:0:0:0:
229,204,71614,1,2,0:0:0:0:
18,216,71776,1,2,0:0:0:0:
415,180,71937,1,8,0:0:0:0:
181,5,72098,6,0,B|171:78|171:78|194:115|194:115|181:183,1,175.499991966248,6|0,0:0|0:0,0:0:0:0:
141,251,72421,1,2,0:0:0:0:
313,68,72582,2,8,P|403:63|444:65,1,116.999994644165,8|0,0:0|0:0,0:0:0:0:
452,310,72905,1,2,0:0:0:0:
227,139,73066,1,2,0:0:0:0:
227,139,73147,1,0,0:0:0:0:
227,139,73227,1,8,0:0:0:0:
421,190,73389,1,0,0:0:0:0:
164,41,73550,6,0,P|91:35|39:36,1,116.999994644165,2|0,0:0|0:0,0:0:0:0:
17,147,73792,1,0,0:0:0:0:
30,155,73873,2,0,P|38:242|44:288,1,116.999994644165,8|0,0:0|0:0,0:0:0:0:
342,330,74195,1,2,0:0:0:0:
151,177,74356,1,2,0:0:0:0:
405,108,74518,1,8,0:0:0:0:
254,248,74679,2,0,P|324:213|324:212,1,58.4999973220826,6|0,0:0|0:0,0:0:0:0:
280,84,74840,5,0,0:0:0:0:
284,96,75002,1,2,0:0:0:0:
137,0,75163,1,8,0:0:0:0:
30,148,75324,1,2,0:0:0:0:
390,128,75485,1,8,0:0:0:0:
145,361,75647,1,6,0:0:0:0:
151,352,75969,6,0,P|139:286|132:209,1,135,6|0,0:0|0:0,0:0:0:0:
173,148,76292,1,2,0:0:0:0:
406,273,76453,5,8,0:0:0:0:
278,314,76614,1,0,0:0:0:0:
445,344,76776,5,8,0:0:0:0:
249,234,76937,1,2,0:0:0:0:
481,214,77098,5,8,0:0:0:0:
196,299,77260,1,2,0:0:0:0:
418,92,77421,5,8,0:0:0:0:
352,349,77582,1,2,0:0:0:0:
159,92,77744,5,8,0:0:0:0:
304,271,77905,1,2,0:0:0:0:
359,281,77985,1,2,0:0:0:0:
405,248,78066,1,8,0:0:0:0:
116,258,78227,1,2,0:0:0:0:
75,24,78389,5,8,0:0:0:0:
204,115,78550,1,2,0:0:0:0:
28,185,78711,5,8,0:0:0:0:
185,34,78873,1,2,0:0:0:0:
238,230,79034,5,8,0:0:0:0:
38,93,79195,1,2,0:0:0:0:
89,89,79276,1,2,0:0:0:0:
126,128,79356,1,8,0:0:0:0:
133,351,79518,1,2,0:0:0:0:
336,161,79679,5,8,0:0:0:0:
104,268,79840,1,2,0:0:0:0:
237,81,80002,5,8,0:0:0:0:
477,183,80163,1,2,0:0:0:0:
344,353,80324,5,8,0:0:0:0:
325,78,80485,1,2,0:0:0:0:
325,78,80566,1,2,0:0:0:0:
325,78,80647,2,0,L|335:151,1,53.9999983520508,8|0,0:0|0:0,0:0:0:0:
420,273,80808,1,2,0:0:0:0:
420,273,80889,1,2,0:0:0:0:
420,273,80969,2,0,L|347:258,1,53.9999983520508,8|0,0:0|0:0,0:0:0:0:
192,195,81131,1,2,0:0:0:0:
192,195,81211,1,2,0:0:0:0:
192,195,81292,6,0,L|270:191,1,67.5000025749208,8|0,0:0|0:0,0:0:0:0:
136,358,81453,1,2,0:0:0:0:
116,330,81534,1,2,0:0:0:0:
97,303,81614,2,0,L|20:311,1,67.5000025749208,8|0,0:0|0:0,0:0:0:0:
56,52,81776,1,2,0:0:0:0:
88,79,81856,1,2,0:0:0:0:
121,108,81937,2,0,L|110:202,1,67.5000025749208,8|0,0:0|0:0,0:0:0:0:
271,340,82098,1,2,0:0:0:0:
239,313,82178,1,2,0:0:0:0:
206,284,82259,2,0,L|217:190,1,67.5000025749208,12|0,0:0|0:0,0:0:0:0:
321,41,82421,1,2,0:0:0:0:
351,82,82502,1,2,0:0:0:0:
378,119,82582,6,0,L|460:109,1,67.5000025749208,12|0,0:0|0:0,0:0:0:0:
362,353,82744,1,2,0:0:0:0:
349,305,82824,1,2,0:0:0:0:
371,258,82905,1,12,0:0:0:0:
237,19,83066,1,2,0:0:0:0:
224,77,83147,1,2,0:0:0:0:
252,128,83227,1,12,0:0:0:0:
66,344,83389,1,2,0:0:0:0:
67,270,83469,1,2,0:0:0:0:
125,224,83550,1,12,0:0:0:0:
329,336,83711,1,6,0:0:0:0:
49,103,83873,5,8,0:0:0:0:
93,140,83953,1,8,0:0:0:0:
151,140,84034,1,2,0:0:0:0:
202,112,84114,1,2,0:0:0:0:
229,60,84195,1,8,0:0:0:0:
284,40,84276,1,8,0:0:0:0:
336,64,84356,1,2,0:0:0:0:
358,118,84437,1,2,0:0:0:0:
337,173,84518,1,8,0:0:0:0:
274,187,84598,1,8,0:0:0:0:
237,239,84679,1,2,0:0:0:0:
243,303,84760,1,2,0:0:0:0:
295,338,84840,1,8,0:0:0:0:
359,331,84921,1,8,0:0:0:0:
401,281,85002,1,2,0:0:0:0:
389,219,85082,1,2,0:0:0:0:
337,173,85163,5,8,0:0:0:0:
313,233,85244,1,8,0:0:0:0:
251,248,85324,1,2,0:0:0:0:
193,218,85405,1,2,0:0:0:0:
179,155,85485,1,8,0:0:0:0:
127,116,85566,1,8,0:0:0:0:
67,140,85647,1,2,0:0:0:0:
43,199,85727,1,2,0:0:0:0:
70,257,85808,1,10,0:0:0:0:
200,38,85969,1,10,0:0:0:0:
283,358,86131,1,10,0:0:0:0:
476,43,86292,1,14,0:0:0:0:
