osu file format v14

[General]
AudioFilename: fluff.mp3
AudioLeadIn: 0
PreviewTime: 52824
Countdown: 0
SampleSet: Soft
StackLeniency: 0.7
Mode: 0
LetterboxInBreaks: 0
WidescreenStoryboard: 1

[Editor]
DistanceSpacing: 1.1
BeatDivisor: 4
GridSize: 4
TimelineZoom: 1.6

[Metadata]
Title:Light My Fire (TV Size)
TitleUnicode:Light My Fire (TV Size)
Artist:KOTOKO
ArtistUnicode:KOTOKO
Creator:Gaia
Version:P A N's XtrA
Source:灼眼のシャナⅢ-FINAL-
Tags:p_a_n pan giralda okoratu okorin akitoshi -laura- corinn -yuzuriha -yuzuriha-inori- Shakugan no Shana III opening anime japanese
BeatmapID:1190780
BeatmapSetID:398134

[Difficulty]
HPDrainRate:6.5
CircleSize:4.3
OverallDifficulty:8.5
ApproachRate:9.5
SliderMultiplier:1.9
SliderTickRate:2

[Events]
//Background and Video events
0,0,"shanaFire.jpg",0,0
Video,-106,"fire.mp4"
//Break Periods
//Storyboard Layer 0 (Background)
//Storyboard Layer 1 (Fail)
//Storyboard Layer 2 (Pass)
//Storyboard Layer 3 (Foreground)
//Storyboard Layer 4 (Overlay)
//Storyboard Sound Samples

[TimingPoints]
559,322.58064516129,4,2,1,5,1,0
859,560.747663551402,4,2,1,5,1,0
1139,517.241379310345,4,2,1,5,1,0
1397,480,4,2,1,5,1,0
1637,444.444444444444,4,2,1,5,1,0
1859,416.666666666667,4,2,1,5,1,0
2067,397.350993377483,4,2,1,5,1,0
2265,389.61038961039,4,2,1,5,1,0
2459,387.096774193548,4,2,1,5,1,0
2652,384.615384615385,4,2,1,5,1,0
2849,382.165605095541,4,2,1,5,1,0
3040,307.692307692308,4,2,1,5,1,0
3193,260.869565217391,4,2,1,5,1,0
3323,244.897959183673,4,2,1,5,1,0
3445,243.90243902439,4,2,1,5,1,0
3566,242.914979757085,4,2,1,5,1,0
3687,241.935483870968,4,2,1,5,1,0
3812,240,4,2,1,5,1,0
3932,238.095238095238,4,2,1,5,1,0
4052,236.220472440945,4,2,1,5,1,0
4171,233.463035019455,4,2,1,5,1,0
4287,230.769230769231,4,2,1,5,1,0
4402,228.571428571429,4,2,1,5,1,0
4516,226.415094339623,4,2,1,5,1,0
4629,224.299065420561,4,2,1,5,1,0
4741,222.222222222222,4,2,1,5,1,0
4852,220.183486238532,4,2,1,5,1,0
4962,218.181818181818,4,2,1,5,1,0
5071,217.785843920145,4,2,1,5,1,0
5179,217.391304347826,4,2,1,5,1,0
5287,216.998191681736,4,2,1,5,1,0
5395,216.606498194946,4,2,1,5,1,0
5503,500,4,2,1,5,1,0
6496,322.58064516129,4,2,2,50,1,0
9076,-100,4,2,1,50,0,0
10366,-100,4,2,1,70,0,0
10850,-100,4,2,1,10,0,0
11012,-100,4,2,1,70,0,0
11495,-100,4,2,1,10,0,0
11615,322.58064516129,4,2,1,80,1,0
16131,-100,4,2,1,60,0,0
16776,-200,4,2,2,60,0,0
26292,-200,4,2,1,70,0,0
27098,-100,4,2,1,70,0,0
37421,-200,4,2,2,40,0,0
47744,-200,4,2,2,70,0,0
47824,-200,4,2,31,30,0,0
48389,-200,4,2,2,40,0,0
49034,-200,4,2,2,50,0,0
49679,-200,4,2,2,60,0,0
50163,-200,4,2,1,70,0,0
52905,-80,4,2,1,80,0,0
65808,-66.6666666666667,4,2,1,80,0,0
75647,-66.6666666666667,4,2,1,60,0,0
75969,-100,4,2,1,80,0,0
82260,-100,4,2,1,50,0,0
82421,-100,4,2,1,80,0,0
82582,-100,4,2,1,60,0,0
82744,-100,4,2,1,80,0,0
82905,-100,4,2,1,70,0,0
83066,-100,4,2,1,80,0,0
83550,-100,4,2,1,90,0,0
83711,-100,4,2,1,80,0,0

[Colours]
Combo1 : 236,19,19
Combo2 : 206,206,206
Combo3 : 255,121,121
Combo4 : 255,255,128
Combo5 : 255,149,43

[HitObjects]
256,192,559,12,0,5503,0:0:0:0:
195,115,6496,5,2,0:0:0:0:
156,219,6657,1,0,0:0:0:0:
83,142,6818,1,2,0:0:0:0:
195,115,6979,1,0,0:0:0:0:
222,108,7060,1,0,0:0:0:0:
249,101,7141,1,2,0:0:0:0:
336,182,7302,2,0,B|343:206|343:206|338:285,2,95,0|2|0,0:0|0:0|0:0,0:0:0:0:
195,115,7786,5,2,0:0:0:0:
184,226,7947,1,0,0:0:0:0:
94,170,8108,1,2,0:0:0:0:
195,115,8269,1,0,0:0:0:0:
219,101,8350,1,0,0:0:0:0:
244,87,8431,1,2,0:0:0:0:
348,143,8592,2,0,B|360:164|360:164|376:241,2,95,0|2|0,0:0|0:0|0:0,0:0:0:0:
329,121,8995,1,0,0:0:0:0:
308,101,9076,5,8,0:0:0:0:
168,283,9237,2,0,B|136:293|136:293|69:288,1,95,8|0,0:0|0:0,0:0:0:0:
46,285,9479,1,0,0:0:0:0:
17,282,9560,1,0,0:0:0:0:
92,197,9721,1,8,0:0:0:0:
168,284,9883,2,0,B|206:331|277:334|277:334|312:327|343:288,1,190,8|0,0:0|0:0,0:0:0:0:
423,42,10366,5,10,0:0:0:0:
431,301,10528,2,0,P|416:349|382:384,1,95,10|0,0:0|0:0,0:0:0:0:
423,42,11012,5,10,0:0:0:0:
431,301,11173,2,0,P|416:349|382:384,1,95,10|0,0:0|0:0,0:0:0:0:
431,301,11615,6,0,B|449:314|449:314|488:326,1,47.5,6|0,0:0|0:0,0:0:0:0:
328,320,11776,2,0,B|325:342|325:342|334:381,1,47.5,0|0,0:0|0:0,0:0:0:0:
265,242,11937,2,0,B|244:251|244:251|214:278,1,47.5,2|0,0:0|0:0,0:0:0:0:
302,151,12098,2,0,B|284:138|284:138|244:126,1,47.5,0|0,0:0|0:0,0:0:0:0:
395,135,12260,2,0,B|397:112|397:112|388:73,1,47.5,2|0,0:0|0:0,0:0:0:0:
460,204,12421,2,0,B|480:194|480:194|510:167,5,47.5,0|0|2|0|0|0,0:0|0:0|0:0|0:0|0:0|0:0,0:0:0:0:
368,43,12905,6,0,P|342:46|319:59,1,47.5,2|0,0:0|0:0,0:0:0:0:
229,19,13066,2,0,P|218:43|218:69,1,47.5,0|0,0:0|0:0,0:0:0:0:
132,119,13227,2,0,P|147:140|170:153,1,47.5,2|0,0:0|0:0,0:0:0:0:
160,254,13389,2,0,P|186:251|208:238,1,47.5,0|0,0:0|0:0,0:0:0:0:
290,296,13550,2,0,P|300:271|300:245,1,47.5,2|0,0:0|0:0,0:0:0:0:
386,195,13711,2,0,P|370:173|347:160,5,47.5,0|0|2|0|0|0,0:0|0:0|0:0|0:0|0:0|0:0,0:0:0:0:
291,297,14195,6,0,L|238:293,1,47.5,2|0,0:0|0:0,0:0:0:0:
185,372,14356,2,0,L|238:376,1,47.5,0|0,0:0|0:0,0:0:0:0:
195,207,14518,2,0,L|142:203,1,47.5,2|0,0:0|0:0,0:0:0:0:
89,282,14679,2,0,L|142:286,1,47.5,0|0,0:0|0:0,0:0:0:0:
106,121,14840,2,0,L|53:117,1,47.5,2|0,0:0|0:0,0:0:0:0:
0,196,15001,2,0,L|53:200,5,47.5,0|0|2|0|0|0,0:0|0:0|0:0|0:0|0:0|0:0,0:0:0:0:
195,207,15485,6,0,B|216:204|216:204|248:211,1,47.5,2|0,0:0|0:0,0:0:0:0:
351,128,15647,2,0,B|343:147|343:147|321:171,1,47.5,0|0,0:0|0:0,0:0:0:0:
339,303,15808,2,0,B|325:286|325:286|315:255,3,47.5,2|0|0|0,0:0|0:0|0:0|0:0,0:0:0:0:
325,167,16131,5,8,0:0:0:0:
339,132,16211,1,8,0:0:0:0:
340,93,16292,1,8,0:0:0:0:
327,56,16373,1,8,0:0:0:0:
301,27,16453,1,8,0:0:0:0:
266,11,16534,1,8,0:0:0:0:
228,9,16614,1,8,0:0:0:0:
190,15,16695,1,8,0:0:0:0:
158,36,16776,6,0,B|153:72|153:72|160:109|160:109|158:136,1,95,6|0,0:0|0:0,0:0:0:0:
80,163,17260,1,2,0:0:0:0:
144,222,17421,2,0,L|194:219,1,47.5,0|2,0:0|0:0,0:0:0:0:
310,269,17744,2,0,B|277:265|277:265|258:253,1,47.5,0|2,0:0|0:0,0:0:0:0:
267,171,18066,5,0,0:0:0:0:
352,182,18227,2,0,B|385:186|385:186|404:198,1,47.5,2|0,0:0|0:0,0:0:0:0:
435,270,18550,2,0,L|428:326,1,47.5,2|0,0:0|0:0,0:0:0:0:
488,202,18873,2,0,L|481:146,1,47.5,2|0,0:0|0:0,0:0:0:0:
470,66,19195,5,2,0:0:0:0:
396,86,19356,1,0,0:0:0:0:
321,106,19518,2,0,L|272:118,1,47.5,2|0,0:0|0:0,0:0:0:0:
459,44,19840,5,2,0:0:0:0:
413,105,20001,1,0,0:0:0:0:
366,167,20163,2,0,L|334:206,1,47.5,2|0,0:0|0:0,0:0:0:0:
438,36,20485,5,2,0:0:0:0:
439,112,20646,1,0,0:0:0:0:
440,190,20808,2,0,L|439:240,1,47.5,2|0,0:0|0:0,0:0:0:0:
311,346,21131,5,2,0:0:0:0:
266,264,21292,1,0,0:0:0:0:
217,339,21453,2,0,B|186:343|186:343|156:338,1,47.5,2|0,0:0|0:0,0:0:0:0:
86,321,21776,5,2,0:0:0:0:
95,240,21937,1,0,0:0:0:0:
103,160,22098,2,0,L|108:110,1,47.5,2|0,0:0|0:0,0:0:0:0:
55,311,22421,5,2,0:0:0:0:
113,254,22582,1,0,0:0:0:0:
171,198,22743,2,0,L|206:162,1,47.5,2|0,0:0|0:0,0:0:0:0:
50,280,23066,5,2,0:0:0:0:
131,273,23227,1,0,0:0:0:0:
211,268,23388,2,0,L|261:264,1,47.5,2|0,0:0|0:0,0:0:0:0:
451,242,23711,1,2,0:0:0:0:
413,324,23873,1,0,0:0:0:0:
356,253,24034,1,2,0:0:0:0:
356,253,24356,5,2,0:0:0:0:
314,182,24518,1,0,0:0:0:0:
232,161,24679,2,0,P|206:162|179:169,1,47.5,2|0,0:0|0:0,0:0:0:0:
335,266,25002,5,2,0:0:0:0:
348,184,25164,1,0,0:0:0:0:
299,115,25325,2,0,P|278:99|253:87,1,47.5,2|0,0:0|0:0,0:0:0:0:
309,251,25647,5,2,0:0:0:0:
371,196,25809,1,0,0:0:0:0:
378,112,25970,2,0,P|372:86|360:61,1,47.5,2|0,0:0|0:0,0:0:0:0:
95,72,26292,1,2,0:0:0:0:
76,74,26373,1,2,0:0:0:0:
57,75,26453,1,8,0:0:0:0:
170,345,26614,1,2,0:0:0:0:
170,345,26937,1,2,0:0:0:0:
57,75,27098,5,6,0:0:0:0:
128,197,27260,1,0,0:0:0:0:
216,86,27421,2,0,B|253:88|253:88|282:75|315:86,1,95,8|0,0:0|0:0,0:0:0:0:
393,193,27744,2,0,P|383:144|394:96,1,95,2|0,0:0|0:0,0:0:0:0:
512,199,28066,2,0,L|508:299,1,95,8|0,0:0|0:0,0:0:0:0:
357,350,28389,5,2,0:0:0:0:
506,319,28550,1,0,0:0:0:0:
393,193,28711,1,8,0:0:0:0:
274,292,28873,2,0,B|233:302|233:302|175:296,1,95,0|2,0:0|0:0,0:0:0:0:
60,148,29195,2,0,P|106:137|160:150,1,95,0|8,0:0|0:0,0:0:0:0:
274,292,29517,1,0,0:0:0:0:
245,113,29679,5,2,0:0:0:0:
171,274,29840,1,0,0:0:0:0:
346,257,30002,2,0,B|384:254|384:254|447:270,1,95,8|0,0:0|0:0,0:0:0:0:
155,284,30324,5,2,0:0:0:0:
364,263,30485,1,0,0:0:0:0:
242,93,30647,2,0,B|216:55|216:55|193:-21,1,95,8|0,0:0|0:0,0:0:0:0:
389,273,30969,5,2,0:0:0:0:
241,68,31130,1,0,0:0:0:0:
138,297,31292,2,0,B|114:346|114:346|75:386,1,95,8|0,0:0|0:0,0:0:0:0:
63,259,31614,5,2,0:0:0:0:
218,316,31776,1,0,0:0:0:0:
74,231,31937,2,0,P|63:183|75:129,1,95,8|0,0:0|0:0,0:0:0:0:
241,68,32260,5,2,0:0:0:0:
366,179,32421,1,0,0:0:0:0:
218,316,32582,2,0,P|170:328|122:315,1,95,8|0,0:0|0:0,0:0:0:0:
241,68,32905,5,2,0:0:0:0:
378,190,33066,1,0,0:0:0:0:
215,340,33227,2,0,P|162:353|109:338,1,95,8|0,0:0|0:0,0:0:0:0:
241,68,33550,5,2,0:0:0:0:
392,202,33711,1,0,0:0:0:0:
213,368,33872,2,0,P|154:382|96:366,1,95,8|0,0:0|0:0,0:0:0:0:
9,218,34195,1,2,0:0:0:0:
150,164,34356,2,0,B|160:214|160:214|154:261,1,95,0|8,0:0|0:0,0:0:0:0:
38,113,34679,1,0,0:0:0:0:
215,69,34840,5,2,0:0:0:0:
359,125,35002,1,0,0:0:0:0:
504,184,35163,2,0,L|495:284,1,95,8|0,0:0|0:0,0:0:0:0:
215,52,35485,5,2,0:0:0:0:
339,143,35647,1,0,0:0:0:0:
464,237,35808,2,0,L|429:331,1,95,8|0,0:0|0:0,0:0:0:0:
213,30,36131,5,8,0:0:0:0:
184,32,36211,1,8,0:0:0:0:
155,34,36292,1,8,0:0:0:0:
382,24,36453,1,2,0:0:0:0:
256,169,36614,1,8,0:0:0:0:
237,190,36695,1,8,0:0:0:0:
218,211,36776,1,2,0:0:0:0:
390,109,36937,1,8,0:0:0:0:
169,113,37098,1,2,0:0:0:0:
382,24,37260,1,8,0:0:0:0:
343,250,37421,5,2,0:2:0:0:
343,250,37744,2,0,L|335:307,1,47.5,10|0,1:2|0:0,0:0:0:0:
273,355,38066,2,0,P|252:359|215:354,1,47.5,2|0,0:2|0:0,0:0:0:0:
146,311,38389,1,10,1:2:0:0:
225,223,38550,6,0,B|227:256|227:256|222:280,1,47.5,2|0,0:0|0:0,0:0:0:0:
146,311,38873,1,0,0:0:0:0:
60,296,39034,1,10,1:2:0:0:
15,223,39195,1,2,0:0:0:0:
21,138,39356,1,0,0:0:0:0:
90,84,39518,2,0,L|145:87,2,47.5,0|10|0,0:0|1:2|0:0,0:0:0:0:
7,53,40002,5,2,0:2:0:0:
21,138,40163,1,0,0:0:0:0:
89,192,40324,1,10,1:2:0:0:
176,200,40485,1,2,0:0:0:0:
251,154,40647,2,0,B|276:150|276:150|310:153,1,47.5,2|0,3:2|0:0,0:0:0:0:
382,155,40969,1,10,1:2:0:0:
266,129,41131,6,0,B|291:125|291:125|325:128,1,47.5,2|0,0:0|0:0,0:0:0:0:
397,130,41453,1,0,0:0:0:0:
476,171,41614,2,0,P|491:197|444:203,1,95,10|0,1:2|3:2,0:0:0:0:
397,130,42098,1,0,0:0:0:0:
350,203,42260,2,0,B|329:210|329:210|298:207,1,47.5,10|0,1:2|0:0,0:0:0:0:
218,204,42582,5,2,0:2:0:0:
176,126,42744,1,0,0:0:0:0:
89,134,42905,1,10,1:2:0:0:
75,218,43066,1,2,0:0:0:0:
153,258,43227,2,0,P|153:285|143:312,1,47.5,0|0,3:2|0:0,0:0:0:0:
85,365,43550,1,10,1:2:0:0:
163,332,43711,6,0,L|219:334,1,47.5,2|0,0:0|0:0,0:0:0:0:
331,360,44034,2,0,B|304:345|304:345|285:325,1,47.5,0|10,0:0|1:2,0:0:0:0:
251,258,44356,1,2,0:0:0:0:
312,195,44518,2,0,P|342:194|365:200,1,47.5,2|0,3:2|0:0,0:0:0:0:
251,258,44840,2,0,P|221:259|198:253,1,47.5,10|0,1:2|0:0,0:0:0:0:
141,195,45163,5,2,0:2:0:0:
167,112,45324,1,0,0:0:0:0:
241,67,45485,1,8,1:2:0:0:
327,55,45647,1,0,0:0:0:0:
411,76,45808,2,0,B|414:96|414:96|410:130,1,47.5,2|0,0:2|0:0,0:0:0:0:
492,93,46131,1,10,1:2:0:0:
415,218,46292,6,0,B|376:228|352:220|352:220|325:211|288:221,1,118.75,2|0,0:0|0:0,0:0:0:0:
266,228,46776,1,10,0:2:0:0:
237,310,46937,1,0,0:0:0:0:
322,295,47098,1,0,3:2:0:0:
177,244,47260,2,0,B|144:230|144:230|106:228|54:266,1,118.75,0|0,3:0|0:0,0:0:0:0:
20,321,47744,6,0,B|45:255|20:203|20:203|-11:147|34:55|142:41|170:183|83:246|7:193|-16:105|-7:71|-7:71|23:37|69:39,1,570,4|0,3:3|0:0,0:0:0:0:
308,27,50163,1,2,0:0:0:0:
313,14,50244,1,2,0:0:0:0:
318,0,50324,1,8,0:0:0:0:
256,190,50485,1,8,0:0:0:0:
116,90,50647,5,2,0:0:0:0:
104,82,50727,1,2,0:0:0:0:
90,74,50808,1,8,0:0:0:0:
256,190,50969,1,8,0:0:0:0:
116,292,51131,5,2,0:0:0:0:
104,300,51211,1,2,0:0:0:0:
91,307,51292,1,8,0:0:0:0:
256,190,51453,1,8,0:0:0:0:
308,355,51614,5,2,0:0:0:0:
314,368,51695,1,2,0:0:0:0:
318,381,51776,1,8,0:0:0:0:
256,190,51937,1,8,0:0:0:0:
427,192,52098,5,2,0:0:0:0:
441,190,52179,1,2,0:0:0:0:
456,190,52260,1,8,0:0:0:0:
256,190,52421,1,8,0:0:0:0:
410,299,52905,6,0,P|361:336|366:256,1,178.125,6|0,0:0|0:0,0:0:0:0:
427,192,53227,2,0,B|437:146|437:146|431:71,1,118.75,8|0,0:0|0:0,0:0:0:0:
360,258,53550,1,2,0:0:0:0:
340,65,53711,1,2,0:0:0:0:
512,149,53873,1,8,0:0:0:0:
360,258,54034,6,0,P|305:275|240:260,1,118.75,6|0,0:0|0:0,0:0:0:0:
304,85,54356,1,2,0:0:0:0:
432,197,54518,2,0,P|446:251|434:315,1,118.75,8|0,0:0|0:0,0:0:0:0:
340,164,54840,1,2,0:0:0:0:
411,339,55002,1,2,0:0:0:0:
340,164,55163,1,8,0:0:0:0:
512,220,55324,1,2,0:0:0:0:
337,289,55485,6,0,B|299:310|258:291|258:291|221:301|221:301|194:290|155:302,1,178.125,2|0,0:0|0:0,0:0:0:0:
191,371,55808,1,8,0:0:0:0:
297,223,55969,1,2,0:0:0:0:
317,193,56050,1,8,0:0:0:0:
340,164,56131,1,2,0:0:0:0:
207,216,56292,1,2,0:0:0:0:
411,339,56453,1,8,0:0:0:0:
432,106,56614,6,0,B|402:56|402:56|379:44|336:38,1,118.75,6|0,0:0|0:0,0:0:0:0:
207,216,56937,1,2,0:0:0:0:
411,339,57098,1,8,0:0:0:0:
432,106,57260,1,6,0:0:0:0:
432,106,57582,5,2,0:0:0:0:
411,339,57744,1,8,0:0:0:0:
207,216,57905,1,2,0:0:0:0:
416,127,58066,5,2,0:0:0:0:
399,310,58228,1,2,0:0:0:0:
239,213,58389,2,0,B|169:173|98:208|98:208|80:239,1,178.125,8|0,0:0|0:0,0:0:0:0:
57,311,58711,1,2,0:0:0:0:
81,114,58873,1,2,0:0:0:0:
175,291,59034,1,8,0:0:0:0:
115,87,59195,6,0,B|74:72|74:72|-9:80,1,118.75,6|0,0:0|0:0,0:0:0:0:
57,311,59518,1,2,0:0:0:0:
259,181,59679,2,0,P|268:118|253:58,1,118.75,8|2,0:0|0:0,0:0:0:0:
220,23,59921,1,8,0:0:0:0:
168,6,60002,1,2,0:0:0:0:
174,203,60163,1,2,0:0:0:0:
341,74,60324,1,8,0:0:0:0:
134,111,60485,1,2,0:0:0:0:
266,275,60647,6,0,B|308:299|353:302|353:302|403:287|427:242,1,178.125,2|0,0:0|0:0,0:0:0:0:
445,171,60969,1,8,0:0:0:0:
321,54,61131,2,0,B|275:42|275:42|195:49,1,118.75,0|2,0:0|0:0,0:0:0:0:
311,186,61453,1,2,0:0:0:0:
413,40,61614,1,8,0:0:0:0:
96,58,61776,5,6,0:0:0:0:
194,180,61937,2,0,B|240:192|240:192|320:185,1,118.75,0|2,0:0|0:0,0:0:0:0:
445,171,62260,1,8,0:0:0:0:
306,93,62421,1,2,0:0:0:0:
275,74,62502,1,8,0:0:0:0:
244,56,62582,1,8,0:0:0:0:
368,292,62744,1,8,0:0:0:0:
402,28,62905,1,8,0:0:0:0:
230,216,63066,1,8,0:0:0:0:
484,184,63227,6,0,P|488:124|405:163,1,178.125,6|0,0:0|0:0,0:0:0:0:
418,236,63550,2,0,B|427:279|427:279|422:318|390:356,1,118.75,8|2,0:0|0:0,0:0:0:0:
238,364,63873,1,2,0:0:0:0:
303,193,64034,1,2,0:0:0:0:
367,366,64195,1,8,0:0:0:0:
222,245,64356,6,0,P|162:236|106:259,1,118.75,6|0,0:0|0:0,0:0:0:0:
14,362,64679,1,2,0:0:0:0:
41,186,64840,1,8,0:0:0:0:
160,321,65002,1,2,0:0:0:0:
185,344,65082,1,2,0:0:0:0:
210,369,65163,1,10,0:0:0:0:
207,71,65324,1,10,0:0:0:0:
207,71,65808,6,0,B|278:61|278:61|351:94|420:61,1,213.750008153916,6|0,0:0|0:0,0:0:0:0:
485,4,66131,2,0,B|501:51|501:51|497:154,1,142.500005435944,8|0,0:0|0:0,0:0:0:0:
328,302,66453,1,2,0:0:0:0:
416,142,66614,1,2,0:0:0:0:
512,292,66776,1,8,0:0:0:0:
328,378,66937,6,0,B|264:388|220:363|220:363|196:310,1,142.500005435944,6|0,0:0|0:0,0:0:0:0:
214,134,67260,1,2,0:0:0:0:
416,142,67421,2,0,B|421:191|421:191|411:245|411:245|421:291,1,142.500005435944,8|0,0:0|0:0,0:0:0:0:
328,123,67744,1,2,0:0:0:0:
416,320,67905,1,2,0:0:0:0:
501,120,68066,1,8,0:0:0:0:
337,205,68227,5,2,0:0:0:0:
298,223,68308,1,8,0:0:0:0:
259,241,68389,2,0,B|222:262|222:262|110:251,1,142.500005435944,2|2,0:0|0:0,0:0:0:0:
199,84,68711,1,8,0:0:0:0:
337,205,68873,2,0,P|357:269|339:347,1,142.500005435944,0|2,0:0|0:0,0:0:0:0:
122,252,69195,1,2,0:0:0:0:
319,363,69356,1,8,0:0:0:0:
103,230,69518,6,0,B|74:174|91:112|91:112|112:88,1,142.500005435944,6|0,0:0|0:0,0:0:0:0:
269,100,69840,1,2,0:0:0:0:
292,304,70002,1,8,0:0:0:0:
103,230,70163,1,6,0:0:0:0:
103,230,70485,5,2,0:0:0:0:
292,304,70646,1,8,0:0:0:0:
269,100,70808,1,2,0:0:0:0:
64,146,70969,6,0,P|14:206|73:326,1,213.750008153916,2|0,0:0|0:0,0:0:0:0:
153,316,71292,2,0,B|198:301|198:301|239:317|299:302,1,142.500005435944,8|2,0:0|0:0,0:0:0:0:
333,292,71534,1,8,0:0:0:0:
361,260,71614,1,2,0:0:0:0:
207,228,71776,1,2,0:0:0:0:
208,384,71937,1,8,0:0:0:0:
204,155,72098,6,0,P|278:136|352:160,1,142.500005435944,6|0,0:0|0:0,0:0:0:0:
282,361,72421,1,2,0:0:0:0:
121,225,72582,2,0,B|101:155|101:155|119:79,1,142.500005435944,8|0,0:0|0:0,0:0:0:0:
29,218,72905,1,2,0:0:0:0:
204,155,73066,2,0,L|359:161,1,142.500005435944,2|8,0:0|0:0,0:0:0:0:
511,161,73389,1,0,0:0:0:0:
457,285,73550,6,0,L|302:279,1,142.500005435944,2|0,0:0|0:0,0:0:0:0:
204,155,73873,1,8,0:0:0:0:
478,298,74195,6,0,L|323:292,1,142.500005435944,2|2,0:0|0:0,0:0:0:0:
204,155,74518,1,8,0:0:0:0:
298,77,74679,1,6,0:0:0:0:
316,198,74840,5,0,0:0:0:0:
204,155,75002,1,2,0:0:0:0:
359,23,75163,1,8,0:0:0:0:
393,230,75324,1,2,0:0:0:0:
433,62,75485,1,8,0:0:0:0:
204,72,75647,1,6,0:0:0:0:
204,72,75969,6,0,P|147:96|154:221,1,190,6|2,0:0|0:0,0:0:0:0:
250,308,76453,2,0,B|294:318|294:318|354:311,1,95,8|0,0:0|0:0,0:0:0:0:
340,176,76776,2,0,B|296:166|296:166|236:173,1,95,8|2,0:0|0:0,0:0:0:0:
143,210,77098,1,8,0:0:0:0:
21,174,77260,1,2,0:0:0:0:
137,238,77421,5,8,0:0:0:0:
6,262,77582,1,2,0:0:0:0:
145,268,77744,1,8,0:0:0:0:
46,349,77905,1,2,0:0:0:0:
22,366,77985,1,2,0:0:0:0:
0,384,78066,1,8,0:0:0:0:
6,262,78227,1,2,0:0:0:0:
123,348,78389,1,8,0:0:0:0:
6,262,78550,1,2,0:0:0:0:
254,264,78711,5,8,0:0:0:0:
174,62,78873,1,2,0:0:0:0:
376,164,79034,1,8,0:0:0:0:
159,198,79195,1,2,0:0:0:0:
116,204,79276,1,2,0:0:0:0:
74,209,79356,1,8,0:0:0:0:
256,110,79518,1,2,0:0:0:0:
181,300,79679,1,8,0:0:0:0:
97,110,79840,1,2,0:0:0:0:
299,176,80002,5,8,0:0:0:0:
181,300,80163,1,2,0:0:0:0:
177,85,80324,1,8,0:0:0:0:
387,179,80485,1,2,0:0:0:0:
387,179,80566,1,2,0:0:0:0:
387,179,80647,1,8,0:0:0:0:
170,209,80808,1,2,0:0:0:0:
170,209,80889,1,2,0:0:0:0:
170,209,80969,1,8,0:0:0:0:
254,21,81131,5,2,0:0:0:0:
254,21,81211,1,2,0:0:0:0:
254,21,81292,1,8,0:0:0:0:
308,205,81453,1,2,0:0:0:0:
321,245,81534,1,2,0:0:0:0:
334,285,81614,1,8,0:0:0:0:
15,189,81776,1,2,0:0:0:0:
15,189,81856,1,2,0:0:0:0:
15,189,81937,1,8,0:0:0:0:
344,71,82098,1,2,0:0:0:0:
344,71,82179,1,2,0:0:0:0:
344,71,82260,1,12,0:0:0:0:
156,350,82421,5,2,0:0:0:0:
156,350,82502,1,2,0:0:0:0:
156,350,82582,1,12,0:0:0:0:
140,18,82744,1,2,0:0:0:0:
140,18,82824,1,2,0:0:0:0:
140,18,82905,1,12,0:0:0:0:
346,255,83066,1,2,0:0:0:0:
346,255,83147,1,2,0:0:0:0:
346,255,83227,1,12,0:0:0:0:
15,189,83389,1,2,0:0:0:0:
15,189,83469,1,2,0:0:0:0:
15,189,83550,1,12,0:0:0:0:
199,209,83711,1,6,0:0:0:0:
163,10,83873,5,8,2:0:0:0:
213,14,83953,1,8,2:0:0:0:
267,19,84034,1,2,2:0:0:0:
319,24,84114,1,2,2:0:0:0:
389,30,84195,5,8,2:0:0:0:
340,41,84275,1,8,2:0:0:0:
287,53,84356,1,2,2:0:0:0:
236,64,84436,1,2,2:0:0:0:
164,86,84518,5,8,2:0:0:0:
211,100,84598,1,8,2:0:0:0:
263,114,84679,1,2,2:0:0:0:
314,130,84759,1,2,2:0:0:0:
391,128,84841,5,8,2:0:0:0:
344,145,84921,1,8,2:0:0:0:
296,169,85002,1,2,2:0:0:0:
246,189,85082,1,2,2:0:0:0:
165,194,85163,5,8,2:0:0:0:
207,217,85243,1,8,2:0:0:0:
255,241,85324,1,2,2:0:0:0:
302,268,85404,1,2,2:0:0:0:
381,263,85485,5,8,2:0:0:0:
341,292,85565,1,8,2:0:0:0:
300,326,85646,1,2,2:0:0:0:
256,357,85726,1,2,2:0:0:0:
217,384,85808,5,10,0:0:0:0:
296,169,85969,1,10,0:0:0:0:
114,267,86131,1,10,0:0:0:0:
80,14,86292,1,14,0:0:0:0:
