osu file format v14

[General]
AudioFilename: fluff.mp3
AudioLeadIn: 0
PreviewTime: 52824
Countdown: 0
SampleSet: Soft
StackLeniency: 0.7
Mode: 0
LetterboxInBreaks: 0
WidescreenStoryboard: 1

[Editor]
DistanceSpacing: 0.8
BeatDivisor: 4
GridSize: 4
TimelineZoom: 1.6

[Metadata]
Title:Light My Fire (TV Size)
TitleUnicode:Light My Fire (TV Size)
Artist:KOTOKO
ArtistUnicode:KOTOKO
Creator:Gaia
Version:Normal
Source:灼眼のシャナⅢ-FINAL-
Tags:p_a_n pan giralda okoratu okorin akitoshi -laura- corinn -yuzuriha -yuzuriha-inori- Shakugan no Shana III opening anime japanese
BeatmapID:1060935
BeatmapSetID:398134

[Difficulty]
HPDrainRate:4
CircleSize:3.4
OverallDifficulty:4
ApproachRate:5.5
SliderMultiplier:1.2
SliderTickRate:1

[Events]
//Background and Video events
Video,-106,"fire.mp4"
0,0,"shanaFire.jpg",0,0
//Break Periods
//Storyboard Layer 0 (Background)
//Storyboard Layer 1 (Fail)
//Storyboard Layer 2 (Pass)
//Storyboard Layer 3 (Foreground)
//Storyboard Layer 4 (Overlay)
//Storyboard Sound Samples

[TimingPoints]
559,322.58064516129,4,2,1,5,1,0
859,560.747663551402,4,2,1,5,1,0
1139,517.241379310345,4,2,1,5,1,0
1397,480,4,2,1,5,1,0
1637,444.444444444444,4,2,1,5,1,0
1859,416.666666666667,4,2,1,5,1,0
2067,397.350993377483,4,2,1,5,1,0
2265,389.61038961039,4,2,1,5,1,0
2459,387.096774193548,4,2,1,5,1,0
2652,384.615384615385,4,2,1,5,1,0
2849,382.165605095541,4,2,1,5,1,0
3040,307.692307692308,4,2,1,5,1,0
3193,260.869565217391,4,2,1,5,1,0
3323,244.897959183673,4,2,1,5,1,0
3445,243.90243902439,4,2,1,5,1,0
3566,242.914979757085,4,2,1,5,1,0
3687,241.935483870968,4,2,1,5,1,0
3812,240,4,2,1,5,1,0
3932,238.095238095238,4,2,1,5,1,0
4052,236.220472440945,4,2,1,5,1,0
4171,233.463035019455,4,2,1,5,1,0
4287,230.769230769231,4,2,1,5,1,0
4402,228.571428571429,4,2,1,5,1,0
4516,226.415094339623,4,2,1,5,1,0
4629,224.299065420561,4,2,1,5,1,0
4741,222.222222222222,4,2,1,5,1,0
4852,220.183486238532,4,2,1,5,1,0
4962,218.181818181818,4,2,1,5,1,0
5071,217.785843920145,4,2,1,5,1,0
5179,217.391304347826,4,2,1,5,1,0
5287,216.998191681736,4,2,1,5,1,0
5395,216.606498194946,4,2,1,5,1,0
5503,500,4,2,1,5,1,0
6496,322.58064516129,4,2,2,50,1,0
6496,-100,4,2,2,50,0,0
9076,-100,4,2,1,50,0,0
9883,-100,4,2,1,50,0,0
10366,-100,4,2,1,70,0,0
10850,-100,4,2,1,10,0,0
11012,-100,4,2,1,70,0,0
11495,-100,4,2,1,10,0,0
11615,322.58064516129,4,2,1,80,1,0
16131,-100,4,2,1,60,0,0
16776,-100,4,2,2,60,0,0
26292,-100,4,2,1,70,0,0
27098,-100,4,2,1,70,0,0
37421,-100,4,2,20,60,0,0
37582,-100,4,2,2,40,0,0
37905,-100,4,2,20,60,0,0
38066,-100,4,2,2,40,0,0
40002,-100,4,2,21,60,0,0
40163,-100,4,2,2,40,0,0
40485,-100,4,2,21,60,0,0
40647,-100,4,2,2,40,0,0
42582,-100,4,2,22,60,0,0
42744,-100,4,2,2,40,0,0
43066,-100,4,2,22,60,0,0
43227,-100,4,2,2,40,0,0
45163,-100,4,2,23,60,0,0
45324,-100,4,2,2,40,0,0
45647,-100,4,2,23,60,0,0
45808,-100,4,2,2,40,0,0
47744,-100,4,2,1,30,0,0
48389,-100,4,2,2,40,0,0
49034,-100,4,2,2,50,0,0
49679,-100,4,2,2,30,0,0
50163,-100,4,2,1,70,0,0
52905,-100,4,2,1,80,0,0
65808,-100,4,2,1,80,0,0
75647,-100,4,2,1,60,0,0
75969,-100,4,2,1,80,0,0
82260,-100,4,2,1,50,0,0
82421,-100,4,2,1,80,0,0
82582,-100,4,2,1,60,0,0
82744,-100,4,2,1,80,0,0
82905,-100,4,2,1,70,0,0
83066,-100,4,2,1,80,0,0
83550,-100,4,2,1,90,0,0
83711,-100,4,2,1,80,0,0

[Colours]
Combo1 : 236,19,19
Combo2 : 206,206,206
Combo3 : 255,121,121
Combo4 : 255,255,128
Combo5 : 255,149,43

[HitObjects]
256,192,559,12,0,5503,0:0:0:0:
108,88,6496,6,0,L|128:220,1,120,2|2,0:0|0:0,0:0:0:0:
83,292,7141,1,2,0:0:0:0:
83,292,7302,2,0,P|140:291|219:331,1,120
241,335,7786,2,0,P|221:287|269:223,1,120,2|2,0:0|0:0,0:0:0:0:
341,196,8431,1,2,0:0:0:0:
341,196,8592,2,0,P|361:148|313:84,1,120,0|0,0:0|0:0,0:0:0:0:
291,63,9076,5,0,0:0:0:0:
291,63,9237,2,0,B|226:64|177:94|177:94|155:64|107:48,1,180
81,51,9883,1,0,0:0:0:0:
13,178,10366,5,10,0:0:0:0:
22,225,10528,1,10,0:0:0:0:
148,294,11012,5,10,0:0:0:0:
157,247,11174,1,10,0:0:0:0:
236,142,11615,6,0,B|307:145|285:180|384:181,1,120,6|2,0:0|0:0,0:0:0:0:
443,165,12260,1,2,0:0:0:0:
443,165,12421,2,0,P|466:227|454:302,1,120
436,320,12905,1,2,0:0:0:0:
344,350,13227,1,2,0:0:0:0:
288,271,13550,1,2,0:0:0:0:
288,271,13711,2,0,P|225:279|140:295,1,120
130,317,14195,6,0,P|95:271|101:211,1,120,2|2,0:0|0:0,0:0:0:0:
30,146,14840,1,2,0:0:0:0:
30,146,15002,2,0,B|88:153|120:162|120:162|142:117|189:71,1,180,0|2,0:0|0:0,0:0:0:0:
212,64,15647,1,0,0:0:0:0:
271,194,16131,1,2,0:0:0:0:
317,182,16292,1,2,0:0:0:0:
364,174,16453,2,0,P|376:140|377:96,1,60,8|8,0:0|0:0,0:0:0:0:
360,72,16776,6,0,P|422:66|483:134,1,120,6|0,0:0|0:0,0:0:0:0:
451,192,17421,1,2,0:0:0:0:
488,280,17744,1,2,0:0:0:0:
418,345,18066,1,0,0:0:0:0:
418,345,18227,2,0,P|356:337|287:334,1,120,2|2,0:0|0:0,0:0:0:0:
254,248,18873,1,2,0:0:0:0:
182,311,19195,1,2,0:0:0:0:
182,311,19356,6,0,P|126:319|65:153,1,240
72,88,20324,2,0,L|144:107,1,60
170,77,20647,2,0,B|276:75|227:178|359:183|386:126,1,240
415,108,21453,2,0,P|396:176|387:240,1,120,2|2,0:0|0:0,0:0:0:0:
426,254,21937,6,0,B|337:256|337:256|313:323|313:323|212:310,1,240
145,350,22905,2,0,L|79:338,1,60
39,350,23227,2,0,P|24:275|142:256,1,180
150,249,23873,1,2,0:0:0:0:
150,249,24034,2,0,P|170:192|155:112,1,120,2|0,0:0|0:0,0:0:0:0:
125,104,24518,6,0,B|229:-1|532:-4|478:238|270:249|283:80|318:46,1,480
204,199,26292,2,0,L|192:274,1,60,2|8,0:0|0:0,0:0:0:0:
176,302,26614,2,0,P|234:272|309:294,1,120,2|2,0:0|0:0,0:0:0:0:
316,317,27098,6,0,B|388:328|388:328|434:271,1,120,6|8,0:0|0:0,0:0:0:0:
419,194,27744,1,2,0:0:0:0:
473,115,28066,1,8,0:0:0:0:
402,49,28389,2,0,L|337:66,1,60,2|0,0:0|0:0,0:0:0:0:
301,42,28711,1,8,0:0:0:0:
301,42,28873,2,0,P|276:116|283:173,1,120
308,194,29356,1,8,0:0:0:0:
293,288,29679,6,0,P|248:326|161:315,1,120,2|8,0:0|0:0,0:0:0:0:
100,291,30324,1,2,0:0:0:0:
166,221,30647,1,8,0:0:0:0:
90,161,30969,2,0,L|71:30,1,120,2|8,0:0|0:0,0:0:0:0:
107,8,31453,1,0,0:0:0:0:
107,8,31614,2,0,P|157:20|185:36,1,60,2|0,0:0|0:0,0:0:0:0:
196,59,31937,1,8,0:0:0:0:
276,111,32260,6,0,B|343:110|328:81|427:79,2,120,2|8|2,0:0|0:0|0:0,0:0:0:0:
219,188,33227,1,8,0:0:0:0:
308,223,33550,2,0,P|339:287|334:358,1,120,2|8,0:0|0:0,0:0:0:0:
245,355,34195,2,0,P|172:332|96:341,1,120,2|8,0:0|0:0,0:0:0:0:
88,358,34679,1,0,0:0:0:0:
88,358,34840,6,0,P|59:295|74:217,1,120,2|8,0:0|0:0,0:0:0:0:
119,169,35485,1,2,0:0:0:0:
204,212,35808,1,8,0:0:0:0:
287,164,36131,1,2,0:0:0:0:
287,164,36292,2,0,P|288:132|269:91,1,60,8|2,0:0|0:0,0:0:0:0:
254,64,36614,1,8,0:0:0:0:
254,64,36776,2,0,L|328:53,1,60,2|8,0:0|0:0,0:0:0:0:
353,80,37098,2,0,L|427:69,1,60,2|8,0:0|0:0,0:0:0:0:
454,95,37421,6,0,P|481:152|469:217,1,120,2|8,0:0|0:0,0:0:0:0:
460,253,37905,2,0,P|389:263|318:286,1,120,2|0,0:0|0:0,0:0:0:0:
313,315,38389,1,8,0:0:0:0:
234,369,38711,2,0,P|165:372|107:320,1,120,0|8,0:0|0:0,0:0:0:0:
48,285,39356,2,0,P|99:255|158:261,1,120,0|8,0:0|0:0,0:0:0:0:
246,224,40002,6,0,P|274:172|234:96,1,120,2|8,0:0|0:0,0:0:0:0:
223,83,40485,2,0,L|383:63,1,120,2|0,0:0|0:0,0:0:0:0:
383,44,40969,1,8,0:0:0:0:
383,44,41131,2,0,P|366:113|377:188,1,120,2|0,0:0|0:0,0:0:0:0:
400,197,41614,1,10,0:0:0:0:
348,278,41937,2,0,L|271:289,1,60
254,320,42260,1,8,0:0:0:0:
159,306,42582,6,0,P|122:254|142:181,1,120,2|8,0:0|0:0,0:0:0:0:
130,152,43066,2,0,B|195:156|180:192|266:181,1,120,2|0,0:0|0:0,0:0:0:0:
290,195,43550,1,10,0:0:0:0:
290,195,43711,2,0,B|343:144|343:144|313:33,1,180,2|8,0:0|0:0,0:0:0:0:
223,70,44518,1,2,0:0:0:0:
133,35,44840,1,8,0:0:0:0:
57,94,45163,6,0,P|34:156|51:222,1,120,2|8,0:0|0:0,0:0:0:0:
41,255,45647,2,0,P|99:240|181:247,1,120,2|0,0:0|0:0,0:0:0:0:
192,276,46131,1,8,0:0:0:0:
192,276,46292,2,0,B|284:312|284:244|380:288,1,180,2|10,0:0|0:0,0:0:0:0:
450,331,47098,1,0,0:0:0:0:
450,331,47260,2,0,P|481:295|458:207,1,120,2|0,0:0|0:0,0:0:0:0:
440,192,47744,5,2,0:0:0:0:
256,192,47905,12,0,49679,0:0:0:0:
282,274,50324,5,8,0:0:0:0:
282,274,50485,1,8,0:0:0:0:
185,243,50808,1,8,0:0:0:0:
185,243,50969,1,8,0:0:0:0:
185,141,51292,1,8,0:0:0:0:
185,141,51453,1,8,0:0:0:0:
282,109,51776,1,8,0:0:0:0:
282,109,51937,1,8,0:0:0:0:
342,192,52260,1,8,0:0:0:0:
342,192,52421,1,8,0:0:0:0:
262,312,52905,6,0,B|192:315|203:351|110:341,1,120,6|8,0:0|0:0,0:0:0:0:
50,343,53550,2,0,P|35:311|54:261,1,60,2|2,0:0|0:0,0:0:0:0:
65,247,53873,1,8,0:0:0:0:
65,247,54034,2,0,L|76:93,1,120,6|2,0:0|0:0,0:0:0:0:
113,99,54518,1,8,0:0:0:0:
199,58,54840,2,0,L|207:-9,2,60,2|2|8,0:0|0:0|0:0,0:0:0:0:
233,147,55485,6,0,P|296:137|374:131,1,120,2|8,0:0|0:0,0:0:0:0:
394,110,55969,1,2,0:0:0:0:
461,178,56292,2,0,P|459:213|452:252,1,60,2|8,0:0|0:0,0:0:0:0:
479,279,56614,2,0,L|360:296,1,120,6|2,0:0|0:0,0:0:0:0:
332,336,57098,1,8,0:0:0:0:
332,336,57260,2,0,P|289:364|190:354,1,120,6|2,0:0|0:0,0:0:0:0:
191,330,57744,1,8,0:0:0:0:
113,273,58066,6,0,L|105:207,1,60,2|2,0:0|0:0,0:0:0:0:
82,171,58389,2,0,P|141:181|276:228,1,180,8|2,0:0|0:0,0:0:0:0:
298,240,59034,1,8,0:0:0:0:
298,240,59195,2,0,P|277:167|276:89,1,120,6|2,0:0|0:0,0:0:0:0:
300,83,59679,1,8,0:0:0:0:
391,111,60002,2,0,P|406:76|427:35,2,60,2|2|8,0:0|0:0|0:0,0:0:0:0:
385,158,60485,1,0,0:0:0:0:
385,158,60647,6,0,P|445:133|526:144,2,120,2|8|2,0:0|0:0|0:0,0:0:0:0:
364,251,61614,1,8,0:0:0:0:
364,251,61776,2,0,P|308:245|232:221,1,120,6|2,0:0|0:0,0:0:0:0:
207,199,62260,1,8,0:0:0:0:
114,222,62582,2,0,L|121:281,1,60,8|8,0:0|0:0,0:0:0:0:
80,307,62905,2,0,L|87:366,1,60,8|8,0:0|0:0,0:0:0:0:
132,380,63227,6,0,P|196:356|273:355,1,120,6|8,0:0|0:0,0:0:0:0:
342,366,63873,2,0,P|354:350|362:306,1,60,2|2,0:0|0:0,0:0:0:0:
342,267,64195,1,8,0:0:0:0:
342,267,64356,2,0,L|330:113,1,120,6|2,0:0|0:0,0:0:0:0:
354,104,64840,2,0,B|302:76|302:76|216:95,1,120,8|10,0:0|0:0,0:0:0:0:
217,130,65324,1,10,0:0:0:0:
140,252,65808,6,0,B|207:258|190:289|274:291,1,120,6|8,0:0|0:0,0:0:0:0:
334,339,66453,2,0,P|366:334|396:313,1,60,2|2,0:0|0:0,0:0:0:0:
434,335,66776,1,8,0:0:0:0:
434,335,66937,2,0,P|457:291|440:213,1,120,6|2,0:0|0:0,0:0:0:0:
411,190,67421,1,8,0:0:0:0:
327,141,67744,1,2,0:0:0:0:
327,141,67905,2,0,P|315:174|312:217,1,60,2|8,0:0|0:0,0:0:0:0:
320,245,68227,1,2,0:0:0:0:
320,245,68389,6,0,P|262:262|195:269,1,120,2|8,0:0|0:0,0:0:0:0:
159,289,68873,1,0,0:0:0:0:
116,203,69195,2,0,L|127:122,1,60,0|8,0:0|0:0,0:0:0:0:
90,109,69518,2,0,B|131:82|131:82|236:103,1,120,6|2,0:0|0:0,0:0:0:0:
235,129,70002,1,8,0:0:0:0:
235,129,70163,2,0,B|275:157|275:157|380:135,1,120,6|2,0:0|0:0,0:0:0:0:
377,107,70647,1,8,0:0:0:0:
438,180,70969,6,0,L|439:239,1,60,2|2,0:0|0:0,0:0:0:0:
457,284,71292,2,0,P|369:244|262:243,1,180,8|2,0:0|0:0,0:0:0:0:
252,272,71937,1,8,0:0:0:0:
252,272,72098,2,0,L|111:300,1,120,6|2,0:0|0:0,0:0:0:0:
106,334,72582,1,8,0:0:0:0:
34,269,72905,2,0,P|25:239|26:201,1,60,2|2,0:0|0:0,0:0:0:0:
50,170,73227,1,8,0:0:0:0:
52,73,73550,6,0,B|121:77|101:103|190:101,1,120,2|8,0:0|0:0,0:0:0:0:
256,63,74195,2,0,P|286:55|337:51,2,60,2|2|8,0:0|0:0|0:0,0:0:0:0:
260,111,74679,2,0,P|329:93|421:146,1,180,6|8,0:0|0:0,0:0:0:0:
368,225,75485,1,8,0:0:0:0:
378,272,75647,1,6,0:0:0:0:
307,337,75969,6,0,P|253:327|173:323,1,120,6|2,0:0|0:0,0:0:0:0:
148,350,76453,1,8,0:0:0:0:
59,313,76776,1,8,0:0:0:0:
34,220,77098,1,8,0:0:0:0:
95,146,77421,1,8,0:0:0:0:
187,121,77744,2,0,P|201:152|208:189,1,60,8|2,0:0|0:0,0:0:0:0:
194,223,78066,1,8,0:0:0:0:
272,277,78389,1,8,0:0:0:0:
344,214,78711,6,0,P|404:206|464:198,2,120,8|8|8,0:0|0:0|0:0,0:0:0:0:
283,288,79679,1,8,0:0:0:0:
197,243,80002,1,8,0:0:0:0:
235,155,80324,2,0,P|236:124|227:95,1,60,8|2,0:0|0:0,0:0:0:0:
195,60,80647,1,8,0:0:0:0:
101,40,80969,1,8,0:0:0:0:
46,119,81292,6,0,P|38:178|35:238,1,120,8|8,0:0|0:0,0:0:0:0:
39,334,81937,2,0,P|98:316|172:307,1,120,8|12,0:0|0:0,0:0:0:0:
242,349,82582,1,12,0:0:0:0:
338,344,82905,1,12,0:0:0:0:
403,274,83227,1,12,0:0:0:0:
397,179,83550,2,0,L|380:110,1,60,12|6,0:0|0:0,0:0:0:0:
375,73,83873,6,0,B|311:77|318:113|233:109,1,120,8|8,0:0|0:0,0:0:0:0:
183,52,84518,2,0,P|122:51|68:100,1,120,8|8,0:0|0:0,0:0:0:0:
13,157,85163,2,0,P|60:191|119:190,1,120,8|8,0:0|0:0,0:0:0:0:
215,197,85808,1,10,0:0:0:0:
234,240,85969,1,10,0:0:0:0:
253,284,86131,2,0,L|243:362,1,60,10|14,0:0|0:0,0:0:0:0:
