osu file format v14

[General]
AudioFilename: fluff.mp3
AudioLeadIn: 0
PreviewTime: 52824
Countdown: 0
SampleSet: Soft
StackLeniency: 0.5
Mode: 0
LetterboxInBreaks: 0
WidescreenStoryboard: 1

[Editor]
DistanceSpacing: 1.5
BeatDivisor: 4
GridSize: 32
TimelineZoom: 1.8

[Metadata]
Title:Light My Fire (TV Size)
TitleUnicode:Light My Fire (TV Size)
Artist:KOTOKO
ArtistUnicode:KOTOKO
Creator:Gaia
Version:Makitoshi's Insane
Source:灼眼のシャナⅢ-FINAL-
Tags:p_a_n pan giralda okoratu okorin akitoshi -laura- corinn -yuzuriha -yuzuriha-inori- Shakugan no Shana III opening anime japanese
BeatmapID:3894352
BeatmapSetID:398134

[Difficulty]
HPDrainRate:5.8
CircleSize:3.8
OverallDifficulty:7.5
ApproachRate:9
SliderMultiplier:1.5
SliderTickRate:1

[Events]
//Background and Video events
Video,-106,"fire.mp4"
0,0,"shanaFire.jpg",0,0
//Break Periods
//Storyboard Layer 0 (Background)
//Storyboard Layer 1 (Fail)
//Storyboard Layer 2 (Pass)
//Storyboard Layer 3 (Foreground)
//Storyboard Layer 4 (Overlay)
//Storyboard Sound Samples

[TimingPoints]
559,322.58064516129,4,2,1,5,1,0
859,560.747663551402,4,2,1,5,1,0
1139,517.241379310345,4,2,1,5,1,0
1397,480,4,2,1,5,1,0
1637,444.444444444444,4,2,1,5,1,0
1859,416.666666666667,4,2,1,5,1,0
2067,397.350993377483,4,2,1,5,1,0
2265,389.61038961039,4,2,1,5,1,0
2459,387.096774193548,4,2,1,5,1,0
2652,384.615384615385,4,2,1,5,1,0
2849,382.165605095541,4,2,1,5,1,0
3040,307.692307692308,4,2,1,5,1,0
3193,260.869565217391,4,2,1,5,1,0
3323,244.897959183673,4,2,1,5,1,0
3445,243.90243902439,4,2,1,5,1,0
3566,242.914979757085,4,2,1,5,1,0
3687,241.935483870968,4,2,1,5,1,0
3812,240,4,2,1,5,1,0
3932,238.095238095238,4,2,1,5,1,0
4052,236.220472440945,4,2,1,5,1,0
4171,233.463035019455,4,2,1,5,1,0
4287,230.769230769231,4,2,1,5,1,0
4402,228.571428571429,4,2,1,5,1,0
4516,226.415094339623,4,2,1,5,1,0
4629,224.299065420561,4,2,1,5,1,0
4741,222.222222222222,4,2,1,5,1,0
4852,220.183486238532,4,2,1,5,1,0
4962,218.181818181818,4,2,1,5,1,0
5071,217.785843920145,4,2,1,5,1,0
5179,217.391304347826,4,2,1,5,1,0
5287,216.998191681736,4,2,1,5,1,0
5395,216.606498194946,4,2,1,5,1,0
5503,500,4,2,1,5,1,0
6496,322.58064516129,4,2,2,50,1,0
6496,-125,4,2,2,50,0,0
8968,-125,4,2,2,60,0,0
9076,-125,4,2,1,50,0,0
10366,-100,4,2,1,70,0,0
11615,322.58064516129,4,2,1,80,1,0
16131,-100,4,2,1,60,0,0
16776,-142.857142857143,4,2,2,60,0,0
24195,-142.857142857143,4,2,2,40,0,0
24356,-142.857142857143,4,2,2,60,0,0
26292,-100,4,2,1,70,0,0
26775,-100,4,2,1,50,0,0
26937,-100,4,2,1,70,0,0
27098,-100,4,2,1,70,0,0
27339,-100,4,2,1,60,0,0
27421,-100,4,2,1,70,0,0
31534,-100,4,2,1,60,0,0
31614,-100,4,2,1,70,0,0
32501,-100,4,2,1,60,0,0
32582,-100,4,2,1,70,0,0
33791,-100,4,2,1,60,0,0
33873,-100,4,2,1,70,0,0
35081,-100,4,2,1,60,0,0
35163,-100,4,2,1,70,0,0
37421,-166.666666666667,4,2,2,40,0,0
42582,-142.857142857143,4,2,2,40,0,0
47744,-333.333333333334,4,2,2,70,0,0
47824,-333.333333333334,4,2,31,5,0,0
50002,-333.333333333334,4,2,2,5,0,0
50163,-90.9090909090908,4,2,1,70,0,0
52421,-200,4,2,1,70,0,0
52824,-200,4,2,1,5,0,0
52905,-83.3333333333333,4,2,1,80,0,1
57421,-83.3333333333333,4,2,1,70,0,1
57582,-83.3333333333333,4,2,1,80,0,1
65324,-200,4,2,1,80,0,0
65405,-200,4,2,2,20,0,0
65727,-200,4,2,1,5,0,0
65808,-83.3333333333333,4,2,1,80,0,1
70324,-83.3333333333333,4,2,1,70,0,1
70485,-83.3333333333333,4,2,1,80,0,1
71130,-83.3333333333333,4,2,1,70,0,1
71292,-83.3333333333333,4,2,1,80,0,1
73791,-83.3333333333333,4,2,1,70,0,1
73873,-83.3333333333333,4,2,1,80,0,1
74034,-83.3333333333333,4,2,1,70,0,1
74195,-83.3333333333333,4,2,1,80,0,1
75647,-76.9230769230769,4,2,1,60,0,1
75808,-76.9230769230769,4,2,1,70,0,1
75969,-90.9090909090909,4,2,1,80,0,1
82260,-90.9090909090909,4,2,1,50,0,1
82340,-90.9090909090909,4,2,1,70,0,1
82421,-90.9090909090909,4,2,1,80,0,1
82582,-90.9090909090909,4,2,1,60,0,1
82743,-90.9090909090909,4,2,1,80,0,1
82905,-90.9090909090909,4,2,1,70,0,1
83066,-90.9090909090909,4,2,1,80,0,1
83549,-90.9090909090909,4,2,1,90,0,1
83710,-90.9090909090909,4,2,1,80,0,1
83873,-83.3333333333333,4,2,1,80,0,1
85163,-83.3333333333333,4,2,1,80,0,1
86292,-83.3333333333333,4,2,1,80,0,0

[Colours]
Combo1 : 236,19,19
Combo2 : 206,206,206
Combo3 : 255,121,121
Combo4 : 255,255,128
Combo5 : 255,149,43

[HitObjects]
256,192,559,12,0,5503,0:0:0:0:
192,118,6496,6,0,P|203:141|208:179,1,60,2|0,0:0|0:0,0:0:0:0:
180,254,6818,1,2,0:0:0:0:
129,192,6979,1,0,0:0:0:0:
129,192,7060,1,0,0:0:0:0:
129,192,7141,1,2,0:0:0:0:
264,241,7302,2,0,P|317:228|394:216,1,120
469,194,7786,6,0,P|472:165|460:122,1,60,2|0,0:0|0:0,0:0:0:0:
426,54,8108,1,2,0:0:0:0:
374,130,8270,1,0,0:0:0:0:
374,130,8350,1,0,0:0:0:0:
374,130,8431,1,2,0:0:0:0:
285,39,8592,2,0,P|232:47|211:53,1,60,0|2,0:0|0:0,0:0:0:0:
150,99,8915,2,0,L|121:93,2,20
159,119,9076,6,0,P|147:148|148:188,1,60,8|8,0:0|0:0,0:0:0:0:
198,275,9399,1,0,0:0:0:0:
198,275,9479,1,0,0:0:0:0:
198,275,9560,1,0,0:0:0:0:
254,189,9721,1,8,0:0:0:0:
340,243,9883,2,0,P|328:316|318:375,1,120,8|0,0:0|0:0,0:0:0:0:
265,209,10366,5,10,0:0:0:0:
421,300,10528,1,10,0:0:0:0:
421,300,11012,5,10,0:0:0:0:
352,132,11174,1,10,0:0:0:0:
352,132,11615,5,6,0:0:0:0:
266,201,11776,1,0,0:0:0:0:
266,201,11856,1,0,0:0:0:0:
266,201,11937,2,0,P|213:203|180:190,1,75,2|0,0:0|0:0,0:0:0:0:
176,188,12179,1,0,0:0:0:0:
176,188,12260,2,0,P|178:135|165:102,1,75,2|0,0:0|0:0,0:0:0:0:
62,206,12582,2,0,P|57:243|66:279,1,75,2|0,0:0|0:0,0:0:0:0:
138,366,12905,5,2,0:0:0:0:
228,297,13066,1,0,0:0:0:0:
228,297,13147,1,0,0:0:0:0:
228,297,13227,2,0,P|274:306|306:311,1,75,2|0,0:0|0:0,0:0:0:0:
321,330,13469,1,0,0:0:0:0:
321,330,13550,2,0,P|367:321|399:316,1,75,2|0,0:0|0:0,0:0:0:0:
482,246,13873,2,0,P|488:206|472:162,1,75,2|0,0:0|0:0,0:0:0:0:
401,72,14195,5,2,0:0:0:0:
321,172,14356,1,0,0:0:0:0:
321,172,14437,1,0,0:0:0:0:
321,172,14518,2,0,P|271:157|244:153,1,75,2|0,0:0|0:0,0:0:0:0:
192,208,14760,1,0,0:0:0:0:
192,208,14840,2,0,P|207:258|211:285,1,75,2|0,0:0|0:0,0:0:0:0:
159,341,15082,1,0,0:0:0:0:
159,341,15163,2,0,P|105:357|34:320,1,112.5,2|0,0:0|0:0,0:0:0:0:
46,260,15485,6,0,P|85:245|121:239,1,75,2|0,0:0|0:0,0:0:0:0:
166,120,15808,2,0,P|129:113|94:99,1,75,2|0,0:0|0:0,0:0:0:0:
249,5,16131,5,8,0:0:0:0:
253,31,16211,1,8,0:0:0:0:
257,57,16292,1,8,0:0:0:0:
261,83,16372,1,8,0:0:0:0:
279,101,16453,5,8,0:0:0:0:
275,127,16533,1,8,0:0:0:0:
271,153,16614,1,8,0:0:0:0:
267,179,16694,1,8,0:0:0:0:
282,200,16776,6,0,P|311:189|389:182,1,104.999996795654,6|0,0:0|0:0,0:0:0:0:
384,181,17260,1,2,0:0:0:0:
449,249,17421,2,0,P|439:290|435:310,1,52.4999983978272,0|2,0:0|0:0,0:0:0:0:
362,359,17744,2,0,P|356:333|349:307,1,52.4999983978272,0|2,0:0|0:0,0:0:0:0:
264,279,18066,5,0,0:0:0:0:
264,279,18227,2,0,P|231:291|204:293,1,52.4999983978272,2|0,0:0|0:0,0:0:0:0:
120,200,18550,2,0,P|146:222|162:244,1,52.4999983978272,2|0,0:0|0:0,0:0:0:0:
125,364,18873,2,0,P|131:329|142:305,1,52.4999983978272,2|0,0:0|0:0,0:0:0:0:
264,279,19195,1,2,0:0:0:0:
350,308,19356,6,0,P|399:300|455:290,1,104.999996795654
453,290,19840,1,2,0:0:0:0:
495,205,20002,1,0,0:0:0:0:
495,205,20163,2,0,P|456:183|385:185,1,104.999996795654,2|2,0:0|0:0,0:0:0:0:
307,204,20647,5,0,0:0:0:0:
307,204,20808,2,0,P|285:165|287:94,1,104.999996795654,2|2,0:0|0:0,0:0:0:0:
376,53,21292,1,0,0:0:0:0:
376,53,21453,2,0,P|368:99|365:119,1,52.4999983978272,2|0,0:0|0:0,0:0:0:0:
307,204,21776,6,0,B|227:217|240:157|147:173,1,157.499995193482,2|0,0:0|0:0,0:0:0:0:
157,171,22421,1,2,0:0:0:0:
84,231,22582,1,0,0:0:0:0:
84,231,22744,2,0,P|110:277|109:341,1,104.999996795654,2|2,0:0|0:0,0:0:0:0:
200,374,23227,5,0,0:0:0:0:
200,374,23389,2,0,P|246:348|310:349,1,104.999996795654,2|2,0:0|0:0,0:0:0:0:
395,359,23873,1,0,0:0:0:0:
354,273,24034,2,0,P|361:228|365:205,1,52.4999983978272,2|0,0:0|0:0,0:0:0:0:
381,131,24356,1,2,0:0:0:0:
381,131,24518,6,0,P|428:151|489:141,1,104.999996795654
480,144,25002,1,2,0:0:0:0:
501,55,25163,1,0,0:0:0:0:
501,55,25324,2,0,P|448:43|384:32,1,104.999996795654,2|2,0:0|0:0,0:0:0:0:
307,25,25808,5,0,0:0:0:0:
307,25,25969,2,0,P|310:54|303:83,1,52.4999983978272,2|0,0:0|0:0,0:0:0:0:
244,153,26292,5,2,0:0:0:0:
244,153,26373,1,2,0:0:0:0:
244,153,26453,1,8,0:0:0:0:
179,43,26614,2,0,P|139:48|96:54,1,75,2|0,0:0|0:0,0:0:0:0:
17,112,26937,1,2,0:0:0:0:
126,190,27098,6,0,B|106:256|106:256|121:273|132:296,1,112.5,6|0,0:0|0:0,0:0:0:0:
145,366,27421,2,0,P|179:375|223:367,1,75,8|0,0:0|0:0,0:0:0:0:
313,272,27744,2,0,P|274:278|226:286,1,75,2|0,0:0|0:0,0:0:0:0:
301,164,28066,2,0,P|338:170|375:175,1,75,8|0,0:0|0:0,0:0:0:0:
488,136,28389,5,2,0:0:0:0:
382,79,28550,2,0,P|343:75|301:86,1,75,0|8,0:0|0:0,0:0:0:0:
219,1,28873,2,0,P|196:32|184:74,1,75,0|2,0:0|0:0,0:0:0:0:
69,95,29195,2,0,P|85:130|115:161,1,75,0|8,0:0|0:0,0:0:0:0:
226,185,29518,1,0,0:0:0:0:
132,259,29679,6,0,B|26:237|26:237|54:278,1,150,2|8,0:0|0:0,0:0:0:0:
103,353,30163,1,0,0:0:0:0:
218,313,30324,1,2,0:0:0:0:
218,313,30485,2,0,P|251:323|292:316,1,75,0|8,0:0|0:0,0:0:0:0:
399,265,30808,1,0,0:0:0:0:
284,194,30969,6,0,P|296:111|300:89,1,75,2|0,0:0|0:0,0:0:0:0:
384,18,31292,1,8,0:0:0:0:
399,137,31453,1,2,0:0:0:0:
399,137,31534,1,2,0:0:0:0:
399,137,31614,1,2,0:0:0:0:
296,26,31776,2,0,P|259:32|207:39,1,75,0|8,0:0|0:0,0:0:0:0:
102,48,32098,1,0,0:0:0:0:
212,139,32260,6,0,P|199:187|191:256,1,112.5,2|0,0:0|0:0,0:0:0:0:
117,266,32582,2,0,P|72:263|45:272,1,75,8|0,0:0|0:0,0:0:0:0:
192,361,32905,1,2,0:0:0:0:
292,295,33066,2,0,P|295:250|286:223,1,75,0|8,0:0|0:0,0:0:0:0:
194,131,33389,1,0,0:0:0:0:
301,63,33550,6,0,B|380:75|336:69|427:82,1,112.5,2|0,0:0|0:0,0:0:0:0:
487,94,33873,2,0,P|497:128|493:172,1,75,8|0,0:0|0:0,0:0:0:0:
457,296,34195,1,2,0:0:0:0:
359,206,34356,2,0,P|317:214|272:225,1,75,0|8,0:0|0:0,0:0:0:0:
189,239,34679,1,0,0:0:0:0:
284,334,34840,6,0,B|351:352|351:352|370:339|408:326,1,112.5,2|0,0:0|0:0,0:0:0:0:
457,296,35163,2,0,P|466:254|456:213,1,75,8|0,0:0|0:0,0:0:0:0:
363,133,35485,1,2,0:0:0:0:
363,133,35647,2,0,P|354:169|359:206,1,75,0|8,0:0|0:0,0:0:0:0:
442,82,35969,1,0,0:0:0:0:
300,64,36131,5,8,0:0:0:0:
300,64,36211,1,8,0:0:0:0:
300,64,36292,1,8,0:0:0:0:
360,206,36453,1,2,0:0:0:0:
203,139,36614,1,8,0:0:0:0:
203,139,36694,1,8,0:0:0:0:
203,139,36775,1,2,0:0:0:0:
263,281,36937,2,0,P|252:332|249:360,1,75,8|2,0:0|0:0,0:0:0:0:
120,227,37260,1,8,0:0:0:0:
282,171,37421,5,2,0:2:0:0:
282,171,37744,2,0,B|364:154|344:210|428:188,1,134.999995880127,10|0,1:2|0:0,0:0:0:0:
461,116,38389,2,0,P|498:168|485:244,1,134.999995880127,10|0,1:2|0:0,0:0:0:0:
429,302,39034,6,0,B|362:286|369:287|288:267,1,134.999995880127,10|0,1:2|0:0,0:0:0:0:
230,330,39679,2,0,P|239:364|243:383,1,44.999998626709,10|0,1:2|0:0,0:0:0:0:
148,293,40002,5,2,0:2:0:0:
148,293,40324,2,0,P|103:308|28:254,1,134.999995880127,10|0,1:2|0:0,0:0:0:0:
24,175,40969,2,0,B|104:159|85:213|167:190,1,134.999995880127,10|0,1:2|0:0,0:0:0:0:
229,143,41614,6,0,P|204:85|235:20,1,134.999995880127,10|0,1:2|0:0,0:0:0:0:
321,8,42260,2,0,P|327:38|333:68,1,44.999998626709,10|0,1:2|0:0,0:0:0:0:
348,155,42582,5,2,0:2:0:0:
348,155,42905,2,0,P|375:146|403:144,1,52.4999983978272,10|2,1:2|0:0,0:0:0:0:
476,197,43227,2,0,P|460:237|451:310,1,104.999996795654,0|10,3:2|1:2,0:0:0:0:
363,335,43711,6,0,P|320:304|265:304,1,104.999996795654,2|0,0:0|0:0,0:0:0:0:
185,342,44195,1,10,1:2:0:0:
185,342,44356,1,2,0:0:0:0:
116,275,44518,2,0,P|123:237|125:220,1,52.4999983978272,2|0,3:2|0:0,0:0:0:0:
205,175,44840,2,0,P|208:201|213:226,1,52.4999983978272,10|0,1:2|0:0,0:0:0:0:
270,303,45163,5,2,0:2:0:0:
270,303,45485,2,0,P|267:329|262:354,1,52.4999983978272,8|0,1:2|0:0,0:0:0:0:
352,383,45808,2,0,P|389:362|462:365,1,104.999996795654,2|10,0:2|1:2,0:0:0:0:
498,267,46292,6,0,P|446:268|399:244,1,104.999996795654,2|0,0:0|0:0,0:0:0:0:
384,151,46776,2,0,P|409:144|435:140,1,52.4999983978272,10|0,0:2|0:0,0:0:0:0:
305,204,47098,1,0,3:2:0:0:
305,204,47260,2,0,P|253:194|202:181,1,104.999996795654,0|0,3:0|0:0,0:0:0:0:
90,151,47744,6,0,B|34:192|19:284|83:342|83:342|139:329|143:270,1,314.999990386963,4|0,3:3|0:0,0:0:0:0:
210,215,50163,1,2,0:0:0:0:
210,215,50244,1,2,0:0:0:0:
210,215,50324,5,8,0:0:0:0:
297,334,50485,2,0,B|332:328|332:328|339:329|339:329|381:322,1,82.5000025177003,8|2,0:0|0:0,0:0:0:0:
378,322,50727,1,2,0:0:0:0:
378,322,50808,5,8,0:0:0:0:
488,223,50969,2,0,B|453:217|453:217|446:218|446:218|404:211,1,82.5000025177003,8|2,0:0|0:0,0:0:0:0:
406,211,51211,1,2,0:0:0:0:
406,211,51292,5,8,0:0:0:0:
307,101,51453,2,0,B|321:69|313:39|313:39|289:20,1,82.5000025177003,8|2,0:0|0:0,0:0:0:0:
298,27,51695,1,2,0:0:0:0:
298,27,51776,5,8,0:0:0:0:
201,141,51937,2,0,B|187:173|195:203|195:203|219:222,1,82.5000025177003,8|2,0:0|0:0,0:0:0:0:
209,214,52179,1,2,0:0:0:0:
209,214,52260,5,8,0:0:0:0:
394,125,52421,2,0,P|432:117|485:135,1,93.75,8|0,0:0|0:0,0:0:0:0:
497,148,52905,6,0,B|472:221|472:221|490:238|499:273,1,134.999995880127,6|0,0:0|0:0,0:0:0:0:
448,335,53227,2,0,P|402:322|336:313,1,89.9999972534181,8|0,0:0|0:0,0:0:0:0:
215,310,53550,1,2,0:0:0:0:
290,147,53711,2,0,P|333:133|383:139,1,89.9999972534181,2|8,0:0|0:0,0:0:0:0:
173,213,54034,6,0,B|132:209|103:197|103:197|66:211|66:211|35:200|-4:200,1,179.999994506836,6|2,0:0|0:0,0:0:0:0:
88,346,54518,2,0,P|130:364|186:353,1,89.9999972534181,8|0,0:0|0:0,0:0:0:0:
304,301,54840,1,2,0:0:0:0:
174,237,55002,1,2,0:0:0:0:
264,381,55163,1,8,0:0:0:0:
311,207,55324,1,2,0:0:0:0:
448,323,55485,6,0,P|483:293|465:151,1,179.999994506836,2|8,0:0|0:0,0:0:0:0:
393,67,55969,1,2,0:0:0:0:
393,67,56050,1,8,0:0:0:0:
393,67,56131,1,2,0:0:0:0:
296,221,56292,2,0,B|255:212|255:212|247:214|247:214|188:202,1,89.9999972534181,2|8,0:0|0:0,0:0:0:0:
70,90,56614,6,0,B|175:61|175:61|219:72|229:118,1,179.999994506836,6|2,0:0|0:0,0:0:0:0:
135,252,57098,1,8,0:0:0:0:
296,221,57260,2,0,P|342:219|393:240,1,89.9999972534181,6|0,0:0|0:0,0:0:0:0:
227,303,57582,1,2,0:0:0:0:
240,122,57744,2,0,P|279:99|342:93,1,89.9999972534181,8|2,0:0|0:0,0:0:0:0:
492,111,58066,5,2,0:0:0:0:
377,9,58227,1,2,0:0:0:0:
393,207,58389,2,0,P|379:284|369:353,1,134.999995880127,8|0,0:0|0:0,0:0:0:0:
370,340,58711,1,2,0:0:0:0:
204,268,58873,2,0,P|254:252|295:261,1,89.9999972534181,2|8,0:0|0:0,0:0:0:0:
122,380,59195,6,0,B|2:355|2:355|33:342|58:328,1,179.999994506836,6|2,0:0|0:0,0:0:0:0:
170,191,59679,1,8,0:0:0:0:
263,339,59840,1,2,0:0:0:0:
263,339,59921,1,8,0:0:0:0:
263,339,60002,2,0,P|310:331|361:324,1,89.9999972534181,2|2,0:0|0:0,0:0:0:0:
251,154,60324,1,8,0:0:0:0:
185,281,60485,1,2,0:0:0:0:
356,222,60647,6,0,P|438:242|513:175,1,179.999994506836,2|8,0:0|0:0,0:0:0:0:
386,41,61131,2,0,P|374:103|369:141,1,89.9999972534181,0|2,0:0|0:0,0:0:0:0:
273,247,61453,1,2,0:0:0:0:
243,69,61614,1,8,0:0:0:0:
137,215,61776,6,0,B|35:240|35:240|1:219|11:164,1,179.999994506836,6|2,0:0|0:0,0:0:0:0:
159,110,62260,1,8,0:0:0:0:
197,303,62421,1,2,0:0:0:0:
197,303,62502,1,8,0:0:0:0:
197,303,62582,5,8,0:0:0:0:
287,146,62744,1,8,0:0:0:0:
137,215,62905,1,8,0:0:0:0:
292,251,63066,1,8,0:0:0:0:
159,110,63227,6,0,B|114:115|79:128|79:128|54:118|32:96,1,134.999995880127,6|0,0:0|0:0,0:0:0:0:
67,23,63550,2,0,P|117:13|171:23,1,89.9999972534181,8|2,0:0|0:0,0:0:0:0:
283,60,63873,1,2,0:0:0:0:
211,191,64034,2,0,P|218:239|224:292,1,89.9999972534181,2|8,0:0|0:0,0:0:0:0:
364,358,64356,6,0,B|410:382|462:374|490:335|490:335|461:283,1,179.999994506836,6|2,0:0|0:0,0:0:0:0:
379,143,64840,1,8,0:0:0:0:
319,278,65002,1,2,0:0:0:0:
319,278,65082,1,2,0:0:0:0:
319,278,65163,1,10,0:0:0:0:
230,113,65324,6,0,B|178:105|188:132|134:122,1,93.75,10|0,0:0|0:0,0:0:0:0:
120,118,65808,6,0,B|143:197|143:197|118:226|93:234,1,134.999995880127,6|0,0:0|0:0,0:0:0:0:
25,201,66131,2,0,P|14:154|36:109,1,89.9999972534181,8|0,0:0|0:0,0:0:0:0:
145,32,66453,1,2,0:0:0:0:
236,207,66614,2,0,P|225:259|218:305,1,89.9999972534181,2|8,0:0|0:0,0:0:0:0:
378,135,66937,6,0,B|359:78|345:14|345:14|370:26|402:39,1,179.999994506836,6|2,0:0|0:0,0:0:0:0:
481,205,67421,2,0,P|442:222|393:219,1,89.9999972534181,8|0,0:0|0:0,0:0:0:0:
512,120,67744,1,2,0:0:0:0:
491,298,67905,1,2,0:0:0:0:
378,135,68066,1,8,0:0:0:0:
326,330,68227,1,2,0:0:0:0:
326,330,68308,1,8,0:0:0:0:
326,330,68389,6,0,P|276:335|212:303,1,89.9999972534181,2|2,0:0|0:0,0:0:0:0:
92,234,68711,1,8,0:0:0:0:
205,130,68873,2,0,P|196:187|190:226,1,89.9999972534181,0|2,0:0|0:0,0:0:0:0:
326,330,69195,2,0,P|319:285|312:241,1,89.9999972534181,2|8,0:0|0:0,0:0:0:0:
375,101,69518,6,0,B|416:134|476:135|508:96|508:96|463:68,1,179.999994506836,6|2,0:0|0:0,0:0:0:0:
341,13,70002,1,8,0:0:0:0:
415,205,70163,2,0,B|408:243|408:243|413:257|413:257|406:302,1,89.9999972534181,6|0,0:0|0:0,0:0:0:0:
270,378,70485,1,2,0:0:0:0:
321,204,70647,1,8,0:0:0:0:
393,378,70808,1,2,0:0:0:0:
206,312,70969,6,0,B|177:323|177:323|108:312,1,89.9999972534181,2|0,0:0|0:0,0:0:0:0:
8,170,71292,1,8,0:0:0:0:
163,214,71453,1,2,0:0:0:0:
163,214,71534,1,8,0:0:0:0:
163,214,71614,1,2,0:0:0:0:
3,283,71776,2,0,P|11:332|17:378,1,89.9999972534181,2|8,0:0|0:0,0:0:0:0:
225,321,72098,6,0,B|173:315|125:299|125:299|83:328|105:369,1,179.999994506836,6|2,0:0|0:0,0:0:0:0:
313,363,72582,2,0,P|322:325|306:267,1,89.9999972534181,8|0,0:0|0:0,0:0:0:0:
195,161,72905,1,2,0:0:0:0:
225,321,73066,1,2,0:0:0:0:
344,186,73227,2,0,P|381:193|434:204,1,89.9999972534181,8|0,0:0|0:0,0:0:0:0:
327,24,73550,6,0,B|272:35|272:35|258:29|258:29|189:40,1,134.999995880127,2|0,0:0|0:0,0:0:0:0:
114,56,73873,2,0,P|104:102|115:146,1,89.9999972534181,8|0,0:0|0:0,0:0:0:0:
216,301,74195,1,2,0:0:0:0:
269,177,74356,1,2,0:0:0:0:
120,244,74518,1,8,0:0:0:0:
316,261,74679,6,0,B|352:248|388:246|388:246|419:266|419:266|451:269|501:255,1,179.999994506836,6|2,0:0|0:0,0:0:0:0:
500,87,75163,2,0,P|466:67|400:66,1,89.9999972534181,8|2,0:0|0:0,0:0:0:0:
274,101,75485,1,8,0:0:0:0:
402,254,75647,2,0,B|420:280|425:321|425:321|394:347,1,97.4999955368044,6|0,0:0|0:0,0:0:0:0:
240,348,75969,6,0,B|200:296|125:308|125:308|156:342,1,165.000005035401,6|2,0:0|0:0,0:0:0:0:
306,280,76453,2,0,P|299:238|291:182,1,82.5000025177003,8|0,0:0|0:0,0:0:0:0:
167,118,76776,2,0,P|160:158|154:199,1,82.5000025177003,8|2,0:0|0:0,0:0:0:0:
102,60,77098,1,8,0:0:0:0:
257,116,77260,1,2,0:0:0:0:
64,162,77421,6,0,P|55:199|71:251,1,82.5000025177003,8|2,0:0|0:0,0:0:0:0:
160,377,77744,1,8,0:0:0:0:
238,235,77905,1,2,0:0:0:0:
238,235,77985,1,2,0:0:0:0:
238,235,78066,1,8,0:0:0:0:
77,262,78227,1,2,0:0:0:0:
244,334,78389,2,0,P|295:321|335:317,1,82.5000025177003,8|2,0:0|0:0,0:0:0:0:
479,223,78711,5,8,0:0:0:0:
314,176,78873,1,2,0:0:0:0:
421,323,79034,1,8,0:0:0:0:
418,145,79195,1,2,0:0:0:0:
418,145,79276,1,2,0:0:0:0:
418,145,79356,2,0,P|462:127|510:129,1,82.5000025177003,8|2,0:0|0:0,0:0:0:0:
367,250,79679,1,8,0:0:0:0:
336,88,79840,1,2,0:0:0:0:
220,206,80002,6,0,P|176:213|116:188,1,82.5000025177003,8|2,0:0|0:0,0:0:0:0:
3,110,80324,1,8,0:0:0:0:
175,116,80485,1,2,0:0:0:0:
175,116,80566,1,2,0:0:0:0:
175,116,80647,1,8,0:0:0:0:
41,208,80808,1,2,0:0:0:0:
41,208,80889,1,2,0:0:0:0:
41,208,80969,2,0,P|50:249|58:298,1,82.5000025177003,8|2,0:0|0:0,0:0:0:0:
109,354,81211,1,2,0:0:0:0:
109,354,81292,6,0,P|153:361|213:336,1,82.5000025177003,8|2,0:0|0:0,0:0:0:0:
256,290,81534,1,2,0:0:0:0:
256,290,81614,2,0,P|300:283|360:308,1,82.5000025177003,8|2,0:0|0:0,0:0:0:0:
425,327,81856,1,2,0:0:0:0:
425,327,81937,2,0,P|435:262|439:237,1,82.5000025177003,8|2,0:0|0:0,0:0:0:0:
504,183,82179,1,2,0:0:0:0:
504,183,82260,2,0,L|491:128,1,41.2500012588501,12|0,0:0|0:0,0:0:0:0:
416,92,82421,1,2,0:0:0:0:
416,92,82502,1,2,0:0:0:0:
416,92,82582,6,0,P|370:109|317:100,1,82.5000025177003,12|2,0:0|0:0,0:0:0:0:
239,91,82824,1,2,0:0:0:0:
239,91,82905,2,0,P|256:137|247:190,1,82.5000025177003,12|2,0:0|0:0,0:0:0:0:
163,215,83147,1,2,0:0:0:0:
163,215,83227,2,0,B|125:208|125:208|118:211|118:211|74:204,1,82.5000025177003,12|2,0:0|0:0,0:0:0:0:
140,298,83469,1,2,0:0:0:0:
140,298,83549,2,0,B|178:291|178:291|185:294|185:294|229:287,1,82.5000025177003,12|6,0:0|0:0,0:0:0:0:
402,272,83873,5,8,0:0:0:0:
402,272,83953,1,8,0:0:0:0:
402,272,84034,2,0,L|391:326,1,44.999998626709,2|2,0:0|0:0,0:0:0:0:
491,245,84196,1,8,0:0:0:0:
491,245,84276,1,8,0:0:0:0:
491,245,84357,2,0,L|480:191,1,44.999998626709,2|2,0:0|0:0,0:0:0:0:
385,136,84518,5,8,0:0:0:0:
385,136,84598,1,8,0:0:0:0:
385,136,84679,2,0,P|367:140|331:139,1,44.999998626709,2|2,0:0|0:0,0:0:0:0:
283,204,84840,1,8,0:0:0:0:
283,204,84920,1,8,0:0:0:0:
283,204,85001,2,0,P|270:190|253:158,1,44.999998626709,2|2,0:0|0:0,0:0:0:0:
160,140,85163,5,8,0:0:0:0:
160,140,85244,1,8,0:0:0:0:
160,140,85324,2,0,P|152:173|146:204,1,44.999998626709,2|2,0:0|0:0,0:0:0:0:
82,269,85485,1,8,0:0:0:0:
82,269,85566,1,8,0:0:0:0:
82,269,85646,2,0,P|74:235|68:205,1,44.999998626709,2|2,0:0|0:0,0:0:0:0:
47,117,85808,5,10,0:0:0:0:
207,246,85969,1,10,0:0:0:0:
178,39,86131,1,10,0:0:0:0:
72,225,86292,1,14,0:0:0:0:
