osu file format v14

[General]
AudioFilename: fluff.mp3
AudioLeadIn: 0
PreviewTime: 52824
Countdown: 0
SampleSet: Soft
StackLeniency: 0.7
Mode: 0
LetterboxInBreaks: 0
WidescreenStoryboard: 1

[Editor]
Bookmarks: 8680
DistanceSpacing: 0.5
BeatDivisor: 4
GridSize: 32
TimelineZoom: 1.8

[Metadata]
Title:Light My Fire (TV Size)
TitleUnicode:Light My Fire (TV Size)
Artist:KOTOKO
ArtistUnicode:KOTOKO
Creator:Gaia
Version:Insane
Source:灼眼のシャナⅢ-FINAL-
Tags:p_a_n pan giralda okoratu okorin akitoshi -laura- corinn -yuzuriha -yuzuriha-inori- Shakugan no Shana III opening anime japanese
BeatmapID:2786387
BeatmapSetID:398134

[Difficulty]
HPDrainRate:6
CircleSize:4
OverallDifficulty:8
ApproachRate:9
SliderMultiplier:1.6
SliderTickRate:1

[Events]
//Background and Video events
Video,-106,"fire.mp4"
0,0,"shanaFire.jpg",0,0
//Break Periods
//Storyboard Layer 0 (Background)
//Storyboard Layer 1 (Fail)
//Storyboard Layer 2 (Pass)
//Storyboard Layer 3 (Foreground)
//Storyboard Layer 4 (Overlay)
//Storyboard Sound Samples

[TimingPoints]
559,322.58064516129,4,2,1,5,1,0
859,560.747663551402,4,2,1,5,1,0
1139,517.241379310345,4,2,1,5,1,0
1397,480,4,2,1,5,1,0
1637,444.444444444444,4,2,1,5,1,0
1859,416.666666666667,4,2,1,5,1,0
2067,397.350993377483,4,2,1,5,1,0
2265,389.61038961039,4,2,1,5,1,0
2459,387.096774193548,4,2,1,5,1,0
2652,384.615384615385,4,2,1,5,1,0
2849,382.165605095541,4,2,1,5,1,0
3040,307.692307692308,4,2,1,5,1,0
3193,260.869565217391,4,2,1,5,1,0
3323,244.897959183673,4,2,1,5,1,0
3445,243.90243902439,4,2,1,5,1,0
3566,242.914979757085,4,2,1,5,1,0
3687,241.935483870968,4,2,1,5,1,0
3812,240,4,2,1,5,1,0
3932,238.095238095238,4,2,1,5,1,0
4052,236.220472440945,4,2,1,5,1,0
4171,233.463035019455,4,2,1,5,1,0
4287,230.769230769231,4,2,1,5,1,0
4402,228.571428571429,4,2,1,5,1,0
4516,226.415094339623,4,2,2,5,1,0
4629,224.299065420561,4,2,2,5,1,0
4741,222.222222222222,4,2,2,5,1,0
4852,220.183486238532,4,2,2,5,1,0
4962,218.181818181818,4,2,2,5,1,0
5071,217.785843920145,4,2,2,5,1,0
5179,217.391304347826,4,2,2,5,1,0
5287,216.998191681736,4,2,2,5,1,0
5395,216.606498194946,4,2,2,5,1,0
5503,500,4,2,2,5,1,0
6496,322.58064516129,4,2,2,60,1,0
10366,-100,4,2,2,70,0,0
11615,322.58064516129,4,2,2,50,1,0
16131,-100,4,2,2,60,0,0
16776,-125,4,2,2,40,0,0
26292,-125,4,2,2,50,0,0
26614,-90.9090909090909,4,2,2,50,0,0
27098,-100,4,2,2,60,0,0
37421,-111.111111111111,4,2,2,40,0,0
50163,-111.111111111111,4,2,2,60,0,0
52421,-500,4,2,2,50,0,0
52824,-500,4,2,2,5,0,0
52905,-100,4,2,2,70,0,0
65324,-333.333333333333,4,2,2,70,0,0
65405,-333.333333333333,4,2,2,20,0,0
65727,-333.333333333333,4,2,2,5,0,0
65808,-90.9090909090909,4,2,2,70,0,0
74679,-125,4,2,2,70,0,0
75163,-76.9230769230769,4,2,2,70,0,0
75969,-100,4,2,2,70,0,0
83550,-76.9230769230769,4,2,2,70,0,0
83873,-62.5,4,2,2,70,0,0
85163,-100,4,2,2,70,0,0

[Colours]
Combo1 : 236,19,19
Combo2 : 206,206,206
Combo3 : 255,121,121
Combo4 : 255,255,128
Combo5 : 255,149,43

[HitObjects]
256,192,559,12,0,5503,0:0:0:0:
156,199,6496,5,2,3:2:0:0:
105,109,6657,1,2,0:0:0:0:
50,269,6818,1,2,0:3:0:0:
233,258,6979,1,2,0:0:0:0:
244,241,7060,1,2,0:3:0:0:
251,222,7140,1,2,0:0:0:0:
254,203,7220,1,2,0:3:0:0:
252,183,7301,1,2,0:0:0:0:
346,112,7463,2,0,L|445:97,1,80,2|2,0:3|0:0,0:0:0:0:
429,93,7705,5,2,0:0:0:0:
433,87,7786,1,2,0:0:0:0:
455,211,7947,1,2,0:0:0:0:
461,207,8028,1,2,0:0:0:0:
467,204,8108,1,2,0:3:0:0:
371,313,8270,1,2,0:0:0:0:
380,312,8350,1,2,0:0:0:0:
391,312,8431,1,2,0:3:0:0:
285,214,8592,1,2,0:0:0:0:
210,326,8754,2,0,P|170:339|117:343,1,80,2|2,0:3|0:0,0:0:0:0:
125,336,8995,5,2,0:0:0:0:
119,326,9076,1,4,1:2:0:0:
55,172,9237,1,4,0:0:0:0:
176,222,9399,1,2,0:3:0:0:
176,222,9479,1,2,0:3:0:0:
176,222,9560,1,0,1:1:0:0:
18,308,9721,1,2,0:3:0:0:
176,222,9883,2,0,L|261:206,1,80,4|2,0:2|0:0,0:0:0:0:
380,97,10205,1,2,0:0:0:0:
300,33,10366,5,0,1:1:0:0:
357,293,10528,1,0,1:1:0:0:
347,328,11012,5,0,1:0:0:0:
390,86,11173,1,0,1:0:0:0:
390,86,11615,5,4,3:2:0:0:
325,160,11776,1,2,3:2:0:0:
243,113,11937,2,0,P|201:108|163:97,1,80,2|0,3:2|0:0,0:0:0:0:
163,90,12179,1,0,3:2:0:0:
161,78,12260,1,0,3:0:0:0:
63,31,12421,2,0,P|74:97|89:208,1,160,2|0,0:0|0:0,0:0:0:0:
27,361,12905,6,0,P|16:321|36:267,1,80,2|2,3:2|0:0,0:0:0:0:
209,188,13227,2,0,P|220:228|200:282,1,80,2|0,3:2|0:0,0:0:0:0:
207,269,13469,1,0,3:0:0:0:
199,270,13550,1,2,3:2:0:0:
134,350,13711,2,0,P|198:313|298:327,1,160,2|0,0:0|0:0,0:0:0:0:
489,346,14195,5,2,3:2:0:0:
383,304,14356,1,2,0:0:0:0:
474,213,14518,1,2,3:2:0:0:
401,338,14679,1,0,0:0:0:0:
401,338,14760,1,0,3:2:0:0:
401,338,14840,1,0,3:0:0:0:
325,184,15002,2,0,P|332:107|336:-3,1,160,2|0,0:0|0:0,0:0:0:0:
328,30,15405,5,0,3:0:0:0:
321,34,15485,2,0,P|312:86|318:142,1,80,2|0,3:2|0:0,0:0:0:0:
124,351,15808,2,0,P|133:299|127:243,1,80,0|0,3:2|0:0,0:0:0:0:
53,174,16131,5,0,1:2:0:0:
98,154,16211,1,0,1:2:0:0:
148,153,16292,1,0,1:2:0:0:
194,172,16372,1,0,1:2:0:0:
229,207,16453,1,0,1:2:0:0:
274,226,16534,1,0,1:2:0:0:
324,227,16615,1,0,1:2:0:0:
370,208,16695,1,0,1:2:0:0:
405,173,16776,6,0,P|395:144|390:93,1,64,6|2,0:0|0:0,0:0:0:0:
174,281,17260,1,2,0:0:0:0:
252,370,17421,2,0,P|261:340|260:301,1,64,2|0,0:0|0:0,0:0:0:0:
362,296,17744,2,0,P|397:301|431:310,1,64,2|0,0:0|0:0,0:0:0:0:
319,153,18066,5,2,0:0:0:0:
229,207,18227,2,0,P|170:194|87:181,1,128,2|2,0:0|0:0,0:0:0:0:
78,87,18711,1,0,0:0:0:0:
30,254,18873,2,0,P|14:219|17:184,1,64,2|0,0:0|0:0,0:0:0:0:
214,49,19195,1,2,0:0:0:0:
144,0,19356,6,0,P|173:59|169:147,1,128,2|0,0:0|0:0,0:0:0:0:
104,184,19840,1,2,0:0:0:0:
281,337,20002,1,2,0:0:0:0:
239,262,20163,2,0,P|212:252|167:246,1,64,2|0,0:0|0:0,0:0:0:0:
289,347,20485,1,0,0:0:0:0:
325,156,20647,5,2,0:0:0:0:
381,217,20808,2,0,P|412:211|442:201,1,64,2|0,0:0|0:0,0:0:0:0:
443,22,21131,1,2,0:0:0:0:
443,22,21292,2,0,L|426:102,1,64,2|2,0:0|0:0,0:0:0:0:
248,277,21614,2,0,L|261:214,1,64,2|0,0:0|0:0,0:0:0:0:
325,155,21937,6,0,B|217:157|257:215|141:203,1,192,2|0,0:0|0:0,0:0:0:0:
96,59,22582,1,2,0:0:0:0:
0,157,22744,2,0,P|40:153|86:142,1,64,2|0,0:0|0:0,0:0:0:0:
307,239,23066,1,2,0:0:0:0:
257,75,23227,6,0,P|223:129|227:213,1,128,2|0,0:0|0:0,0:0:0:0:
396,359,23711,2,0,P|398:317|382:282,1,64,2|2,0:0|0:0,0:0:0:0:
290,267,24034,2,0,P|228:276|156:291,1,128,2|2,0:0|0:0,0:0:0:0:
363,158,24518,6,0,P|393:153|433:142,1,64,2|0,0:0|0:0,0:0:0:0:
473,63,24840,1,2,0:0:0:0:
473,63,25002,1,2,0:0:0:0:
307,239,25163,2,0,P|266:189|278:106,1,128,2|0,0:0|0:0,0:0:0:0:
132,36,25647,5,2,0:0:0:0:
44,145,25808,2,0,L|114:129,1,64,2|0,0:0|0:0,0:0:0:0:
194,189,26131,2,0,P|203:220|210:269,1,64,0|0,0:0|3:2,0:0:0:0:
203,256,26373,1,0,3:0:0:0:
197,262,26453,1,0,1:2:0:0:
123,353,26614,6,0,P|185:306|290:326,1,176.000005371094,0|0,3:2|3:2,0:0:0:0:
442,349,27098,6,0,L|357:360,1,80,4|2,3:2|0:0,0:0:0:0:
194,189,27421,1,0,1:0:0:0:
282,49,27582,1,2,0:0:0:0:
282,49,27663,1,0,3:0:0:0:
282,49,27744,2,0,P|295:84|290:129,1,80,2|2,3:2|0:0,0:0:0:0:
23,238,28066,2,0,P|46:209|88:191,1,80,2|2,1:2|0:0,0:0:0:0:
305,292,28389,5,0,3:0:0:0:
154,259,28550,1,2,0:0:0:0:
211,99,28711,1,0,1:0:0:0:
330,209,28873,2,0,P|343:284|346:377,1,160,2|2,0:0|0:0,0:0:0:0:
133,149,29356,2,0,P|126:109|124:60,1,80,0|2,1:0|0:0,0:0:0:0:
123,69,29679,5,2,3:2:0:0:
164,268,29840,2,0,P|125:273|82:280,1,80,2|0,0:0|1:0,0:0:0:0:
17,202,30163,1,2,0:0:0:0:
17,202,30244,1,0,3:0:0:0:
17,202,30324,1,0,3:0:0:0:
203,371,30485,1,2,0:0:0:0:
305,292,30647,2,0,P|343:286|387:280,1,80,0|2,1:0|3:2,0:0:0:0:
388,271,30889,5,0,3:0:0:0:
393,262,30969,2,0,P|414:310|400:365,1,80,0|2,3:0|0:0,0:0:0:0:
281,202,31292,1,0,1:0:0:0:
335,102,31453,1,2,0:0:0:0:
335,102,31534,1,0,3:2:0:0:
335,102,31614,1,0,3:0:0:0:
281,202,31776,2,0,P|237:211|193:217,1,80,2|0,0:0|1:0,0:0:0:0:
130,291,32098,1,2,0:0:0:0:
335,102,32260,6,0,P|385:166|374:270,1,160,0|0,3:2|1:0,0:0:0:0:
190,364,32744,1,2,0:0:0:0:
267,286,32905,1,0,3:0:0:0:
183,205,33066,1,2,0:0:0:0:
281,294,33227,2,0,P|289:328|297:383,1,80,0|2,1:0|0:0,0:0:0:0:
98,259,33550,6,0,P|89:225|82:170,1,80,0|2,3:0|0:0,0:0:0:0:
4,45,33873,2,0,P|65:34|151:118,1,160,0|0,1:0|3:0,0:0:0:0:
336,203,34356,1,2,0:0:0:0:
254,71,34518,2,0,P|242:115|246:169,1,80,0|2,1:0|0:0,0:0:0:0:
293,306,34840,6,0,B|213:304|228:348|106:341,1,160,2|0,3:2|1:0,0:0:0:0:
88,257,35324,1,2,0:0:0:0:
374,355,35485,2,0,P|420:360|470:380,1,80,0|2,3:2|0:0,0:0:0:0:
459,184,35808,2,0,P|447:224|438:289,1,80,0|2,1:0|0:0,0:0:0:0:
321,106,36131,5,0,3:0:0:0:
321,106,36211,1,0,1:0:0:0:
321,106,36292,2,0,P|335:70|336:19,1,80,2|0,1:2|3:0,0:0:0:0:
179,169,36614,2,0,L|125:184,1,40,0|0,1:0|1:0,0:0:0:0:
58,164,36776,2,0,L|73:258,1,80,0|0,1:0|1:0,0:0:0:0:
194,329,37098,1,0,3:0:0:0:
304,367,37260,1,0,1:0:0:0:
194,329,37421,6,0,P|121:338|26:358,1,143.999995605469,6|8,3:2|0:0,0:0:0:0:
51,351,38066,2,0,P|28:291|22:210,1,143.999995605469,2|8,0:0|0:0,0:0:0:0:
115,16,38550,6,0,P|138:76|144:157,1,143.999995605469,2|2,0:0|0:0,0:0:0:0:
144,154,39034,1,8,0:0:0:0:
321,75,39195,1,2,0:0:0:0:
321,75,39276,1,2,0:0:0:0:
321,75,39356,2,0,P|283:71|232:60,1,71.9999978027344,2|0,0:0|0:0,0:0:0:0:
129,267,39679,2,0,P|161:251|214:247,1,71.9999978027344,8|0,0:0|0:0,0:0:0:0:
268,332,40002,6,0,P|304:278|284:175,1,143.999995605469,2|8,0:0|0:0,0:0:0:0:
171,48,40485,1,2,0:0:0:0:
81,72,40647,2,0,B|156:76|136:113|251:107,1,143.999995605469,2|8,0:0|0:0,0:0:0:0:
407,79,41131,6,0,P|356:90|325:110,1,71.9999978027344,2|0,0:0|0:0,0:0:0:0:
196,245,41453,1,2,0:0:0:0:
59,170,41614,2,0,L|146:182,1,71.9999978027344,8|0,0:0|0:0,0:0:0:0:
312,281,41937,1,2,0:0:0:0:
405,257,42098,1,2,0:0:0:0:
302,370,42260,2,0,P|290:342|289:291,1,71.9999978027344,8|0,0:0|0:0,0:0:0:0:
237,98,42582,6,0,P|235:133|222:167,1,71.9999978027344,2|0,0:0|0:0,0:0:0:0:
0,359,42905,1,8,0:0:0:0:
72,259,43066,1,2,0:0:0:0:
144,321,43227,2,0,P|214:308|309:299,1,143.999995605469,2|8,0:0|0:0,0:0:0:0:
381,242,43711,6,0,L|394:326,1,71.9999978027344,2|0,0:0|0:0,0:0:0:0:
450,104,44034,1,2,0:0:0:0:
369,170,44195,2,0,L|382:254,1,71.9999978027344,8|2,0:0|0:0,0:0:0:0:
306,85,44518,2,0,P|259:54|152:61,1,143.999995605469,2|8,0:0|0:0,0:0:0:0:
15,246,45002,1,0,0:0:0:0:
78,173,45163,6,0,L|166:155,1,71.9999978027344,2|0,0:0|0:0,0:0:0:0:
200,247,45485,2,0,P|210:286|219:343,1,71.9999978027344,8|0,0:0|0:0,0:0:0:0:
421,306,45808,2,0,P|348:310|314:238,1,143.999995605469,2|8,0:0|0:0,0:0:0:0:
270,27,46292,6,0,P|262:97|259:204,1,143.999995605469,2|0,0:0|0:0,0:0:0:0:
111,348,46776,1,8,0:0:0:0:
190,266,46937,1,2,0:0:0:0:
102,172,47098,1,2,0:0:0:0:
290,258,47260,2,0,P|358:245|435:239,1,143.999995605469,2|0,0:0|0:0,0:0:0:0:
432,239,47744,5,2,3:2:0:0:
256,192,47824,12,0,50002,0:0:0:0:
208,141,50163,5,0,3:0:0:0:
208,141,50244,1,0,3:0:0:0:
208,141,50324,1,0,1:0:0:0:
288,228,50485,1,0,1:0:0:0:
429,120,50647,5,0,3:0:0:0:
429,120,50727,1,0,3:0:0:0:
429,120,50808,1,0,1:0:0:0:
285,207,50969,1,0,1:0:0:0:
380,332,51131,5,0,3:0:0:0:
380,332,51211,1,0,3:0:0:0:
380,332,51292,1,0,1:0:0:0:
282,186,51453,1,0,1:0:0:0:
143,321,51614,5,0,3:0:0:0:
143,321,51695,1,0,3:0:0:0:
143,321,51776,1,0,1:0:0:0:
279,165,51937,1,0,1:0:0:0:
490,260,52098,5,0,3:2:0:0:
490,260,52179,1,0,3:2:0:0:
490,260,52260,1,0,1:0:0:0:
276,144,52421,2,0,L|270:102,1,40,0|0,1:0|0:0,0:0:0:0:
265,25,52905,6,0,P|247:77|250:213,1,160,6|0,3:2|1:0,0:0:0:0:
364,314,53389,2,0,L|371:259,1,40,2|0,0:0|0:0,0:0:0:0:
425,194,53550,1,0,3:0:0:0:
244,305,53711,1,2,3:2:0:0:
445,377,53873,1,0,1:0:0:0:
512,171,54034,6,0,P|486:133|355:129,1,160,6|2,3:2|3:2,0:0:0:0:
107,247,54518,2,0,B|161:238|161:238|203:209,1,80,0|2,1:0|0:0,0:0:0:0:
185,213,54760,1,2,0:0:0:0:
190,202,54840,2,0,P|203:253|204:306,1,80,0|2,3:0|3:2,0:0:0:0:
361,328,55163,1,0,1:0:0:0:
457,249,55324,1,2,0:0:0:0:
347,345,55485,6,0,P|309:292|321:182,1,160,0|0,3:2|1:0,0:0:0:0:
403,20,55969,1,2,0:0:0:0:
409,37,56050,1,0,1:0:0:0:
409,55,56131,1,0,3:0:0:0:
321,111,56292,1,2,3:2:0:0:
166,33,56453,1,0,1:0:0:0:
239,171,56614,6,0,P|307:161|426:141,1,160,6|2,3:2|3:2,0:0:0:0:
185,290,57098,2,0,L|136:282,1,40,0|0,1:0|0:0,0:0:0:0:
85,348,57260,2,0,P|53:315|62:181,1,160,6|2,3:2|3:2,0:0:0:0:
83,53,57744,1,0,1:0:0:0:
193,27,57905,1,2,3:2:0:0:
239,171,58066,6,0,L|251:266,1,80,2|2,3:2|0:0,0:0:0:0:
454,335,58389,2,0,B|367:340|383:376|272:366,1,160,0|0,1:0|3:0,0:0:0:0:
72,303,58873,2,0,P|105:283|159:288,1,80,2|0,3:2|1:0,0:0:0:0:
266,112,59195,6,0,B|224:148|224:148|244:201|250:264,1,160,6|2,3:2|3:2,0:0:0:0:
405,359,59679,1,0,1:0:0:0:
500,235,59840,1,2,0:0:0:0:
483,232,59921,1,0,1:0:0:0:
467,228,60002,1,0,3:0:0:0:
365,133,60163,1,2,3:2:0:0:
273,342,60324,1,0,1:0:0:0:
186,245,60485,1,2,3:2:0:0:
273,342,60647,6,0,P|351:328|446:317,1,160,2|0,3:2|1:0,0:0:0:0:
365,133,61131,2,0,B|384:164|384:164|377:228,1,80,2|0,0:0|3:0,0:0:0:0:
130,371,61453,2,0,B|111:340|111:340|118:276,1,80,2|0,3:2|1:0,0:0:0:0:
93,55,61776,6,0,P|192:94|203:164,1,160,6|2,3:2|3:2,0:0:0:0:
118,192,62260,2,0,L|29:181,1,80,0|2,1:2|1:2,0:0:0:0:
35,176,62502,1,0,1:0:0:0:
32,166,62582,1,0,1:0:0:0:
121,317,62744,1,0,1:0:0:0:
235,139,62905,1,0,1:0:0:0:
359,341,63066,1,0,1:0:0:0:
435,289,63227,6,0,P|366:297|256:320,1,160,6|0,3:2|1:0,0:0:0:0:
38,182,63711,2,0,L|91:173,1,40,2|0,0:0|0:0,0:0:0:0:
168,121,63873,1,0,3:2:0:0:
103,287,64034,1,2,3:2:0:0:
1,89,64195,1,0,1:0:0:0:
224,47,64356,6,0,P|209:111|202:229,1,160,6|2,3:2|3:2,0:0:0:0:
377,375,64840,2,0,P|384:337|381:285,1,80,0|2,1:0|3:2,0:0:0:0:
374,286,65082,1,2,3:2:0:0:
361,280,65163,1,0,1:1:0:0:
248,315,65324,6,0,L|184:330,1,59.9999981689454,0|0,1:1|0:0,0:0:0:0:
103,287,65808,6,0,B|201:284|163:353|307:328,1,176.000005371094,6|0,3:2|1:0,0:0:0:0:
427,99,66292,2,0,L|411:170,1,44.0000013427735,2|0,0:0|0:0,0:0:0:0:
472,224,66453,1,0,3:2:0:0:
320,108,66614,1,2,3:2:0:0:
484,9,66776,1,0,1:0:0:0:
239,13,66937,6,0,P|194:75|230:198,1,176.000005371094,6|2,3:2|3:2,0:0:0:0:
376,357,67421,2,0,B|390:325|390:325|376:267,1,88.000002685547,0|2,1:0|0:0,0:0:0:0:
289,134,67744,1,0,3:0:0:0:
218,302,67905,1,2,3:2:0:0:
72,157,68066,1,0,1:0:0:0:
197,215,68227,2,0,L|253:224,1,44.0000013427735,2|0,0:0|1:1,0:0:0:0:
327,235,68389,5,2,3:2:0:0:
214,329,68550,1,2,3:2:0:0:
206,82,68711,1,0,1:0:0:0:
389,177,68873,2,0,P|406:210|400:275,1,88.000002685547,2|0,0:0|3:0,0:0:0:0:
137,253,69195,2,0,L|231:231,1,88.000002685547,2|0,3:2|1:0,0:0:0:0:
500,100,69518,6,0,P|452:56|310:72,1,176.000005371094,6|2,3:2|3:2,0:0:0:0:
240,221,70002,1,0,1:0:0:0:
14,104,70163,2,0,L|215:120,1,176.000005371094,6|2,3:2|3:2,0:0:0:0:
313,288,70647,1,0,1:2:0:0:
426,260,70808,1,2,3:2:0:0:
298,375,70969,6,0,B|261:333|261:333|281:194,1,176.000005371094,2|0,3:2|1:0,0:0:0:0:
196,17,71453,2,0,L|185:71,1,44.0000013427735,2|0,0:0|1:0,0:0:0:0:
228,140,71614,2,0,P|186:150|126:164,1,88.000002685547,0|2,3:2|3:2,0:0:0:0:
293,58,71937,1,0,1:0:0:0:
354,224,72098,6,0,P|306:183|179:185,1,176.000005371094,6|2,3:2|3:2,0:0:0:0:
28,342,72582,2,0,B|65:336|65:336|74:328|74:328|141:316,1,88.000002685547,0|2,1:0|0:0,0:0:0:0:
308,302,72905,1,0,3:0:0:0:
412,354,73066,1,2,3:2:0:0:
412,354,73147,1,2,0:0:0:0:
412,354,73227,2,0,P|437:324|436:258,1,88.000002685547,0|2,1:1|0:0,0:0:0:0:
376,24,73550,6,0,B|321:49|321:49|337:107|340:170,1,176.000005371094,2|0,3:2|1:0,0:0:0:0:
143,236,74034,1,2,0:0:0:0:
0,124,74195,2,0,P|40:135|113:148,1,88.000002685547,0|2,3:2|3:2,0:0:0:0:
246,342,74518,1,0,1:0:0:0:
401,235,74679,6,0,P|340:252|265:267,1,128,6|0,3:2|3:0,0:0:0:0:
49,128,75163,2,0,P|91:94|219:109,1,155.999992858887,0|0,1:0|0:0,0:0:0:0:
199,77,75485,1,0,1:0:0:0:
352,286,75647,1,4,1:2:0:0:
352,286,75969,6,0,P|357:201|371:100,1,160,6|0,3:2|3:2,0:0:0:0:
366,126,76453,2,0,L|287:138,1,80,0|0,1:0|0:0,0:0:0:0:
54,279,76776,2,0,L|133:267,1,80,0|0,1:0|0:0,0:0:0:0:
449,288,77098,1,0,1:0:0:0:
332,374,77260,1,0,3:0:0:0:
258,312,77421,6,0,L|240:216,1,80,0|0,1:0|3:0,0:0:0:0:
392,27,77744,2,0,L|406:105,1,80,0|0,1:0|3:0,0:0:0:0:
415,108,77985,1,0,3:0:0:0:
424,110,78066,1,0,1:0:0:0:
313,189,78227,1,0,3:0:0:0:
437,237,78389,1,0,1:0:0:0:
276,88,78550,1,0,3:0:0:0:
165,249,78711,6,0,P|206:237|252:233,1,80,0|0,1:0|3:0,0:0:0:0:
484,354,79034,2,0,P|442:365|397:370,1,80,0|0,1:0|3:0,0:0:0:0:
399,365,79276,1,0,3:0:0:0:
394,361,79356,2,0,L|376:282,1,80,0|0,1:0|3:0,0:0:0:0:
203,125,79679,2,0,L|220:203,1,80,0|0,1:0|3:0,0:0:0:0:
77,349,80002,5,0,1:0:0:0:
124,249,80163,1,0,3:0:0:0:
260,329,80324,1,0,1:0:0:0:
135,315,80485,1,0,3:0:0:0:
135,315,80566,1,0,3:0:0:0:
135,315,80647,1,0,1:0:0:0:
305,170,80808,5,0,3:0:0:0:
305,170,80889,1,0,3:0:0:0:
305,170,80969,1,0,1:0:0:0:
118,52,81131,5,0,3:0:0:0:
118,52,81211,1,0,3:0:0:0:
118,52,81292,2,0,P|115:91|104:144,1,80,0|0,1:0|3:0,0:0:0:0:
27,265,81534,1,0,3:2:0:0:
27,265,81614,2,0,P|62:248|113:231,1,80,0|0,1:0|3:0,0:0:0:0:
257,238,81856,1,0,3:2:0:0:
257,238,81937,2,0,P|224:215|184:179,1,80,0|0,1:0|3:0,0:0:0:0:
192,178,82179,1,0,3:2:0:0:
194,168,82260,1,4,1:1:0:0:
441,17,82421,2,0,L|411:48,1,40,0|0,3:0|3:0,0:0:0:0:
393,123,82582,6,0,L|405:214,1,80,4|0,1:2|3:0,0:0:0:0:
465,255,82824,1,0,3:0:0:0:
478,264,82905,1,4,1:2:0:0:
328,338,83066,5,0,3:0:0:0:
345,333,83147,1,0,3:0:0:0:
361,328,83227,1,4,1:0:0:0:
212,232,83389,5,0,3:0:0:0:
229,237,83470,1,0,3:0:0:0:
245,242,83550,2,0,B|182:257|182:257|160:281|160:281|81:295,1,155.999992858887,4|0,1:0|0:0,0:0:0:0:
29,331,83873,6,0,B|14:304|14:304|21:250,1,64,0|0,1:0|1:0,0:0:0:0:
139,78,84034,1,0,3:0:0:0:
139,78,84114,1,0,3:0:0:0:
139,78,84195,2,0,B|154:105|154:105|147:159,1,64,0|0,1:0|1:0,0:0:0:0:
245,242,84356,5,0,3:0:0:0:
245,242,84437,1,0,3:0:0:0:
245,242,84518,2,0,B|290:232|290:232|319:197,1,64,0|0,1:0|1:0,0:0:0:0:
431,58,84679,1,0,3:0:0:0:
431,58,84760,1,0,3:0:0:0:
431,58,84841,2,0,B|386:68|386:68|357:103,1,64,0|0,1:0|1:0,0:0:0:0:
393,192,85002,5,0,3:0:0:0:
393,192,85082,1,0,3:0:0:0:
393,192,85163,2,0,L|403:246,3,40,0|0|0|0,1:0|1:0|3:0|3:0,0:0:0:0:
332,295,85485,2,0,L|339:334,3,40,0|0|0|0,1:0|1:0|3:0|3:0,0:0:0:0:
257,382,85808,5,0,1:0:0:0:
456,293,85969,1,0,1:0:0:0:
256,135,86131,1,0,1:0:0:0:
316,215,86292,5,4,1:0:0:0:
