osu file format v14

[General]
AudioFilename: fluff.mp3
AudioLeadIn: 0
PreviewTime: 52824
Countdown: 0
SampleSet: Soft
StackLeniency: 0.7
Mode: 0
LetterboxInBreaks: 0
WidescreenStoryboard: 1

[Editor]
DistanceSpacing: 1.2
BeatDivisor: 4
GridSize: 32
TimelineZoom: 1.8

[Metadata]
Title:Light My Fire (TV Size)
TitleUnicode:Light My Fire (TV Size)
Artist:KOTOKO
ArtistUnicode:KOTOKO
Creator:Gaia
Version:Hard
Source:灼眼のシャナⅢ-FINAL-
Tags:p_a_n pan giralda okoratu okorin akitoshi -laura- corinn -yuzuriha -yuzuriha-inori- Shakugan no Shana III opening anime japanese
BeatmapID:1058202
BeatmapSetID:398134

[Difficulty]
HPDrainRate:5
CircleSize:4
OverallDifficulty:6
ApproachRate:8
SliderMultiplier:1.4
SliderTickRate:1

[Events]
//Background and Video events
Video,-106,"fire.mp4"
0,0,"shanaFire.jpg",0,0
//Break Periods
//Storyboard Layer 0 (Background)
//Storyboard Layer 1 (Fail)
//Storyboard Layer 2 (Pass)
//Storyboard Layer 3 (Foreground)
//Storyboard Layer 4 (Overlay)
//Storyboard Sound Samples

[TimingPoints]
559,322.58064516129,4,2,1,5,1,0
859,560.747663551402,4,2,1,5,1,0
1139,517.241379310345,4,2,1,5,1,0
1397,480,4,2,1,5,1,0
1637,444.444444444444,4,2,1,5,1,0
1859,416.666666666667,4,2,1,5,1,0
2067,397.350993377483,4,2,1,5,1,0
2265,389.61038961039,4,2,1,5,1,0
2459,387.096774193548,4,2,1,5,1,0
2652,384.615384615385,4,2,1,5,1,0
2849,382.165605095541,4,2,1,5,1,0
3040,307.692307692308,4,2,1,5,1,0
3193,260.869565217391,4,2,1,5,1,0
3323,244.897959183673,4,2,1,5,1,0
3445,243.90243902439,4,2,1,5,1,0
3566,242.914979757085,4,2,1,5,1,0
3687,241.935483870968,4,2,1,5,1,0
3812,240,4,2,1,5,1,0
3932,238.095238095238,4,2,1,5,1,0
4052,236.220472440945,4,2,1,5,1,0
4171,233.463035019455,4,2,1,5,1,0
4287,230.769230769231,4,2,1,5,1,0
4402,228.571428571429,4,2,1,5,1,0
4516,226.415094339623,4,2,2,5,1,0
4629,224.299065420561,4,2,2,5,1,0
4741,222.222222222222,4,2,2,5,1,0
4852,220.183486238532,4,2,2,5,1,0
4962,218.181818181818,4,2,2,5,1,0
5071,217.785843920145,4,2,2,5,1,0
5179,217.391304347826,4,2,2,5,1,0
5287,216.998191681736,4,2,2,5,1,0
5395,216.606498194946,4,2,2,5,1,0
5503,500,4,2,2,5,1,0
6496,322.58064516129,4,2,2,60,1,0
10366,-100,4,2,2,70,0,0
11615,322.58064516129,4,2,2,50,1,0
16131,-100,4,2,2,60,0,0
16776,-100,4,2,2,40,0,0
26292,-100,4,2,2,50,0,0
27098,-100,4,2,2,60,0,0
37421,-100,4,2,2,40,0,0
50163,-100,4,2,2,60,0,0
52421,-100,4,2,2,50,0,0
52905,-100,4,2,2,70,0,0
65324,-100,4,2,2,70,0,0
84518,-83.3333333333333,4,2,2,70,0,0
85163,-71.4285714285714,4,2,2,70,0,0
86131,-100,4,2,2,70,0,0

[Colours]
Combo1 : 236,19,19
Combo2 : 206,206,206
Combo3 : 255,121,121
Combo4 : 255,255,128
Combo5 : 255,149,43

[HitObjects]
256,192,559,12,0,5503,0:0:0:0:
200,228,6496,6,0,P|157:231|114:240,2,70,0|2|2,3:2|0:0|0:3,0:0:0:0:
245,157,6979,2,0,L|234:104,2,35,2|2|2,0:0|0:3|0:0,0:0:0:0:
311,208,7302,2,0,P|319:246|327:301,1,70,2|2,0:0|0:3,0:0:0:0:
402,336,7625,5,2,0:0:0:0:
402,336,7705,1,2,0:0:0:0:
402,336,7786,2,0,P|435:328|490:315,2,70,2|2|2,0:0|0:0|0:3,0:0:0:0:
314,294,8270,2,0,L|257:306,2,35,2|2|2,0:0|0:0|0:3,0:0:0:0:
345,216,8592,2,0,L|351:124,1,70,2|2,0:0|0:3,0:0:0:0:
323,65,8915,6,0,L|285:75,3,23.3333333333333,2|0|0|4,0:0|0:0|0:0|1:2,0:0:0:0:
384,13,9237,2,0,P|317:43|235:49,1,140,4|0,0:0|1:1,0:0:0:0:
177,9,9721,1,2,0:3:0:0:
146,87,9883,2,0,P|155:122|163:172,2,70,4|2|2,0:2|0:0|0:0,0:0:0:0:
63,71,10366,5,0,1:1:0:0:
63,71,10528,1,0,1:1:0:0:
294,170,11012,5,0,1:0:0:0:
294,170,11173,1,0,1:0:0:0:
84,324,11615,6,0,L|6:334,2,70,4|2|2,3:2|3:2|3:2,0:0:0:0:
159,359,12098,1,0,0:0:0:0:
223,304,12260,1,0,3:0:0:0:
295,345,12421,2,0,P|336:297|321:198,1,140,2|0,0:0|0:0,0:0:0:0:
362,143,12905,6,0,P|393:131|437:125,1,70,2|2,3:2|0:0,0:0:0:0:
295,65,13227,2,0,P|263:76|220:83,1,70,2|0,3:2|0:0,0:0:0:0:
156,37,13550,1,2,3:2:0:0:
78,69,13711,2,0,P|44:129|59:218,1,140,2|0,0:0|0:0,0:0:0:0:
24,278,14195,6,0,P|62:286|101:291,1,70,2|2,3:2|0:0,0:0:0:0:
92,290,14437,1,0,0:0:0:0:
92,290,14518,1,2,3:2:0:0:
171,239,14679,2,0,L|159:192,2,35,0|0|0,0:0|3:2|3:0,0:0:0:0:
243,282,15002,2,0,B|314:286|297:322|386:319,1,140,2|0,0:0|0:0,0:0:0:0:
473,211,15485,6,0,P|436:228|380:229,1,70,2|0,3:2|0:0,0:0:0:0:
351,168,15808,2,0,L|339:93,1,70,0|0,3:2|0:0,0:0:0:0:
279,39,16131,2,0,L|228:31,3,35,0|0|0|0,1:2|1:2|1:2|1:2,0:0:0:0:
174,57,16453,2,0,L|123:49,3,35,0|0|0|0,1:2|1:2|1:2|1:2,0:0:0:0:
63,77,16776,5,6,0:0:0:0:
63,77,17421,2,0,L|77:169,1,70,2|0,0:0|0:0,0:0:0:0:
140,196,17744,2,0,L|154:288,1,70,2|0,0:0|0:0,0:0:0:0:
218,329,18066,5,2,0:0:0:0:
218,329,18227,2,0,P|161:309|69:308,2,140,2|2|2,0:0|0:0|0:0,0:0:0:0:
379,282,19195,1,2,0:0:0:0:
440,338,19356,6,0,P|473:289|464:187,1,140,2|0,0:0|0:0,0:0:0:0:
438,133,19840,1,2,0:0:0:0:
438,133,20002,2,0,P|469:127|506:114,1,70,2|2,0:0|0:0,0:0:0:0:
377,58,20324,2,0,P|344:45|309:39,1,70,0|0,0:0|0:0,0:0:0:0:
231,8,20647,6,0,P|220:88|215:171,1,140,2|0,0:0|0:0,0:0:0:0:
88,309,21292,1,2,0:0:0:0:
88,309,21453,2,0,P|85:273|75:229,1,70,2|2,0:0|0:0,0:0:0:0:
61,157,21776,1,0,0:0:0:0:
61,157,21937,6,0,B|140:150|124:193|222:186,1,140,2|0,0:0|0:0,0:0:0:0:
259,131,22421,2,0,P|293:126|338:117,1,70,0|2,0:0|0:0,0:0:0:0:
403,82,22744,1,2,0:0:0:0:
486,245,23066,1,2,0:0:0:0:
486,245,23227,6,0,P|430:209|332:227,1,140,2|0,0:0|0:0,0:0:0:0:
297,270,23711,2,0,P|290:313|288:362,1,70,2|2,0:0|0:0,0:0:0:0:
214,227,24034,2,0,P|224:152|234:69,1,140,2|2,0:0|0:0,0:0:0:0:
174,26,24518,6,0,P|114:-5|22:18,1,140,2|2,0:0|0:0,0:0:0:0:
19,84,25002,2,0,P|50:100|101:98,1,70,2|2,0:0|0:0,0:0:0:0:
138,166,25324,2,0,P|150:238|157:315,1,140,0|2,0:0|0:0,0:0:0:0:
224,354,25808,5,2,0:0:0:0:
224,354,25969,2,0,L|312:335,1,70,0|0,0:0|0:0,0:0:0:0:
362,291,26292,2,0,L|410:303,2,35,0|0|0,3:2|3:0|1:2,0:0:0:0:
299,235,26614,2,0,P|272:171|279:86,1,140,0|0,3:2|3:2,0:0:0:0:
301,21,27098,6,0,P|339:35|391:40,1,70,4|2,3:2|0:0,0:0:0:0:
451,29,27421,2,0,P|463:64|462:113,1,70,0|2,1:0|0:0,0:0:0:0:
501,220,27744,2,0,P|456:194|357:190,1,140,2|2,3:2|1:2,0:0:0:0:
150,289,28389,5,0,3:0:0:0:
99,356,28550,2,0,P|64:368|14:372,1,70,2|0,0:0|1:0,0:0:0:0:
151,276,28873,2,0,P|217:281|299:302,1,140,2|2,0:0|0:0,0:0:0:0:
360,341,29356,2,0,P|374:307|374:258,1,70,0|2,1:0|0:0,0:0:0:0:
343,196,29679,6,0,L|331:38,1,140,2|0,3:2|1:0,0:0:0:0:
251,32,30163,1,2,0:0:0:0:
251,32,30324,2,0,P|210:46|157:49,1,70,0|2,3:0|0:0,0:0:0:0:
39,141,30647,2,0,P|73:146|106:158,1,70,0|2,1:0|3:2,0:0:0:0:
187,216,30969,6,0,P|152:167|176:79,1,140,0|0,3:0|1:0,0:0:0:0:
252,127,31453,1,2,0:0:0:0:
252,127,31534,1,0,3:2:0:0:
252,127,31614,1,0,3:0:0:0:
327,88,31776,2,0,P|364:85|398:73,1,70,2|0,0:0|1:0,0:0:0:0:
447,9,32098,1,2,0:0:0:0:
447,9,32260,6,0,P|436:80|427:159,1,140,0|0,3:2|1:0,0:0:0:0:
452,228,32744,1,2,0:0:0:0:
452,228,32905,2,0,L|461:316,1,70,0|2,3:0|0:0,0:0:0:0:
387,340,33227,2,0,L|379:270,1,70,0|2,1:0|0:0,0:0:0:0:
311,221,33550,6,0,P|255:193|168:197,1,140,0|0,3:0|1:0,0:0:0:0:
7,311,34195,1,0,3:0:0:0:
73,361,34356,2,0,P|105:351|166:345,1,70,2|0,0:0|1:0,0:0:0:0:
221,371,34679,1,2,0:0:0:0:
221,371,34840,6,0,B|254:337|254:337|243:291|237:224,1,140,2|0,3:2|1:0,0:0:0:0:
273,168,35324,2,0,P|314:159|363:150,2,70,2|0|2,0:0|3:2|0:0,0:0:0:0:
200,124,35808,2,0,P|159:130|118:134,1,70,0|2,1:0|0:0,0:0:0:0:
54,96,36131,6,0,L|47:51,2,35,0|0|2,3:0|1:0|1:2,0:0:0:0:
101,164,36453,1,0,3:0:0:0:
46,228,36614,2,0,L|3:253,2,35,0|0|0,1:0|1:0|1:0,0:0:0:0:
101,164,36937,1,0,1:0:0:0:
183,175,37098,2,0,L|271:193,1,70,0|0,3:0|1:0,0:0:0:0:
320,237,37421,6,0,P|305:187|304:71,1,140,6|8,3:2|0:0,0:0:0:0:
451,173,38066,2,0,P|466:223|467:339,1,140,2|8,0:0|0:0,0:0:0:0:
394,346,38550,6,0,P|332:326|240:325,1,140,2|2,0:0|0:0,0:0:0:0:
173,312,39034,1,8,0:0:0:0:
173,312,39195,2,0,P|143:324|92:331,1,70,2|2,0:0|0:0,0:0:0:0:
0,224,39518,2,0,P|29:211|81:205,1,70,0|8,0:0|0:0,0:0:0:0:
146,232,39840,1,0,0:0:0:0:
204,171,40002,6,0,P|213:102|216:20,1,140,2|8,0:0|0:0,0:0:0:0:
298,15,40485,1,2,0:0:0:0:
298,15,40647,2,0,P|368:33|459:39,1,140,2|8,0:0|0:0,0:0:0:0:
486,167,41131,6,0,P|453:133|341:141,1,140,2|2,0:0|0:0,0:0:0:0:
307,187,41614,2,0,P|312:241|328:328,1,140,8|2,0:0|0:0,0:0:0:0:
253,366,42098,1,2,0:0:0:0:
253,366,42260,2,0,P|246:329|233:290,1,70,8|0,0:0|0:0,0:0:0:0:
163,257,42582,6,0,P|107:244|15:238,1,140,2|8,0:0|0:0,0:0:0:0:
126,160,43066,2,0,P|195:155|264:140,1,140,2|0,0:0|0:0,0:0:0:0:
327,195,43550,1,8,0:0:0:0:
408,174,43711,6,0,P|441:133|430:24,1,140,2|2,0:0|0:0,0:0:0:0:
369,7,44195,2,0,L|354:85,1,70,8|2,0:0|0:0,0:0:0:0:
274,96,44518,2,0,P|215:85|133:71,1,140,2|8,0:0|0:0,0:0:0:0:
15,228,45163,6,0,P|72:187|150:204,1,140,2|8,0:0|0:0,0:0:0:0:
198,254,45647,1,0,0:0:0:0:
198,254,45808,2,0,L|206:329,1,70,2|0,0:0|0:0,0:0:0:0:
284,353,46131,1,8,0:0:0:0:
284,353,46292,6,0,B|348:351|341:380|448:371,1,140,2|0,0:0|0:0,0:0:0:0:
507,288,46776,2,0,P|472:298|417:294,1,70,8|2,0:0|0:0,0:0:0:0:
388,231,47098,1,2,0:0:0:0:
388,231,47260,2,0,P|381:197|369:73,1,140,2|0,0:0|0:0,0:0:0:0:
430,33,47744,5,2,3:2:0:0:
256,192,47824,12,0,49840,0:0:0:0:
216,105,50163,6,0,L|266:93,2,35,0|0|0,3:3|3:3|1:2,0:0:0:0:
143,62,50485,1,0,1:2:0:0:
92,165,50647,2,0,L|50:158,2,35,0|0|0,3:0|3:0|1:0,0:0:0:0:
152,223,50969,1,0,1:2:0:0:
90,280,51131,6,0,L|100:339,2,35,0|0|0,3:0|3:0|1:0,0:0:0:0:
162,238,51453,1,0,1:2:0:0:
195,321,51614,2,0,L|185:380,2,35,0|0|0,3:0|3:0|1:0,0:0:0:0:
285,276,51937,1,0,1:2:0:0:
365,330,52098,5,0,3:0:0:0:
365,330,52179,1,0,3:0:0:0:
365,330,52260,1,0,1:2:0:0:
444,304,52421,1,0,1:2:0:0:
194,24,52905,6,0,P|161:73|172:163,1,140,6|0,3:2|1:0,0:0:0:0:
236,196,53389,1,2,0:0:0:0:
303,146,53550,2,0,P|337:140|392:120,1,70,0|2,3:0|3:2,0:0:0:0:
426,66,53873,1,0,1:0:0:0:
426,66,54034,6,0,B|470:102|470:102|459:142|454:194,1,140,6|2,3:2|3:2,0:0:0:0:
466,267,54518,2,0,P|393:278|318:295,1,140,0|0,1:0|3:0,0:0:0:0:
261,343,55002,1,2,3:2:0:0:
261,343,55163,2,0,P|242:304|246:264,1,70,0|2,1:0|0:0,0:0:0:0:
154,158,55485,6,0,P|194:191|290:183,1,140,0|0,3:2|1:0,0:0:0:0:
353,150,55969,2,0,L|395:153,2,35,2|0|0,0:0|1:0|3:0,0:0:0:0:
296,87,56292,2,0,P|289:57|288:4,1,70,2|0,3:2|1:0,0:0:0:0:
410,36,56614,6,0,P|441:94|420:183,1,140,6|2,3:2|3:2,0:0:0:0:
464,310,57098,1,0,1:0:0:0:
464,310,57260,2,0,B|428:297|404:276|404:276|376:285|317:283,1,140,6|2,3:2|3:2,0:0:0:0:
264,331,57744,2,0,P|226:333|188:340,1,70,0|2,1:0|3:2,0:0:0:0:
117,372,58066,5,2,3:2:0:0:
117,372,58227,1,2,0:0:0:0:
41,334,58389,2,0,P|13:284|17:193,1,140,0|0,1:0|3:0,0:0:0:0:
47,125,58873,2,0,L|123:113,1,70,2|0,3:2|1:0,0:0:0:0:
194,29,59195,6,0,B|245:46|245:46|250:89|235:152,1,140,6|2,3:2|3:2,0:0:0:0:
325,191,59679,2,0,P|326:160|338:107,1,70,0|2,1:0|0:0,0:0:0:0:
339,119,59921,1,0,1:0:0:0:
344,116,60002,1,0,3:0:0:0:
423,88,60163,1,2,3:2:0:0:
447,168,60324,2,0,L|434:257,1,70,0|2,1:0|3:2,0:0:0:0:
383,302,60647,6,0,B|307:302|328:340|236:341,1,140,2|0,3:2|1:0,0:0:0:0:
174,376,61131,2,0,P|149:338|155:225,1,140,2|2,0:0|3:2,0:0:0:0:
207,188,61614,1,0,1:0:0:0:
127,119,61776,6,0,B|81:117|34:135|34:135|18:123|5:75,1,140,6|2,3:2|3:2,0:0:0:0:
73,39,62260,2,0,P|107:36|149:29,1,70,0|2,1:2|1:2,0:0:0:0:
148,26,62502,1,0,1:0:0:0:
152,19,62582,1,0,1:0:0:0:
227,56,62744,1,0,1:0:0:0:
227,56,62905,2,0,P|261:53|303:46,1,70,0|0,1:0|1:0,0:0:0:0:
424,11,63227,6,0,P|437:69|441:161,1,140,6|0,3:2|1:0,0:0:0:0:
326,344,63873,2,0,P|317:317|316:253,1,70,0|2,3:2|3:2,0:0:0:0:
244,228,64195,1,0,1:0:0:0:
244,228,64356,6,0,P|182:202|102:207,1,140,6|2,3:2|3:2,0:0:0:0:
12,332,64840,2,0,P|52:332|83:319,1,70,0|2,1:0|3:2,0:0:0:0:
83,326,65082,1,2,3:2:0:0:
89,330,65163,1,0,1:1:0:0:
168,358,65324,1,0,1:1:0:0:
419,225,65808,6,0,P|368:194|280:204,1,140,6|0,3:2|1:0,0:0:0:0:
228,256,66292,1,2,0:0:0:0:
152,219,66453,2,0,P|136:176|143:137,1,70,0|2,3:2|3:2,0:0:0:0:
125,44,66776,1,0,1:0:0:0:
201,77,66937,6,0,P|271:68|371:57,1,140,6|2,3:2|3:2,0:0:0:0:
415,23,67421,2,0,P|446:88|435:170,1,140,0|0,1:0|3:0,0:0:0:0:
382,213,67905,1,2,3:2:0:0:
382,213,68066,2,0,P|389:249|395:296,1,70,0|2,1:0|0:0,0:0:0:0:
393,281,68308,5,0,1:1:0:0:
393,281,68389,2,0,L|303:265,1,70,2|2,3:2|3:2,0:0:0:0:
254,314,68711,1,0,1:0:0:0:
254,314,68873,2,0,L|183:328,1,70,2|0,0:0|3:0,0:0:0:0:
101,335,69195,2,0,P|81:295|90:251,1,70,2|0,3:2|1:0,0:0:0:0:
39,139,69518,6,0,P|123:153|155:225,1,140,6|2,3:2|3:2,0:0:0:0:
252,250,70002,1,0,1:0:0:0:
252,250,70163,2,0,P|241:178|233:89,1,140,6|2,3:2|3:2,0:0:0:0:
331,44,70647,2,0,P|338:77|342:130,1,70,0|2,1:2|3:2,0:0:0:0:
439,193,70969,6,0,P|399:153|294:163,1,140,2|0,3:2|1:0,0:0:0:0:
272,218,71453,1,2,0:0:0:0:
272,218,71534,1,0,1:0:0:0:
272,218,71614,2,0,P|231:226|180:240,1,70,0|2,3:2|3:2,0:0:0:0:
159,304,71937,1,0,1:0:0:0:
56,259,72098,6,0,P|25:195|50:109,1,140,6|2,3:2|3:2,0:0:0:0:
51,46,72582,2,0,B|126:46|110:80|213:75,1,140,0|0,1:0|3:0,0:0:0:0:
260,116,73066,2,0,P|296:101|345:100,1,70,2|0,3:2|1:1,0:0:0:0:
390,43,73389,1,2,0:0:0:0:
454,96,73550,6,0,P|475:144|471:248,1,140,2|0,3:2|1:0,0:0:0:0:
313,359,74195,2,0,P|298:328|303:285,1,70,0|2,3:2|3:2,0:0:0:0:
364,239,74518,1,0,1:0:0:0:
287,273,74679,6,0,P|214:285|144:303,1,140,6|0,3:2|3:0,0:0:0:0:
67,281,75163,2,0,P|35:238|48:127,1,140,0|0,1:0|1:0,0:0:0:0:
104,108,75647,1,4,1:2:0:0:
104,108,75969,6,0,L|254:130,1,140,6|0,3:2|3:2,0:0:0:0:
319,163,76453,2,0,P|335:134|338:86,1,70,0|0,1:0|0:0,0:0:0:0:
413,169,76776,2,0,P|417:203|433:234,1,70,0|0,1:0|0:0,0:0:0:0:
498,308,77098,2,0,L|413:323,1,70,0|0,1:0|3:0,0:0:0:0:
333,280,77421,6,0,L|248:295,1,70,0|0,1:0|3:0,0:0:0:0:
211,357,77744,1,0,1:0:0:0:
138,314,77905,1,0,3:0:0:0:
138,314,77985,1,0,3:0:0:0:
138,314,78066,2,0,P|123:286|124:224,1,70,0|0,1:0|3:0,0:0:0:0:
33,188,78389,2,0,P|36:153|52:122,1,70,0|0,1:0|3:0,0:0:0:0:
120,73,78711,5,0,1:0:0:0:
184,127,78873,1,0,3:0:0:0:
256,85,79034,2,0,L|346:73,1,70,0|0,1:0|3:0,0:0:0:0:
325,75,79276,1,0,3:0:0:0:
325,75,79356,1,0,1:0:0:0:
451,118,79518,1,0,3:0:0:0:
393,178,79679,2,0,L|323:187,1,70,0|0,1:0|3:0,0:0:0:0:
288,263,80002,6,0,P|295:296|301:340,1,70,0|0,1:0|3:0,0:0:0:0:
207,380,80324,2,0,P|199:346|194:303,1,70,0|0,1:0|3:0,0:0:0:0:
190,307,80566,1,0,3:0:0:0:
185,302,80647,1,0,1:0:0:0:
112,259,80808,2,0,L|63:271,2,35,0|0|0,3:0|3:0|1:0,0:0:0:0:
140,179,81131,5,0,3:0:0:0:
140,179,81211,1,0,3:0:0:0:
140,179,81292,2,0,P|149:142|149:98,1,70,0|0,1:0|3:0,0:0:0:0:
157,107,81534,1,0,3:2:0:0:
166,102,81614,1,0,1:0:0:0:
232,50,81776,2,0,L|241:4,2,35,0|0|0,3:0|3:2|1:0,0:0:0:0:
298,101,82098,2,0,L|308:147,2,35,0|0|4,3:0|3:2|1:1,0:0:0:0:
372,60,82421,5,0,3:0:0:0:
372,60,82502,1,0,3:0:0:0:
372,60,82582,2,0,L|459:46,1,70,4|0,1:2|3:0,0:0:0:0:
446,55,82824,1,0,3:0:0:0:
452,62,82905,1,4,1:2:0:0:
438,144,83066,1,0,3:0:0:0:
430,150,83147,1,0,3:0:0:0:
423,158,83227,1,4,1:0:0:0:
440,240,83389,1,0,3:0:0:0:
440,240,83469,1,0,3:0:0:0:
440,240,83550,2,0,L|455:329,1,70,4|0,1:0|0:0,0:0:0:0:
383,358,83873,6,0,L|328:344,3,35,0|0|0|0,1:0|1:0|3:0|3:0,0:0:0:0:
274,366,84195,2,0,L|219:352,3,35,0|0|0|0,1:0|1:0|3:0|3:0,0:0:0:0:
163,366,84518,2,0,P|156:347|154:306,3,41.9999987182618,0|0|0|0,1:0|1:0|3:0|3:0,0:0:0:0:
75,289,84840,2,0,P|78:262|93:235,3,41.9999987182618,0|0|0|0,1:0|1:0|3:0|3:0,0:0:0:0:
91,168,85163,6,0,L|138:157,3,48.9999985046387,0|0|0|0,1:0|1:0|3:0|3:0,0:0:0:0:
208,199,85485,2,0,L|258:186,3,48.9999985046387,0|0|0|0,1:0|1:0|3:0|3:0,0:0:0:0:
330,234,85808,5,0,1:0:0:0:
330,234,85969,1,0,1:0:0:0:
398,184,86131,2,0,L|494:159,1,70,0|4,1:0|1:0,0:0:0:0:
