osu file format v14

[General]
AudioFilename: fluff.mp3
AudioLeadIn: 0
PreviewTime: 52824
Countdown: 0
SampleSet: Soft
StackLeniency: 0.7
Mode: 0
LetterboxInBreaks: 0
WidescreenStoryboard: 1

[Editor]
Bookmarks: 22992,37186,50089,50250,50412,50492,50573,50734,50896,50976,51057,51218,51379,51460,51541,51702,51863,51944,52025,52186,77670,77750,77831,78960,79041,79121
DistanceSpacing: 0.5
BeatDivisor: 4
GridSize: 32
TimelineZoom: 1.4

[Metadata]
Title:Light My Fire (TV Size)
TitleUnicode:Light My Fire (TV Size)
Artist:KOTOKO
ArtistUnicode:KOTOKO
Creator:Gaia
Version:Giralda's Insane
Source:灼眼のシャナⅢ-FINAL-
Tags:p_a_n pan giralda okoratu okorin akitoshi -laura- corinn -yuzuriha -yuzuriha-inori- Shakugan no Shana III opening anime japanese
BeatmapID:2786386
BeatmapSetID:398134

[Difficulty]
HPDrainRate:7
CircleSize:4.2
OverallDifficulty:8.2
ApproachRate:9.2
SliderMultiplier:1.7
SliderTickRate:1

[Events]
//Background and Video events
Video,-106,"fire.mp4"
0,0,"shanaFire.jpg",0,0
//Break Periods
//Storyboard Layer 0 (Background)
//Storyboard Layer 1 (Fail)
//Storyboard Layer 2 (Pass)
//Storyboard Layer 3 (Foreground)
//Storyboard Layer 4 (Overlay)
//Storyboard Sound Samples

[TimingPoints]
559,322.58064516129,4,2,1,5,1,0
859,560.747663551402,4,2,1,5,1,0
1139,517.241379310345,4,2,1,5,1,0
1397,480,4,2,1,5,1,0
1637,444.444444444444,4,2,1,5,1,0
1859,416.666666666667,4,2,1,5,1,0
2067,397.350993377483,4,2,1,5,1,0
2265,389.61038961039,4,2,1,5,1,0
2459,387.096774193548,4,2,1,5,1,0
2652,384.615384615385,4,2,1,5,1,0
2849,382.165605095541,4,2,1,5,1,0
3040,307.692307692308,4,2,1,5,1,0
3193,260.869565217391,4,2,1,5,1,0
3323,244.897959183673,4,2,1,5,1,0
3445,243.90243902439,4,2,1,5,1,0
3566,242.914979757085,4,2,1,5,1,0
3687,241.935483870968,4,2,1,5,1,0
3812,240,4,2,1,5,1,0
3932,238.095238095238,4,2,1,5,1,0
4052,236.220472440945,4,2,1,5,1,0
4171,233.463035019455,4,2,1,5,1,0
4287,230.769230769231,4,2,1,5,1,0
4402,228.571428571429,4,2,1,5,1,0
4516,226.415094339623,4,2,1,5,1,0
4629,224.299065420561,4,2,1,5,1,0
4741,222.222222222222,4,2,1,5,1,0
4852,220.183486238532,4,2,1,5,1,0
4962,218.181818181818,4,2,1,5,1,0
5071,217.785843920145,4,2,1,5,1,0
5179,217.391304347826,4,2,1,5,1,0
5287,216.998191681736,4,2,1,5,1,0
5395,216.606498194946,4,2,1,5,1,0
5503,500,4,2,1,5,1,0
6496,322.58064516129,4,2,4,50,1,0
11615,322.58064516129,4,2,1,80,1,0
16776,-147.058823529412,4,2,2,80,0,0
26292,-147.058823529412,4,2,1,80,0,0
26614,-250,4,2,1,80,0,0
27098,-117.647058823529,4,2,1,80,0,0
37421,-153.846153846154,4,2,4,40,0,0
47744,-153.846153846154,4,2,1,40,0,0
50324,-111.111111111111,4,2,1,80,0,0
52905,-100,4,2,1,80,0,0

[Colours]
Combo1 : 236,19,19
Combo2 : 206,206,206
Combo3 : 255,121,121
Combo4 : 255,255,128
Combo5 : 255,149,43

[HitObjects]
256,192,559,12,0,5503,0:0:0:0:
117,162,6496,6,0,P|113:119|111:77,1,85,2|0,0:0|0:0,0:0:0:0:
190,229,6818,2,0,P|193:271|195:313,1,85,2|0,0:0|0:0,0:0:0:0:
195,313,7060,1,0,0:0:0:0:
195,313,7141,1,2,0:0:0:0:
367,349,7302,2,0,P|365:264|372:179,1,170,0|0,0:0|0:0,0:0:0:0:
372,179,7705,1,0,0:0:0:0:
377,183,7786,6,0,L|463:205,1,85,2|0,0:0|0:0,0:0:0:0:
269,242,8108,2,0,L|259:157,1,85,2|0,0:0|0:0,0:0:0:0:
175,92,8431,1,2,0:0:0:0:
372,24,8592,2,0,P|402:103|376:182,1,170,0|0,0:0|0:0,0:0:0:0:
376,182,8995,1,0,0:0:0:0:
376,182,9076,5,8,0:0:0:0:
259,157,9237,1,8,0:0:0:0:
477,68,9399,1,0,0:0:0:0:
480,93,9480,1,0,0:0:0:0:
482,118,9560,1,0,0:0:0:0:
501,301,9721,1,8,0:0:0:0:
224,302,9883,2,0,L|392:280,1,170,8|0,0:0|0:0,0:0:0:0:
116,238,10366,1,10,0:0:0:0:
421,200,10528,1,10,0:0:0:0:
122,136,11012,5,10,0:0:0:0:
392,280,11174,1,10,0:0:0:0:
392,280,11615,6,0,L|400:183,1,85,6|0,0:0|0:0,0:0:0:0:
398,195,11856,1,0,0:0:0:0:
398,195,11937,1,2,0:0:0:0:
308,336,12098,1,0,0:0:0:0:
300,311,12179,1,0,0:0:0:0:
292,286,12260,1,2,0:0:0:0:
171,350,12421,2,0,L|205:179,1,170,0|0,0:0|0:0,0:0:0:0:
59,62,12905,6,0,B|71:151|71:148,1,85,2|0,0:0|0:0,0:0:0:0:
70,146,13147,1,0,0:0:0:0:
70,146,13227,1,2,0:0:0:0:
228,87,13389,1,0,0:0:0:0:
203,81,13469,1,0,0:0:0:0:
178,75,13550,1,2,0:0:0:0:
305,21,13711,2,0,L|323:190,1,170,0|0,0:0|0:0,0:0:0:0:
197,308,14195,6,0,L|112:341,1,85,2|0,0:0|0:0,0:0:0:0:
117,338,14437,1,0,0:0:0:0:
117,338,14518,1,2,0:0:0:0:
197,221,14679,1,0,0:0:0:0:
172,214,14760,1,0,0:0:0:0:
147,207,14840,1,2,0:0:0:0:
71,83,15002,2,0,L|43:250,1,170,0|0,0:0|0:0,0:0:0:0:
160,60,15485,5,2,0:0:0:0:
235,115,15647,2,0,P|318:128|403:126,1,170,0|0,0:0|0:0,0:0:0:0:
459,335,16131,1,8,0:0:0:0:
452,301,16211,1,8,0:0:0:0:
445,267,16292,1,8,0:0:0:0:
439,233,16373,5,8,0:0:0:0:
414,255,16453,1,8,0:0:0:0:
384,272,16534,1,8,0:0:0:0:
350,272,16614,1,8,0:0:0:0:
316,266,16695,1,8,0:0:0:0:
290,243,16776,6,0,B|256:215|256:215|191:258|132:239,1,173.40000105835,6|2,0:0|0:0,0:0:0:0:
133,239,17421,1,0,0:0:0:0:
38,172,17744,1,0,0:0:0:0:
116,87,18066,1,0,0:0:0:0:
116,87,18227,2,0,L|125:149,1,57.8000003527832,2|0,0:0|0:0,0:0:0:0:
206,315,18550,2,0,P|218:258|233:202,1,115.600000705566,2|2,0:0|0:0,0:0:0:0:
306,249,19034,2,0,L|362:236,1,57.8000003527832,0|2,0:0|0:0,0:0:0:0:
430,182,19356,5,0,0:0:0:0:
353,140,19518,1,2,0:0:0:0:
199,290,19840,5,2,0:0:0:0:
276,248,20002,1,0,0:0:0:0:
62,162,20485,5,2,0:0:0:0:
139,204,20647,1,0,0:0:0:0:
308,71,21131,5,2,0:0:0:0:
222,44,21292,1,0,0:0:0:0:
222,44,21453,2,0,P|213:101|210:158,1,115.600000705566,2|2,0:0|0:0,0:0:0:0:
380,133,21937,5,0,0:0:0:0:
461,93,22098,2,0,P|469:150|472:207,1,115.600000705566,2|2,0:0|0:0,0:0:0:0:
355,288,22582,1,0,0:0:0:0:
355,288,22744,2,0,P|297:285|240:276,1,115.600000705566,2|2,0:0|0:0,0:0:0:0:
91,194,23227,1,0,0:0:0:0:
91,194,23389,2,0,P|148:191|205:182,1,115.600000705566,2|2,0:0|0:0,0:0:0:0:
294,155,23873,1,0,0:0:0:0:
370,77,24034,2,0,P|378:134|381:191,1,115.600000705566,2|2,0:0|0:0,0:0:0:0:
346,332,24518,6,0,P|290:316|232:314,1,115.600000705566,0|0,0:0|0:0,0:0:0:0:
145,347,25002,1,2,0:0:0:0:
145,347,25163,2,0,P|87:345|31:329,1,115.600000705566,0|0,0:0|0:0,0:0:0:0:
73,246,25647,1,2,0:0:0:0:
72,246,25808,6,0,P|80:188|82:130,1,115.600000705566,0|0,0:0|0:0,0:0:0:0:
45,56,26292,1,2,0:0:0:0:
45,56,26373,1,2,0:0:0:0:
45,56,26453,1,8,0:0:0:0:
209,257,26614,6,0,L|270:251,1,51,2|0,0:0|0:0,0:0:0:0:
276,251,26937,1,2,0:0:0:0:
455,284,27098,6,0,L|460:211,1,72.2500013780594,6|0,0:0|0:0,0:0:0:0:
500,92,27421,1,8,0:0:0:0:
368,191,27582,1,0,0:0:0:0:
263,50,27744,2,0,L|255:121,1,72.2500013780594,2|0,0:0|0:0,0:0:0:0:
199,289,28066,2,0,L|206:217,1,72.2500013780594,8|0,0:0|0:0,0:0:0:0:
125,134,28389,5,2,0:0:0:0:
284,287,28550,1,0,0:0:0:0:
110,331,28711,2,0,L|41:354,1,72.2500013780594,8|0,0:0|0:0,0:0:0:0:
199,289,29034,2,0,L|213:145,1,144.500002756119,2|8,0:0|0:0,0:0:0:0:
284,287,29518,1,0,0:0:0:0:
125,134,29679,5,2,0:0:0:0:
305,108,29840,2,0,B|350:98|350:98|391:117|391:117|441:101,1,144.500002756119,0|0,0:0|0:0,0:0:0:0:
393,33,30324,1,2,0:0:0:0:
497,245,30485,2,0,L|490:166,1,72.2500013780594,0|8,0:0|0:0,0:0:0:0:
444,327,30808,1,0,0:0:0:0:
302,258,30969,6,0,L|379:237,1,72.2500013780594,2|0,0:0|0:0,0:0:0:0:
220,210,31292,1,8,0:0:0:0:
324,112,31453,1,0,0:0:0:0:
324,112,31534,1,0,0:0:0:0:
324,112,31614,1,2,0:0:0:0:
232,66,31776,2,0,P|221:137|219:209,1,144.500002756119,0|0,0:0|0:0,0:0:0:0:
57,303,32260,5,2,0:0:0:0:
145,348,32421,2,0,P|142:275|132:204,1,144.500002756119,0|0,0:0|0:0,0:0:0:0:
238,321,32905,2,0,P|307:340|379:344,1,144.500002756119,2|8,0:0|0:0,0:0:0:0:
474,320,33389,1,0,0:0:0:0:
512,202,33550,6,0,P|442:182|370:178,1,144.500002756119,2|8,0:0|0:0,0:0:0:0:
280,204,34034,1,0,0:0:0:0:
211,76,34195,2,0,L|199:161,1,72.2500013780594,2|0,0:0|0:0,0:0:0:0:
188,254,34518,1,8,0:0:0:0:
188,254,34598,1,0,0:0:0:0:
188,254,34679,1,0,0:0:0:0:
126,105,34840,5,2,0:0:0:0:
277,169,35002,2,0,P|348:173|419:159,1,144.500002756119,0|0,0:0|0:0,0:0:0:0:
467,313,35485,1,2,0:0:0:0:
318,349,35647,2,0,P|247:334|175:339,1,144.500002756119,0|0,0:0|0:0,0:0:0:0:
45,214,36131,5,8,0:0:0:0:
41,235,36211,1,8,0:0:0:0:
36,256,36292,1,8,0:0:0:0:
85,65,36453,1,2,0:0:0:0:
144,185,36614,1,8,0:0:0:0:
148,206,36694,1,8,0:0:0:0:
152,227,36775,1,2,0:0:0:0:
224,63,36937,1,8,0:0:0:0:
259,187,37098,1,2,0:0:0:0:
290,311,37260,1,8,0:0:0:0:
425,351,37421,6,0,P|440:297|466:248,1,110.499994941712,2|10,0:2|1:2,0:0:0:0:
466,248,37905,1,0,0:0:0:0:
492,154,38066,2,0,L|438:166,1,55.2499974708558,2|0,0:2|0:0,0:0:0:0:
342,159,38389,1,10,1:2:0:0:
254,152,38550,2,0,P|198:146|143:143,1,110.499994941712,2|0,0:0|0:0,0:0:0:0:
143,143,39034,1,10,1:2:0:0:
59,168,39195,2,0,L|47:228,1,55.2499974708558,2|0,0:0|0:0,0:0:0:0:
9,301,39518,1,0,0:0:0:0:
116,344,39679,2,0,L|105:289,1,55.2499974708558,10|0,1:2|0:0,0:0:0:0:
215,348,40002,5,2,0:2:0:0:
314,353,40163,1,0,0:0:0:0:
413,357,40324,1,10,1:2:0:0:
413,357,40485,1,2,0:0:0:0:
466,281,40647,2,0,P|473:248|480:160,1,110.499994941712,2|10,3:2|1:2,0:0:0:0:
442,101,41131,1,2,0:0:0:0:
370,170,41292,6,0,L|379:228,1,55.2499974708558,0|0,0:0|0:0,0:0:0:0:
288,303,41614,2,0,P|233:297|177:295,1,110.499994941712,10|0,1:2|3:2,0:0:0:0:
163,208,42098,2,0,P|218:210|273:215,1,110.499994941712,0|0,0:0|0:0,0:0:0:0:
273,215,42582,5,2,0:2:0:0:
341,142,42744,1,0,0:0:0:0:
318,45,42905,1,10,1:2:0:0:
318,44,43066,2,0,P|264:57|209:59,1,110.499994941712,2|0,0:0|0:0,0:0:0:0:
111,37,43550,1,10,1:2:0:0:
73,151,43711,2,0,P|126:138|181:136,2,110.499994941712,2|0|2,0:0|0:0|0:0,0:0:0:0:
14,234,44518,2,0,L|3:180,1,55.2499974708558,2|0,3:2|0:0,0:0:0:0:
90,295,44840,2,0,L|101:241,1,55.2499974708558,10|0,1:2|0:0,0:0:0:0:
170,350,45163,6,0,P|185:326|204:306,1,55.2499974708558,2|0,0:2|0:0,0:0:0:0:
291,274,45485,1,8,1:2:0:0:
389,290,45647,1,0,0:0:0:0:
476,244,45808,2,0,P|486:189|478:135,1,110.499994941712,2|10,0:2|1:2,0:0:0:0:
419,54,46292,1,2,0:0:0:0:
419,54,46453,6,0,L|308:44,1,110.499994941712,0|10,0:0|0:2,0:0:0:0:
211,67,46937,1,0,0:0:0:0:
112,52,47098,1,0,3:2:0:0:
99,151,47260,1,0,3:0:0:0:
196,168,47421,2,0,L|299:152,1,82.8749962062838,10|0,0:2|0:0,0:0:0:0:
256,192,47744,12,2,50163,0:0:0:0:
124,334,50324,6,0,L|112:258,1,76.4999976654053,8|8,0:0|0:0,0:0:0:0:
28,156,50647,1,2,0:0:0:0:
28,156,50727,1,2,0:0:0:0:
28,156,50808,1,8,0:0:0:0:
192,60,50969,5,8,0:0:0:0:
259,240,51131,1,2,0:0:0:0:
264,209,51211,1,2,0:0:0:0:
268,175,51292,1,8,0:0:0:0:
336,343,51453,5,8,0:0:0:0:
416,97,51614,1,2,0:0:0:0:
421,131,51695,1,2,0:0:0:0:
426,161,51775,1,8,0:0:0:0:
453,334,51937,5,8,0:0:0:0:
225,246,52098,1,2,0:0:0:0:
259,240,52179,1,2,0:0:0:0:
288,233,52259,1,8,0:0:0:0:
50,203,52421,1,8,0:0:0:0:
50,203,52905,6,0,P|132:209|196:156,1,170,6|8,0:0|0:0,0:0:0:0:
259,240,53389,1,0,0:0:0:0:
372,43,53550,2,0,B|385:86|385:86|374:130,1,85,2|2,0:0|0:0,0:0:0:0:
283,91,53873,1,8,0:0:0:0:
493,258,54034,6,0,B|440:250|440:250|394:275|394:275|331:261,1,170,6|2,0:0|0:0,0:0:0:0:
108,264,54518,2,0,B|93:305|93:305|105:344,1,85,8|0,0:0|0:0,0:0:0:0:
268,152,54840,2,0,B|280:112|280:112|265:71,1,85,2|2,0:0|0:0,0:0:0:0:
171,150,55163,1,8,0:0:0:0:
371,126,55324,1,2,0:0:0:0:
79,34,55485,6,0,B|107:84|107:84|65:131|91:188,1,170,2|8,0:0|0:0,0:0:0:0:
15,83,55969,1,2,0:0:0:0:
171,150,56131,1,2,0:0:0:0:
171,150,56211,1,0,0:0:0:0:
171,150,56292,1,2,0:0:0:0:
33,255,56453,1,8,0:0:0:0:
163,342,56614,6,0,L|332:329,1,170,6|2,0:0|0:0,0:0:0:0:
454,352,57098,1,8,0:0:0:0:
375,143,57260,2,0,L|205:130,1,170,6|2,0:0|0:0,0:0:0:0:
289,218,57744,1,8,0:0:0:0:
293,51,57905,1,2,0:0:0:0:
91,88,58066,6,0,B|77:129|77:129|87:170,1,85,2|2,0:0|0:0,0:0:0:0:
155,311,58389,1,8,0:0:0:0:
191,219,58550,2,0,P|108:224|58:289,1,170,0|2,0:0|0:0,0:0:0:0:
191,219,59034,1,8,0:0:0:0:
293,51,59195,6,0,B|301:107|301:107|335:143|335:143|347:205,1,170,6|2,0:0|0:0,0:0:0:0:
276,318,59679,2,0,L|259:234,1,85,8|2,0:0|0:0,0:0:0:0:
403,40,60002,1,2,0:0:0:0:
409,73,60082,1,0,0:0:0:0:
416,106,60163,1,2,0:0:0:0:
441,259,60324,1,8,0:0:0:0:
243,157,60485,1,2,0:0:0:0:
332,111,60647,6,0,B|349:153|349:153|337:191,1,85,2|0,0:0|0:0,0:0:0:0:
185,304,60969,1,8,0:0:0:0:
82,348,61131,2,0,B|73:301|73:301|88:269|88:269|75:183,1,170,0|2,0:0|0:0,0:0:0:0:
55,95,61614,1,8,0:0:0:0:
184,303,61776,6,0,P|266:313|333:264,1,170,6|2,0:0|0:0,0:0:0:0:
357,85,62260,1,8,0:0:0:0:
448,307,62421,1,2,0:0:0:0:
448,307,62501,1,8,0:0:0:0:
448,307,62582,1,8,0:0:0:0:
426,153,62744,1,8,0:0:0:0:
359,283,62905,1,8,0:0:0:0:
491,221,63066,1,8,0:0:0:0:
271,261,63227,6,0,L|101:277,1,170,6|8,0:0|0:0,0:0:0:0:
271,261,63711,1,2,0:0:0:0:
331,160,63873,2,0,L|345:71,1,85,2|2,0:0|0:0,0:0:0:0:
246,106,64195,1,8,0:0:0:0:
448,48,64356,6,0,B|478:129|478:129|442:204,1,170,6|2,0:0|0:0,0:0:0:0:
190,254,64840,2,0,L|292:245,1,85,8|2,0:0|0:0,0:0:0:0:
274,246,65082,1,2,0:0:0:0:
274,246,65163,1,10,0:0:0:0:
44,306,65324,1,10,0:0:0:0:
44,306,65808,6,0,L|34:129,1,170,6|8,0:0|0:0,0:0:0:0:
44,306,66292,1,0,0:0:0:0:
202,115,66453,2,0,B|220:155|220:155|211:195,1,85,2|2,0:0|0:0,0:0:0:0:
183,338,66776,1,8,0:0:0:0:
339,336,66937,6,0,B|353:273|353:273|383:251|383:251|403:185,1,170,6|2,0:0|0:0,0:0:0:0:
418,327,67421,1,8,0:0:0:0:
322,193,67582,1,0,0:0:0:0:
451,252,67744,1,2,0:0:0:0:
290,269,67905,1,2,0:0:0:0:
137,286,68066,2,0,L|42:298,1,85,8|2,0:0|0:0,0:0:0:0:
52,296,68308,1,8,0:0:0:0:
52,296,68389,5,2,0:0:0:0:
129,38,68550,1,2,0:0:0:0:
133,184,68711,1,8,0:0:0:0:
45,67,68873,1,0,0:0:0:0:
183,109,69034,1,2,0:0:0:0:
46,156,69195,1,2,0:0:0:0:
157,271,69356,1,8,0:0:0:0:
267,219,69518,6,0,B|282:167|282:167|318:131|318:131|332:68,1,170,6|2,0:0|0:0,0:0:0:0:
332,67,70002,1,8,0:0:0:0:
374,320,70163,2,0,L|362:235,1,85,6|0,0:0|0:0,0:0:0:0:
479,360,70485,1,2,0:0:0:0:
278,303,70647,2,0,L|266:218,1,85,8|2,0:0|0:0,0:0:0:0:
64,340,70969,6,0,B|79:289|79:289|122:258|122:258|137:184,1,170,2|8,0:0|0:0,0:0:0:0:
97,55,71453,1,2,0:0:0:0:
217,146,71614,1,2,0:0:0:0:
217,146,71695,1,0,0:0:0:0:
217,146,71776,1,2,0:0:0:0:
57,207,71937,1,8,0:0:0:0:
192,312,72098,6,0,L|377:293,1,170,6|2,0:0|0:0,0:0:0:0:
457,142,72582,2,0,B|475:184|475:184|463:222,1,85,8|0,0:0|0:0,0:0:0:0:
315,119,72905,1,2,0:0:0:0:
316,84,72985,1,0,0:0:0:0:
318,50,73066,1,2,0:0:0:0:
207,210,73227,2,0,L|190:126,1,85,8|0,0:0|0:0,0:0:0:0:
60,98,73550,6,0,B|27:177|27:177|62:261,1,170,2|8,0:0|0:0,0:0:0:0:
60,255,74034,1,0,0:0:0:0:
283,312,74195,2,0,L|184:307,1,85,2|2,0:0|0:0,0:0:0:0:
374,359,74518,1,8,0:0:0:0:
415,122,74679,6,0,B|428:176|428:176|470:195|470:195|487:222|473:278,1,170,6|2,0:0|0:0,0:0:0:0:
311,197,75163,2,0,L|226:188,1,85,8|2,0:0|0:0,0:0:0:0:
503,110,75485,1,8,0:0:0:0:
476,261,75647,1,6,0:0:0:0:
475,261,75969,6,0,P|407:308|324:299,1,170,6|2,0:0|0:0,0:0:0:0:
103,329,76453,2,0,L|84:246,1,85,8|0,0:0|0:0,0:0:0:0:
218,74,76776,2,0,L|199:156,1,85,8|2,0:0|0:0,0:0:0:0:
324,299,77098,2,0,L|305:216,1,85,8|2,0:0|0:0,0:0:0:0:
454,49,77421,6,0,L|435:131,1,85,8|2,0:0|0:0,0:0:0:0:
460,325,77744,1,8,0:0:0:0:
312,151,77905,1,2,0:0:0:0:
312,151,77985,1,2,0:0:0:0:
312,151,78066,2,0,L|204:129,1,85,8|2,0:0|0:0,0:0:0:0:
88,309,78389,2,0,L|171:292,1,85,8|2,0:0|0:0,0:0:0:0:
409,202,78711,6,0,B|424:163|424:163|420:120,1,85,8|2,0:0|0:0,0:0:0:0:
258,253,79034,2,0,B|253:296|253:296|269:334,1,85,8|2,0:0|0:0,0:0:0:0:
269,334,79276,1,2,0:0:0:0:
269,334,79356,1,8,0:0:0:0:
357,277,79518,1,2,0:0:0:0:
130,180,79679,2,0,B|124:136|124:136|95:94,1,85,8|2,0:0|0:0,0:0:0:0:
301,30,80002,6,0,B|277:63|277:63|271:107,1,85,8|2,0:0|0:0,0:0:0:0:
357,277,80324,2,0,B|380:243|380:243|386:199,1,85,8|2,0:0|0:0,0:0:0:0:
386,199,80566,1,2,0:0:0:0:
386,199,80647,1,8,0:0:0:0:
180,239,80808,1,2,0:0:0:0:
180,239,80889,1,2,0:0:0:0:
180,239,80969,2,0,B|186:283|186:283|209:316,1,85,8|2,0:0|0:0,0:0:0:0:
209,316,81211,1,2,0:0:0:0:
209,316,81292,5,8,0:0:0:0:
234,112,81453,1,2,0:0:0:0:
234,112,81534,1,2,0:0:0:0:
234,112,81614,2,0,L|140:98,1,85,8|2,0:0|0:0,0:0:0:0:
149,99,81856,1,2,0:0:0:0:
149,99,81937,1,8,0:0:0:0:
255,263,82098,1,2,0:0:0:0:
255,263,82179,1,2,0:0:0:0:
255,262,82260,2,0,L|339:249,1,85,12|2,0:0|0:0,0:0:0:0:
340,250,82501,1,2,0:0:0:0:
340,250,82582,5,12,0:0:0:0:
66,323,82744,1,2,0:0:0:0:
66,323,82824,1,2,0:0:0:0:
66,323,82905,1,12,0:0:0:0:
18,227,83066,1,2,0:0:0:0:
18,227,83147,1,2,0:0:0:0:
18,227,83227,1,12,0:0:0:0:
92,138,83389,1,2,0:0:0:0:
92,138,83469,1,2,0:0:0:0:
92,138,83550,6,0,L|79:49,2,85,12|6|8,0:0|0:0|0:0,0:0:0:0:
174,191,84034,5,2,0:0:0:0:
194,196,84114,1,2,0:0:0:0:
215,198,84195,1,8,0:0:0:0:
236,195,84276,1,8,0:0:0:0:
256,188,84356,2,0,L|274:126,3,42.5,2|2|8|8,0:0|0:0|0:0|0:0,0:0:0:0:
319,255,84679,2,0,L|330:295,3,42.5,2|2|8|8,0:0|0:0|0:0|0:0,0:0:0:0:
369,147,85002,6,0,L|387:85,3,42.5,2|2|8|8,0:0|0:0|0:0|0:0,0:0:0:0:
448,217,85324,2,0,B|459:258|459:258|445:298,1,85,2|8,0:0|0:0,0:0:0:0:
444,298,85566,1,8,0:0:0:0:
444,298,85647,1,2,0:0:0:0:
94,307,85808,5,10,0:0:0:0:
373,151,85969,1,10,0:0:0:0:
137,126,86130,1,10,0:0:0:0:
350,323,86292,1,14,0:0:0:0:
