osu file format v14

[General]
AudioFilename: fluff.mp3
AudioLeadIn: 0
PreviewTime: 52824
Countdown: 0
SampleSet: Soft
StackLeniency: 0.7
Mode: 0
LetterboxInBreaks: 0
WidescreenStoryboard: 1

[Editor]
DistanceSpacing: 1
BeatDivisor: 4
GridSize: 4
TimelineZoom: 2.2

[Metadata]
Title:Light My Fire (TV Size)
TitleUnicode:Light My Fire (TV Size)
Artist:KOTOKO
ArtistUnicode:KOTOKO
Creator:Gaia
Version:Easy
Source:灼眼のシャナⅢ-FINAL-
Tags:p_a_n pan giralda okoratu okorin akitoshi -laura- corinn -yuzuriha -yuzuriha-inori- Shakugan no Shana III opening anime japanese
BeatmapID:1061701
BeatmapSetID:398134

[Difficulty]
HPDrainRate:2
CircleSize:3
OverallDifficulty:2
ApproachRate:3
SliderMultiplier:0.9
SliderTickRate:1

[Events]
//Background and Video events
Video,-106,"fire.mp4"
0,0,"shanaFire.jpg",0,0
//Break Periods
//Storyboard Layer 0 (Background)
//Storyboard Layer 1 (Fail)
//Storyboard Layer 2 (Pass)
//Storyboard Layer 3 (Foreground)
//Storyboard Layer 4 (Overlay)
//Storyboard Sound Samples

[TimingPoints]
559,322.58064516129,4,2,1,5,1,0
859,560.747663551402,4,2,1,5,1,0
1139,517.241379310345,4,2,1,5,1,0
1397,480,4,2,1,5,1,0
1637,444.444444444444,4,2,1,5,1,0
1859,416.666666666667,4,2,1,5,1,0
2067,397.350993377483,4,2,1,5,1,0
2265,389.61038961039,4,2,1,5,1,0
2459,387.096774193548,4,2,1,5,1,0
2652,384.615384615385,4,2,1,5,1,0
2849,382.165605095541,4,2,1,5,1,0
3040,307.692307692308,4,2,1,5,1,0
3193,260.869565217391,4,2,1,5,1,0
3323,244.897959183673,4,2,1,5,1,0
3445,243.90243902439,4,2,1,5,1,0
3566,242.914979757085,4,2,1,5,1,0
3687,241.935483870968,4,2,1,5,1,0
3812,240,4,2,1,5,1,0
3932,238.095238095238,4,2,1,5,1,0
4052,236.220472440945,4,2,1,5,1,0
4171,233.463035019455,4,2,1,5,1,0
4287,230.769230769231,4,2,1,5,1,0
4402,228.571428571429,4,2,1,5,1,0
4516,226.415094339623,4,2,1,5,1,0
4629,224.299065420561,4,2,1,5,1,0
4741,222.222222222222,4,2,1,5,1,0
4852,220.183486238532,4,2,1,5,1,0
4962,218.181818181818,4,2,1,5,1,0
5071,217.785843920145,4,2,1,5,1,0
5179,217.391304347826,4,2,1,5,1,0
5287,216.998191681736,4,2,1,5,1,0
5395,216.606498194946,4,2,1,5,1,0
5503,500,4,2,1,5,1,0
6496,322.58064516129,4,2,2,50,1,0
6496,-100,4,2,2,50,0,0
9076,-100,4,2,1,50,0,0
9883,-100,4,2,1,50,0,0
10366,-100,4,2,1,70,0,0
10850,-100,4,2,1,10,0,0
11012,-100,4,2,1,70,0,0
11495,-100,4,2,1,10,0,0
11615,322.58064516129,4,2,1,80,1,0
16131,-100,4,2,1,60,0,0
16776,-100,4,2,2,60,0,0
26292,-100,4,2,1,70,0,0
27098,-100,4,2,1,70,0,0
37421,-100,4,2,20,60,0,0
38066,-100,4,2,2,40,0,0
40002,-100,4,2,21,60,0,0
40647,-100,4,2,2,40,0,0
42582,-100,4,2,22,60,0,0
43227,-100,4,2,2,40,0,0
45163,-100,4,2,23,60,0,0
45808,-100,4,2,2,40,0,0
47744,-100,4,2,1,30,0,0
48389,-100,4,2,2,40,0,0
49034,-100,4,2,2,50,0,0
49679,-100,4,2,2,30,0,0
50163,-100,4,2,1,70,0,0
52905,-100,4,2,1,80,0,0
65808,-100,4,2,1,80,0,0
75647,-100,4,2,1,60,0,0
75969,-100,4,2,1,80,0,0
82260,-100,4,2,1,50,0,0
82421,-100,4,2,1,80,0,0
82582,-100,4,2,1,60,0,0
82744,-100,4,2,1,80,0,0
82905,-100,4,2,1,70,0,0
83066,-100,4,2,1,80,0,0
83550,-100,4,2,1,90,0,0
83711,-100,4,2,1,80,0,0

[Colours]
Combo1 : 236,19,19
Combo2 : 206,206,206
Combo3 : 255,121,121
Combo4 : 255,255,128
Combo5 : 255,149,43

[HitObjects]
71,291,6496,6,0,B|19:216|19:216|51:115,1,180,2|2,0:0|0:0,0:0:0:0:
112,70,7463,1,2,0:0:0:0:
176,133,7786,2,0,P|220:161|327:74,1,180,2|2,0:0|0:0,0:0:0:0:
380,38,8754,1,2,0:0:0:0:
461,75,9076,6,0,B|480:193|480:193|458:213|431:249,1,180,8|8,0:0|0:0,0:0:0:0:
291,339,10366,1,10,0:0:0:0:
226,159,11012,1,10,0:0:0:0:
90,258,11615,6,0,P|94:310|130:342,1,90,6|2,0:0|0:0,0:0:0:0:
208,326,12260,2,0,P|226:285|215:242,1,90,2|2,0:0|0:0,0:0:0:0:
167,166,12905,2,0,P|207:206|335:182,1,180,2|2,0:0|0:0,0:0:0:0:
378,124,13873,1,2,0:0:0:0:
432,52,14195,6,0,L|408:240,1,180,2|2,0:0|0:0,0:0:0:0:
436,316,15163,1,2,0:0:0:0:
352,348,15485,2,0,P|272:328|256:204,1,180,2|8,0:0|0:0,0:0:0:0:
152,85,16776,5,6,0:0:0:0:
20,207,17421,2,0,P|71:182|116:187,1,90,2|0,0:0|0:0,0:0:0:0:
155,256,18066,2,0,P|189:218|167:124,1,135,2|2,0:0|0:0,0:0:0:0:
135,61,18873,1,2,0:0:0:0:
55,104,19195,6,0,B|134:154|176:47|261:92|279:140|279:140|317:118|334:86|334:86|348:141|408:154,1,405,2|0,0:0|0:0,0:0:0:0:
462,305,21292,2,0,P|418:332|360:307,1,90,2|0,0:0|0:0,0:0:0:0:
377,236,21937,6,0,B|326:236|277:290|287:356|287:356|240:319|181:324|181:324|222:299|217:236,1,360,2|0,0:0|0:0,0:0:0:0:
101,113,23873,2,0,P|70:162|93:217,1,90,2|0,0:0|0:0,0:0:0:0:
137,255,24518,6,0,B|245:319|325:179|257:103|257:103|229:155|177:147,1,360,2|0,0:0|0:0,0:0:0:0:
45,49,26453,2,0,P|88:29|144:41,1,90,8|0,0:0|0:0,0:0:0:0:
152,120,27098,6,0,P|133:170|138:218,1,90,6|8,0:0|0:0,0:0:0:0:
207,259,27744,1,2,0:0:0:0:
279,205,28066,1,8,0:0:0:0:
356,251,28389,2,0,B|408:266|408:266|430:289|430:289|500:305,2,135,2|0|8,0:0|0:0|0:0,0:0:0:0:
284,305,29679,5,2,0:0:0:0:
207,259,30002,2,0,P|173:180|224:93,1,180,8|8,0:0|0:0,0:0:0:0:
286,49,30969,2,0,P|313:93|305:141,1,90,2|8,0:0|0:0,0:0:0:0:
373,194,31614,1,2,0:0:0:0:
444,248,31937,1,8,0:0:0:0:
418,334,32260,5,2,0:0:0:0:
343,283,32582,2,0,B|255:311|255:243|147:279,1,180,8|8,0:0|0:0,0:0:0:0:
102,335,33550,2,0,P|77:296|89:230,1,90,2|8,0:0|0:0,0:0:0:0:
41,171,34195,1,2,0:0:0:0:
118,125,34518,1,8,0:0:0:0:
195,169,34840,5,2,0:0:0:0:
274,127,35163,2,0,P|207:67|99:78,1,180,8|8,0:0|0:0,0:0:0:0:
34,91,36131,1,8,0:0:0:0:
24,180,36453,1,0,3:0:0:0:
18,269,36776,1,0,3:0:0:0:
177,353,37421,6,0,P|237:365|295:290,2,135,2|2|8,0:0|0:0|0:0,0:0:0:0:
143,269,38711,2,0,P|130:232|129:174,1,90,0|8,0:0|0:0,0:0:0:0:
208,140,39356,2,0,P|221:177|222:235,1,90,0|8,0:0|0:0,0:0:0:0:
295,281,40002,6,0,B|359:284|350:319|432:317,2,135,2|2|8,0:0|0:0|0:0,0:0:0:0:
223,336,41292,2,0,P|171:340|131:317,1,90,0|10,0:0|0:0,0:0:0:0:
92,245,41937,2,0,P|132:227|176:232,1,90,0|10,0:0|0:0,0:0:0:0:
255,188,42582,6,0,B|251:149|236:119|236:119|256:91|297:78,2,135,2|2|10,0:0|0:0|0:0,0:0:0:0:
282,273,43873,2,0,P|328:258|381:250,1,90,0|8,0:0|0:0,0:0:0:0:
458,240,44518,2,0,P|449:195|436:152,1,90,0|8,0:0|0:0,0:0:0:0:
378,83,45163,6,0,B|412:77|438:60|438:60|473:85|525:93,2,135,2|2|8,0:0|0:0|0:0,0:0:0:0:
317,149,46453,2,0,P|268:144|228:111,1,90,0|10,0:0|0:0,0:0:0:0:
163,65,47098,2,0,P|114:70|74:103,1,90,0|10,0:0|0:0,0:0:0:0:
27,165,47744,6,0,B|56:249|8:308|8:308|86:247|130:286|130:286|169:276|169:276|189:335|260:343|260:343|245:323|260:284|260:284|299:351|373:326,1,630,2|0,0:0|0:0,0:0:0:0:
389,248,50324,6,0,B|450:258|450:258|470:280|470:280|512:289,2,135,8|8|8,0:0|0:0|0:0,0:0:0:0:
276,173,51776,2,0,P|320:143|420:166,1,135,8|8,0:0|0:0,0:0:0:0:
402,330,52905,6,0,P|350:350|298:331,1,90,6|8,0:0|0:0,0:0:0:0:
253,279,53550,2,0,B|225:305|193:314|193:314|214:344|218:388,2,135,2|6|8,0:0|0:0|0:0,0:0:0:0:
240,189,54840,1,2,0:0:0:0:
284,110,55163,1,8,0:0:0:0:
212,55,55485,6,0,L|119:74,1,90,2|8,0:0|0:0,0:0:0:0:
66,142,56131,2,0,P|135:123|209:167,1,135,2|6,0:0|0:0,0:0:0:0:
272,307,57260,2,0,P|338:309|391:269,1,135,6|8,0:0|0:0,0:0:0:0:
363,183,58066,5,2,0:0:0:0:
408,105,58389,1,8,0:0:0:0:
339,46,58711,2,0,B|276:57|276:57|262:77|262:77|201:92,2,135,2|6|8,0:0|0:0|0:0,0:0:0:0:
421,82,60002,1,2,0:0:0:0:
455,164,60324,1,8,0:0:0:0:
422,248,60647,6,0,L|328:272,1,90,2|8,0:0|0:0,0:0:0:0:
267,329,61292,2,0,P|205:335|146:282,2,135,2|6|8,0:0|0:0|0:0,0:0:0:0:
319,256,62582,1,8,0:0:0:0:
269,180,62905,1,8,0:0:0:0:
340,125,63227,6,0,P|358:86|348:24,1,90,6|8,0:0|0:0,0:0:0:0:
268,66,63873,2,0,B|210:81|210:81|194:101|194:101|124:119,2,135,2|6|8,0:0|0:0|0:0,0:0:0:0:
319,140,65163,1,10,0:0:0:0:
395,302,65808,6,0,P|349:298|313:266,1,90,6|8,0:0|0:0,0:0:0:0:
230,242,66453,2,0,B|159:249|171:283|89:294,2,135,2|6|8,0:0|0:0|0:0,0:0:0:0:
303,189,67744,1,2,0:0:0:0:
314,99,68066,1,8,0:0:0:0:
249,35,68389,2,0,P|203:33|149:61,1,90,2|8,0:0|0:0,0:0:0:0:
84,94,69034,6,0,P|137:133|225:123,1,135,2|6,0:0|0:0,0:0:0:0:
344,245,70163,2,0,P|277:244|224:283,1,135,6|8,0:0|0:0,0:0:0:0:
168,354,70969,2,0,P|140:312|141:253,1,90,2|8,0:0|0:0,0:0:0:0:
165,188,71614,6,0,B|135:189|97:183|97:183|78:219|34:249,2,135,2|6|8,0:0|0:0|0:0,0:0:0:0:
222,117,72905,1,2,0:0:0:0:
301,159,73227,1,8,0:0:0:0:
375,109,73550,2,0,P|403:160|402:210,1,90,2|8,0:0|0:0,0:0:0:0:
365,271,74195,6,0,B|424:280|424:280|445:296|445:296|503:303,2,135,2|6|8,0:0|0:0|0:0,0:0:0:0:
286,226,75485,2,0,L|280:181,1,45,8|6,0:0|0:0,0:0:0:0:
209,125,75969,6,0,B|138:127|138:127|121:158|89:204,1,135,6|8,0:0|0:0,0:0:0:0:
85,269,76776,1,8,0:0:0:0:
144,336,77098,1,8,0:0:0:0:
230,310,77421,2,0,L|328:337,2,90,8|8|8,0:0|0:0|0:0,0:0:0:0:
230,219,78389,1,8,0:0:0:0:
282,146,78711,6,0,L|376:125,1,90,8|8,0:0|0:0,0:0:0:0:
443,74,79356,1,8,0:0:0:0:
506,138,79679,1,8,0:0:0:0:
475,222,80002,2,0,P|464:268|469:315,2,90,8|8|8,0:0|0:0|0:0,0:0:0:0:
401,170,80969,1,8,0:0:0:0:
341,237,81292,6,0,L|238:259,1,90,8|8,0:0|0:0,0:0:0:0:
185,315,81937,2,0,P|157:275|161:223,1,90,8|12,0:0|0:0,0:0:0:0:
147,145,82582,1,12,0:0:0:0:
177,60,82905,1,12,0:0:0:0:
261,29,83227,1,12,0:0:0:0:
348,50,83550,1,12,0:0:0:0:
411,114,83873,6,0,P|405:163|403:214,1,90,8|8,0:0|0:0,0:0:0:0:
351,277,84518,2,0,P|306:281|261:289,1,90,8|8,0:0|0:0,0:0:0:0:
180,327,85163,1,8,0:0:0:0:
122,257,85485,1,8,0:0:0:0:
109,167,85808,6,0,B|163:178|163:178|189:200|189:200|233:210,1,135,10|14,0:0|0:0,0:0:0:0:
