osu file format v14

[General]
AudioFilename: fluff.mp3
AudioLeadIn: 0
PreviewTime: 52824
Countdown: 0
SampleSet: Soft
StackLeniency: 0.7
Mode: 0
LetterboxInBreaks: 0
WidescreenStoryboard: 0

[Editor]
DistanceSpacing: 1.5
BeatDivisor: 4
GridSize: 8
TimelineZoom: 1.6

[Metadata]
Title:Light My Fire (TV Size)
TitleUnicode:Light My Fire (TV Size)
Artist:KOTOKO
ArtistUnicode:KOTOKO
Creator:Gaia
Version:-Yuzuriha's Insane
Source:灼眼のシャナⅢ-FINAL-
Tags:p_a_n pan giralda okoratu okorin akitoshi -laura- corinn -yuzuriha -yuzuriha-inori- Shakugan no Shana III opening anime japanese
BeatmapID:3916002
BeatmapSetID:398134

[Difficulty]
HPDrainRate:7
CircleSize:4
OverallDifficulty:7
ApproachRate:9
SliderMultiplier:1.5
SliderTickRate:1

[Events]
//Background and Video events
Video,-106,"fire.mp4"
0,0,"shanaFire.jpg",0,0
//Break Periods
//Storyboard Layer 0 (Background)
//Storyboard Layer 1 (Fail)
//Storyboard Layer 2 (Pass)
//Storyboard Layer 3 (Foreground)
//Storyboard Layer 4 (Overlay)
//Storyboard Sound Samples

[TimingPoints]
559,322.58064516129,4,2,1,5,1,0
859,560.747663551402,4,2,1,5,1,0
1139,517.241379310345,4,2,1,5,1,0
1397,480,4,2,1,5,1,0
1637,444.444444444444,4,2,1,5,1,0
1859,416.666666666667,4,2,1,5,1,0
2067,397.350993377483,4,2,1,5,1,0
2265,389.61038961039,4,2,1,5,1,0
2459,387.096774193548,4,2,1,5,1,0
2652,384.615384615385,4,2,1,5,1,0
2849,382.165605095541,4,2,1,5,1,0
3040,307.692307692308,4,2,1,5,1,0
3193,260.869565217391,4,2,1,5,1,0
3323,244.897959183673,4,2,1,5,1,0
3445,243.90243902439,4,2,1,5,1,0
3566,242.914979757085,4,2,1,5,1,0
3687,241.935483870968,4,2,1,5,1,0
3812,240,4,2,1,5,1,0
3932,238.095238095238,4,2,1,5,1,0
4052,236.220472440945,4,2,1,5,1,0
4171,233.463035019455,4,2,1,5,1,0
4287,230.769230769231,4,2,1,5,1,0
4402,228.571428571429,4,2,1,5,1,0
4516,226.415094339623,4,2,1,5,1,0
4629,224.299065420561,4,2,1,5,1,0
4741,222.222222222222,4,2,1,5,1,0
4852,220.183486238532,4,2,1,5,1,0
4962,218.181818181818,4,2,1,5,1,0
5071,217.785843920145,4,2,1,5,1,0
5179,217.391304347826,4,2,1,5,1,0
5287,216.998191681736,4,2,1,5,1,0
5395,216.606498194946,4,2,1,5,1,0
5503,500,4,2,1,5,1,0
6496,322.58064516129,4,2,4,50,1,0
10366,-100,4,2,1,60,0,0
11615,322.58064516129,4,2,1,80,1,0
16776,-133.333333333333,4,2,4,70,0,0
26292,-133.333333333333,4,2,1,80,0,0
27098,-100,4,2,1,80,0,0
37421,-133.333333333333,4,2,4,70,0,0
47744,-133.333333333333,4,2,1,40,0,0
50163,-133.333333333333,4,2,1,5,0,0
50324,-100,4,2,1,80,0,0
52905,-100,4,2,1,80,0,1
62582,-100,4,2,1,80,0,0
63227,-100,4,2,1,80,0,1
65485,-100,4,2,1,80,0,0
65808,-100,4,2,1,80,0,1
75969,-100,4,2,1,80,0,0

[Colours]
Combo1 : 236,19,19
Combo2 : 206,206,206
Combo3 : 255,121,121
Combo4 : 255,255,128
Combo5 : 255,149,43

[HitObjects]
351,167,6496,6,0,P|297:176|259:176,1,75,2|0,0:0|0:0,0:0:0:0:
193,251,6818,2,0,P|247:260|285:260,1,75,2|0,0:0|0:0,0:0:0:0:
293,255,7060,1,0,0:0:0:0:
293,255,7141,1,2,0:0:0:0:
403,232,7302,1,0,0:0:0:0:
422,121,7463,1,2,0:0:0:0:
336,47,7625,1,0,0:0:0:0:
336,47,7705,1,0,0:0:0:0:
336,47,7786,6,0,P|322:93|321:136,1,75,2|0,0:0|0:0,0:0:0:0:
222,174,8108,2,0,P|216:109|225:68,1,75,2|0,0:0|0:0,0:0:0:0:
228,70,8350,1,0,0:0:0:0:
228,70,8431,1,2,0:0:0:0:
320,119,8592,1,0,0:0:0:0:
315,231,8754,1,2,0:0:0:0:
227,301,8915,1,0,0:0:0:0:
227,301,8995,1,0,0:0:0:0:
227,301,9076,6,0,P|177:298|149:288,2,75,2|0|2,0:0|0:0|0:0,0:0:0:0:
208,189,9560,1,0,0:0:0:0:
105,235,9721,1,2,0:0:0:0:
157,134,9883,2,0,P|206:190|297:169,1,150
348,99,10366,5,8,0:0:0:0:
246,49,10528,1,8,0:0:0:0:
164,285,11012,1,8,0:0:0:0:
266,335,11173,1,8,0:0:0:0:
266,335,11615,6,0,P|249:253|251:185,1,150,6|2,0:0|0:0,0:0:0:0:
310,91,12098,1,0,0:0:0:0:
373,184,12260,1,2,0:0:0:0:
355,61,12421,2,0,L|253:66,1,75,0|2,0:0|0:0,0:0:0:0:
178,113,12744,1,0,0:0:0:0:
220,272,12905,6,0,P|258:234|237:126,1,150,2|2,0:0|0:0,0:0:0:0:
141,120,13389,1,0,0:0:0:0:
76,211,13550,1,2,0:0:0:0:
65,99,13711,2,0,P|85:65|133:43,1,75,0|2,0:0|0:0,0:0:0:0:
227,39,14034,1,0,0:0:0:0:
376,121,14195,6,0,P|305:157|232:97,1,150,2|2,0:0|0:0,0:0:0:0:
312,35,14679,1,0,0:0:0:0:
376,121,14840,1,2,0:0:0:0:
363,233,15002,2,0,P|326:208|305:167,1,75,0|2,0:0|0:0,0:0:0:0:
307,70,15324,1,0,0:0:0:0:
229,150,15485,5,2,0:0:0:0:
124,108,15647,1,2,0:0:0:0:
395,308,16131,1,2,0:0:0:0:
290,266,16293,1,2,0:0:0:0:
290,266,16776,6,0,P|278:225|286:135,1,112.500004291535,4|2,0:0|0:0,0:0:0:0:
317,79,17260,1,0,0:0:0:0:
235,58,17421,2,0,P|204:78|116:92,1,112.500004291535,0|2,0:0|0:0,0:0:0:0:
46,96,17905,1,0,0:0:0:0:
102,158,18066,5,0,0:0:0:0:
134,235,18227,2,0,P|146:267|155:308,1,56.2500021457673,0|2,0:0|0:0,0:0:0:0:
230,317,18550,2,0,P|242:285|251:244,1,56.2500021457673
304,200,18873,1,0,0:0:0:0:
263,126,19034,2,0,P|226:129|195:130,1,56.2500021457673,2|0,0:0|0:0,0:0:0:0:
246,41,19356,6,0,P|284:54|370:60,1,112.500004291535,0|2,0:0|0:0,0:0:0:0:
440,58,19840,1,0,0:0:0:0:
468,137,20002,2,0,P|453:177|394:227,1,112.500004291535,0|2,0:0|0:0,0:0:0:0:
328,183,20485,1,0,0:0:0:0:
247,155,20647,6,0,L|259:283,1,112.500004291535,0|2,0:0|0:0,0:0:0:0:
257,267,21131,1,0,0:0:0:0:
183,226,21292,1,0,0:0:0:0:
99,237,21453,2,0,P|122:283|145:302,1,56.2500021457673,0|2,0:0|0:0,0:0:0:0:
196,330,21776,1,0,0:0:0:0:
352,310,21937,6,0,P|328:282|249:269,1,112.500004291535,0|2,0:0|0:0,0:0:0:0:
183,226,22421,1,0,0:0:0:0:
212,146,22582,2,0,P|236:174|315:187,1,112.500004291535,0|2,0:0|0:0,0:0:0:0:
384,152,23066,1,0,0:0:0:0:
393,68,23227,6,0,L|269:77,1,112.500004291535,0|2,0:0|0:0,0:0:0:0:
202,109,23711,1,0,0:0:0:0:
132,60,23873,1,0,0:0:0:0:
75,122,24034,2,0,P|96:152|109:188,1,56.2500021457673,0|2,0:0|0:0,0:0:0:0:
99,253,24356,1,0,0:0:0:0:
175,358,24518,6,0,P|200:323|175:239,1,112.500004291535,0|2,0:0|0:0,0:0:0:0:
192,172,25002,1,0,0:0:0:0:
263,218,25163,2,0,P|238:253|263:337,1,112.500004291535,0|2,0:0|0:0,0:0:0:0:
325,350,25647,1,0,0:0:0:0:
407,333,25808,6,0,L|394:197,1,112.500004291535,0|2,0:0|0:0,0:0:0:0:
347,119,26292,1,0,0:0:0:0:
347,119,26373,1,0,0:0:0:0:
347,119,26453,1,8,0:0:0:0:
248,159,26614,2,0,P|246:193|250:234,1,56.2500021457673,2|0,0:0|0:0,0:0:0:0:
370,281,26937,1,2,0:0:0:0:
224,262,27098,6,0,P|215:185|224:98,1,150,6|8,0:0|0:0,0:0:0:0:
220,113,27582,1,0,0:0:0:0:
329,79,27744,2,0,P|381:93|416:115,1,75,2|2,0:0|0:0,0:0:0:0:
463,195,28066,2,0,L|374:211,1,75,8|0,0:0|0:0,0:0:0:0:
279,180,28389,5,2,0:0:0:0:
365,290,28550,2,0,L|454:274,1,75,2|8,0:0|0:0,0:0:0:0:
306,350,28873,2,0,P|287:309|288:263,1,75,2|0,0:0|0:0,0:0:0:0:
320,173,29195,1,2,0:0:0:0:
221,118,29356,2,0,P|206:171|204:209,1,75,8|0,0:0|0:0,0:0:0:0:
80,263,29679,6,0,P|147:299|219:247,1,150,2|8,0:0|0:0,0:0:0:0:
279,180,30163,1,0,0:0:0:0:
328,281,30324,1,2,0:0:0:0:
353,171,30485,2,0,L|270:180,1,75,2|8,0:0|0:0,0:0:0:0:
167,156,30808,1,0,0:0:0:0:
230,63,30969,6,0,P|309:95|377:48,1,150,2|8,0:0|0:0,0:0:0:0:
354,203,31453,1,2,0:0:0:0:
297,96,31614,1,0,0:0:0:0:
272,203,31776,2,0,P|286:245|311:271,1,75,2|8,0:0|0:0,0:0:0:0:
418,263,32098,1,0,0:0:0:0:
340,345,32260,6,0,P|321:283|243:246,1,150,2|8,0:0|0:0,0:0:0:0:
136,251,32744,1,0,0:0:0:0:
207,164,32905,1,2,0:0:0:0:
103,206,33066,2,0,L|113:306,1,75,2|8,0:0|0:0,0:0:0:0:
201,347,33389,1,0,0:0:0:0:
88,340,33550,6,0,L|71:158,1,150,2|8,0:0|0:0,0:0:0:0:
122,88,34034,1,0,0:0:0:0:
207,164,34195,1,2,0:0:0:0:
266,68,34356,2,0,P|233:32|192:6,1,75,2|8,0:0|0:0,0:0:0:0:
122,88,34679,1,0,0:0:0:0:
207,164,34840,6,0,B|247:177|247:177|290:166|290:166|321:182|362:171,1,150,2|8,0:0|0:0,0:0:0:0:
450,229,35324,1,0,0:0:0:0:
341,198,35485,1,2,0:0:0:0:
327,85,35647,2,0,P|363:63|403:57,1,75,2|8,0:0|0:0,0:0:0:0:
470,139,35969,1,0,0:0:0:0:
441,248,36131,5,2,0:0:0:0:
441,248,36211,1,8,0:0:0:0:
441,248,36292,2,0,L|344:234,1,75,2|2,0:0|0:0,0:0:0:0:
262,194,36614,1,8,0:0:0:0:
262,194,36695,1,8,0:0:0:0:
262,194,36776,1,10,0:0:0:0:
338,111,36937,1,2,0:0:0:0:
252,37,37098,2,0,P|213:59|191:88,1,75,0|2,0:0|0:0,0:0:0:0:
165,191,37421,6,0,L|175:312,1,112.500004291535,4|2,0:0|0:0,0:0:0:0:
93,276,37905,1,0,0:0:0:0:
201,245,38066,2,0,P|246:263|317:231,1,112.500004291535,0|2,0:0|0:0,0:0:0:0:
379,283,38550,6,0,P|334:265|263:297,1,112.500004291535
254,185,39034,1,2,0:0:0:0:
336,191,39195,2,0,P|364:188|409:162,1,56.2500021457673
264,101,39518,2,0,P|236:104|191:130,1,56.2500021457673,0|2,0:0|0:0,0:0:0:0:
151,54,39840,1,0,0:0:0:0:
98,120,40002,5,0,0:0:0:0:
102,204,40163,2,0,P|104:236|93:273,2,56.2500021457673,0|2|0,0:0|0:0|0:0,0:0:0:0:
21,230,40647,2,0,P|22:293|65:336,1,112.500004291535,0|2,0:0|0:0,0:0:0:0:
137,332,41131,6,0,L|252:329,1,112.500004291535
324,291,41614,2,0,P|361:287|405:291,1,56.2500021457673,2|0,0:0|0:0,0:0:0:0:
461,311,41937,1,0,0:0:0:0:
473,227,42098,2,0,P|441:205|414:193,1,56.2500021457673,0|2,0:0|0:0,0:0:0:0:
345,168,42421,1,0,0:0:0:0:
235,231,42582,5,0,0:0:0:0:
166,181,42744,2,0,P|160:138|161:111,2,56.2500021457673,0|2|0,0:0|0:0|0:0,0:0:0:0:
261,288,43227,2,0,L|268:150,1,112.500004291535,0|2,0:0|0:0,0:0:0:0:
300,98,43711,6,0,L|293:236,1,112.500004291535
261,288,44195,2,0,P|195:311|189:311,1,56.2500021457673,2|0,0:0|0:0,0:0:0:0:
149,249,44518,1,0,0:0:0:0:
78,294,44679,1,0,0:0:0:0:
149,249,44840,2,0,P|161:213|164:175,1,56.2500021457673,2|0,0:0|0:0,0:0:0:0:
190,114,45163,5,0,0:0:0:0:
113,78,45324,1,0,0:0:0:0:
183,31,45485,2,0,P|213:35|247:49,1,56.2500021457673,2|0,0:0|0:0,0:0:0:0:
299,101,45808,2,0,B|341:96|341:96|426:105,1,112.500004291535,0|2,0:0|0:0,0:0:0:0:
450,178,46292,6,0,B|408:183|408:183|323:174,1,112.500004291535
258,203,46776,1,2,0:0:0:0:
296,277,46937,1,0,0:0:0:0:
379,289,47098,1,0,0:0:0:0:
297,312,47260,2,0,P|246:312|219:307,1,56.2500021457673,0|2,0:0|0:0,0:0:0:0:
186,246,47582,1,0,0:0:0:0:
107,277,47744,5,2,0:0:0:0:
256,192,47824,12,0,50163,0:0:0:0:
255,198,50324,5,8,0:0:0:0:
372,105,50485,1,8,0:0:0:0:
261,86,50647,1,2,0:0:0:0:
261,86,50727,1,2,0:0:0:0:
261,86,50808,1,8,0:0:0:0:
293,193,50969,2,0,P|292:252|285:283,1,75,8|2,0:0|0:0,0:0:0:0:
201,236,51292,1,8,0:0:0:0:
380,259,51453,6,0,P|367:302|346:348,1,75,8|2,0:0|0:0,0:0:0:0:
210,320,51776,1,8,0:0:0:0:
239,211,51937,1,8,0:0:0:0:
89,130,52098,1,2,0:0:0:0:
89,130,52179,1,2,0:0:0:0:
89,130,52260,1,8,0:0:0:0:
112,239,52421,1,8,0:0:0:0:
112,239,52905,6,0,B|155:215|155:215|187:214|187:214|220:188|275:197,1,150,6|8,0:0|0:0,0:0:0:0:
181,295,53389,1,0,0:0:0:0:
293,255,53550,2,0,P|269:211|243:188,1,75,2|2,0:0|0:0,0:0:0:0:
313,99,53873,1,8,0:0:0:0:
210,174,54034,6,0,B|253:197|253:197|304:169|373:202,1,150,6|0,0:0|0:0,0:0:0:0:
351,192,54518,1,8,0:0:0:0:
345,79,54679,1,0,0:0:0:0:
228,89,54840,2,0,P|187:94|137:127,1,75,2|2,0:0|0:0,0:0:0:0:
127,217,55163,1,8,0:0:0:0:
45,139,55324,1,0,0:0:0:0:
109,293,55485,6,0,P|154:291|202:200,1,150,2|8,0:0|0:0,0:0:0:0:
157,108,55969,1,2,0:0:0:0:
157,108,56050,1,8,0:0:0:0:
157,108,56131,1,0,0:0:0:0:
298,170,56292,2,0,L|290:260,1,75,2|8,0:0|0:0,0:0:0:0:
339,72,56614,6,0,L|325:221,1,150,6|0,0:0|0:0,0:0:0:0:
415,152,57098,1,8,0:0:0:0:
267,32,57260,2,0,L|253:181,1,150,6|2,0:0|0:0,0:0:0:0:
242,290,57744,1,8,0:0:0:0:
181,206,57905,1,0,0:0:0:0:
304,234,58066,6,0,P|262:255|178:194,1,150,6|8,0:0|0:0,0:0:0:0:
153,96,58550,1,0,0:0:0:0:
106,214,58711,2,0,L|192:204,1,75,2|2,0:0|0:0,0:0:0:0:
266,125,59034,1,8,0:0:0:0:
429,237,59195,6,0,P|399:263|296:217,1,150,6|0,0:0|0:0,0:0:0:0:
266,125,59679,1,8,0:0:0:0:
379,118,59840,1,2,0:0:0:0:
379,118,59921,1,8,0:0:0:0:
379,118,60002,2,0,L|367:192,1,75,0|2,0:0|0:0,0:0:0:0:
332,298,60324,1,8,0:0:0:0:
251,219,60485,1,0,0:0:0:0:
327,377,60647,6,0,B|276:369|257:327|257:327|231:343|188:340,1,150,2|8,0:0|0:0,0:0:0:0:
137,245,61131,2,0,P|188:260|217:263,1,75,2|0,0:0|0:0,0:0:0:0:
332,298,61453,1,2,0:0:0:0:
209,262,61614,1,8,0:0:0:0:
332,223,61776,6,0,P|334:271|329:309,1,75,6|0,0:0|0:0,0:0:0:0:
250,188,62098,1,2,0:0:0:0:
339,118,62260,1,8,0:0:0:0:
254,44,62421,1,2,0:0:0:0:
254,44,62502,1,2,0:0:0:0:
254,44,62582,1,8,0:0:0:0:
250,188,62744,1,8,0:0:0:0:
339,118,62905,1,8,0:0:0:0:
189,134,63066,1,8,0:0:0:0:
379,184,63227,6,0,P|409:149|365:46,1,150,6|8,0:0|0:0,0:0:0:0:
271,68,63711,1,0,0:0:0:0:
250,188,63873,1,2,0:0:0:0:
189,91,64034,2,0,P|193:42|206:13,1,75,2|8,0:0|0:0,0:0:0:0:
58,122,64356,6,0,P|129:140|139:231,1,150,6|0,0:0|0:0,0:0:0:0:
250,158,64840,1,8,0:0:0:0:
222,267,65002,1,0,0:0:0:0:
222,267,65082,1,8,0:0:0:0:
222,267,65163,1,0,0:0:0:0:
189,91,65324,1,8,0:0:0:0:
189,91,65808,6,0,B|170:156|170:156|181:191|181:191|157:198|135:241,1,150,6|8,0:0|0:0,0:0:0:0:
147,220,66292,1,0,0:0:0:0:
250,158,66453,2,0,P|292:186|326:200,1,75,2|2,0:0|0:0,0:0:0:0:
400,123,66776,1,8,0:0:0:0:
373,245,66937,6,0,P|313:230|225:184,1,150,6|0,0:0|0:0,0:0:0:0:
189,91,67421,1,8,0:0:0:0:
295,55,67582,1,0,0:0:0:0:
155,50,67744,2,0,L|161:141,1,75,2|2,0:0|0:0,0:0:0:0:
203,228,68066,1,8,0:0:0:0:
338,141,68227,1,0,0:0:0:0:
338,141,68308,1,0,0:0:0:0:
338,141,68389,6,0,B|358:122|358:122|226:150,1,150,2|8,0:0|0:0,0:0:0:0:
185,247,68873,1,2,0:0:0:0:
277,310,69034,1,0,0:0:0:0:
135,317,69195,2,0,P|106:271|102:233,1,75,2|8,0:0|0:0,0:0:0:0:
190,172,69518,6,0,L|183:273,1,75,6|0,0:0|0:0,0:0:0:0:
251,337,69840,1,0,0:0:0:0:
346,277,70002,1,8,0:0:0:0:
267,154,70163,2,0,L|260:255,1,75,2|0,0:0|0:0,0:0:0:0:
342,307,70485,1,2,0:0:0:0:
444,258,70647,1,8,0:0:0:0:
438,370,70808,1,0,0:0:0:0:
342,307,70969,6,0,L|352:150,1,150,6|8,0:0|0:0,0:0:0:0:
246,41,71453,1,0,0:0:0:0:
246,41,71534,1,8,0:0:0:0:
246,41,71614,2,0,P|249:94|255:139,1,75,2|2,0:0|0:0,0:0:0:0:
308,213,71937,1,8,0:0:0:0:
141,184,72098,6,0,P|164:135|261:119,1,150,6|0,0:0|0:0,0:0:0:0:
351,168,72582,1,8,0:0:0:0:
225,194,72744,1,2,0:0:0:0:
334,296,72905,1,0,0:0:0:0:
413,218,73066,2,0,P|430:168|416:120,1,75,2|8,0:0|0:0,0:0:0:0:
391,39,73389,1,0,0:0:0:0:
351,168,73550,6,0,B|411:218|411:218|389:254|409:316,1,150,2|8,0:0|0:0,0:0:0:0:
330,375,74034,1,2,0:0:0:0:
311,265,74195,1,0,0:0:0:0:
201,239,74356,2,0,P|208:303|227:337,1,75,2|8,0:0|0:0,0:0:0:0:
311,265,74679,1,4,0:0:0:0:
190,178,74840,6,0,P|174:263|196:341,1,150,0|8,0:0|0:0,0:0:0:0:
76,343,75324,2,0,P|81:294|98:251,1,75,2|8,0:0|0:0,0:0:0:0:
50,163,75647,1,6,0:0:0:0:
272,131,75969,6,0,B|288:179|288:179|272:218|265:229|292:299,1,150,6|0,0:0|0:0,0:0:0:0:
388,232,76453,2,0,P|399:186|391:145,1,75,8|2,0:0|0:0,0:0:0:0:
377,47,76776,2,0,L|277:59,1,75,8|2,0:0|0:0,0:0:0:0:
240,149,77098,2,0,L|340:137,1,75,8|2,0:0|0:0,0:0:0:0:
346,151,77340,1,0,0:0:0:0:
346,151,77421,6,0,L|446:139,1,75,8|2,0:0|0:0,0:0:0:0:
474,241,77744,1,8,0:0:0:0:
401,326,77905,1,2,0:0:0:0:
401,326,77985,1,0,0:0:0:0:
401,326,78066,2,2,P|341:328|297:319,1,75,8|2,0:0|0:0,0:0:0:0:
240,252,78389,2,0,P|300:254|344:245,1,75,8|2,0:0|0:0,0:0:0:0:
252,158,78711,6,0,P|212:135|189:109,1,75,12|2,0:0|0:0,0:0:0:0:
175,84,78953,1,0,0:0:0:0:
175,84,79034,2,0,P|137:111|84:130,1,75,8|2,0:0|0:0,0:0:0:0:
34,204,79356,1,8,0:0:0:0:
94,299,79518,1,2,0:0:0:0:
205,314,79679,2,0,P|221:270|225:230,1,75,8|2,0:0|0:0,0:0:0:0:
330,201,80002,6,0,P|314:245|310:285,1,75,8|2,0:0|0:0,0:0:0:0:
422,282,80324,1,8,0:0:0:0:
439,171,80485,1,2,0:0:0:0:
439,171,80566,1,0,0:0:0:0:
439,171,80647,2,0,P|407:117|384:93,1,75,8|2,0:0|0:0,0:0:0:0:
373,90,80889,1,0,0:0:0:0:
373,90,80969,2,0,L|289:106,1,75,8|2,0:0|0:0,0:0:0:0:
272,90,81211,1,0,0:0:0:0:
272,90,81292,6,0,L|188:106,1,75,12|2,0:0|0:0,0:0:0:0:
120,184,81614,1,8,0:0:0:0:
204,258,81776,1,2,0:0:0:0:
204,258,81856,1,0,0:0:0:0:
204,258,81937,2,0,P|251:265|294:261,1,75,8|2,0:0|0:0,0:0:0:0:
309,250,82179,1,0,0:0:0:0:
309,250,82260,1,8,0:0:0:0:
386,168,82421,1,2,0:0:0:0:
386,168,82502,1,0,0:0:0:0:
386,168,82582,6,0,P|410:205|427:244,1,75,8|2,0:0|0:0,0:0:0:0:
452,243,82824,1,0,0:0:0:0:
452,243,82905,2,0,P|483:195|487:166,1,75,8|2,0:0|0:0,0:0:0:0:
471,66,83227,2,0,L|388:70,1,75,8|2,0:0|0:0,0:0:0:0:
367,56,83469,1,0,0:0:0:0:
367,56,83550,2,0,P|315:53|281:53,1,75,8|2,0:0|0:0,0:0:0:0:
188,98,83873,5,8,0:0:0:0:
169,121,83953,1,8,0:0:0:0:
151,145,84034,2,0,L|155:197,1,37.5,2|0,0:0|0:0,0:0:0:0:
148,212,84196,5,8,0:0:0:0:
129,235,84276,1,8,0:0:0:0:
111,259,84357,2,0,L|115:311,1,37.5,2|0,0:0|0:0,0:0:0:0:
127,323,84518,6,0,L|118:375,3,37.5,8|0|0|0,0:0|0:0|0:0|0:0,0:0:0:0:
205,308,84840,2,0,L|196:360,3,37.5,8|0|0|0,0:0|0:0|0:0|0:0,0:0:0:0:
286,296,85163,6,0,L|277:348,3,37.5,8|0|0|0,0:0|0:0|0:0|0:0,0:0:0:0:
364,281,85485,2,0,L|355:333,3,37.5,8|0|0|0,0:0|0:0|0:0|0:0,0:0:0:0:
440,263,85808,1,8,0:0:0:0:
298,213,85969,1,8,0:0:0:0:
405,107,86131,1,8,0:0:0:0:
267,47,86292,1,12,0:0:0:0:
