osu file format v14

[General]
AudioFilename: audio.mp3
AudioLeadIn: 0
PreviewTime: 79108
Countdown: 0
SampleSet: Normal
StackLeniency: 0.7
Mode: 1
LetterboxInBreaks: 0
WidescreenStoryboard: 0

[Editor]
DistanceSpacing: 1.2
BeatDivisor: 4
GridSize: 32
TimelineZoom: 2.699999

[Metadata]
Title:Koi Kou Enishi (ESTA Remix)
TitleUnicode:恋ひ恋ふ縁 (ESTA Remix)
Artist:KOTOKO
ArtistUnicode:KOTOKO
Creator:ler1211
Version:Bloom
Source:千恋*万花
Tags:uranosu1030 senren banka: a thousand colors colours of love esta* Asai Yasuo 尾上秀樹 Ogami Hideki Famishin 井ノ原 智 Inohara Satoru Angel Note yuzusoft ゆずソフト visual novel vn ビジュアルノベル eroge opening japanese electronic jcore j-core hardcore bootleg onoe yoshihiko
BeatmapID:3604301
BeatmapSetID:1761048

[Difficulty]
HPDrainRate:5
CircleSize:5
OverallDifficulty:6.5
ApproachRate:5
SliderMultiplier:1.4
SliderTickRate:1

[Events]
//Background and Video events
0,0,"murasame my wife.jpg",0,90
//Break Periods
//Storyboard Layer 0 (Background)
//Storyboard Layer 1 (Fail)
//Storyboard Layer 2 (Pass)
//Storyboard Layer 3 (Foreground)
//Storyboard Layer 4 (Overlay)
//Storyboard Sound Samples

[TimingPoints]
1451,342.857142857143,4,1,0,80,1,0
1451,-105.263157894737,4,1,0,80,0,0
12422,-100,4,1,0,80,0,0
45508,-108.695652173913,4,1,0,80,0,0
50819,-108.695652173913,4,1,0,80,0,0
50905,-108.554131596178,4,1,0,80,0,0
50990,-108.412795276723,4,1,0,80,0,0
51076,-108.271642975645,4,1,0,80,0,0
51162,-108.130674453356,4,1,0,80,0,0
51248,-107.989889470576,4,1,0,80,0,0
51333,-107.849287788339,4,1,0,80,0,0
51419,-107.708869167991,4,1,0,80,0,0
51505,-107.568633371185,4,1,0,80,0,0
51590,-107.428580159889,4,1,0,80,0,0
51676,-107.288709296378,4,1,0,80,0,0
51762,-107.149020543236,4,1,0,80,0,0
51848,-107.009513663359,4,1,0,80,0,0
51933,-106.870188419948,4,1,0,80,0,0
52019,-106.731044576515,4,1,0,80,0,0
52105,-106.59208189688,4,1,0,80,0,0
52190,-106.45330014517,4,1,0,80,0,0
52276,-106.314699085817,4,1,0,80,0,0
52362,-106.176278483562,4,1,0,80,0,0
52448,-106.038038103452,4,1,0,80,0,0
52533,-105.899977710841,4,1,0,80,0,0
52619,-105.762097071385,4,1,0,80,0,0
52705,-105.624395951049,4,1,0,80,0,0
52790,-105.4868741161,4,1,0,80,0,0
52876,-105.34953133311,4,1,0,80,0,0
52962,-105.212367368957,4,1,0,80,0,0
53048,-105.075381990819,4,1,0,80,0,0
53133,-104.938574966181,4,1,0,80,0,0
53219,-104.801946062826,4,1,0,80,0,0
53305,-104.665495048844,4,1,0,80,0,0
53390,-104.529221692624,4,1,0,80,0,0
53476,-104.393125762857,4,1,0,80,0,0
53562,-104.257207028538,4,1,0,80,0,0
53648,-104.121465258957,4,1,0,80,0,0
53733,-103.985900223711,4,1,0,80,0,0
53819,-103.850511692692,4,1,0,80,0,0
53905,-103.715299436094,4,1,0,80,0,0
53990,-103.580263224409,4,1,0,80,0,0
54076,-103.445402828429,4,1,0,80,0,0
54162,-103.310718019243,4,1,0,80,0,0
54248,-103.17620856824,4,1,0,80,0,0
54333,-103.041874247105,4,1,0,80,0,0
54419,-102.907714827821,4,1,0,80,0,0
54505,-102.773730082667,4,1,0,80,0,0
54590,-102.63991978422,4,1,0,80,0,0
54676,-102.506283705351,4,1,0,80,0,0
54762,-102.37282161923,4,1,0,80,0,0
54848,-102.239533299318,4,1,0,80,0,0
54933,-102.106418519375,4,1,0,80,0,0
55019,-101.973477053453,4,1,0,80,0,0
55105,-101.840708675899,4,1,0,80,0,0
55190,-101.708113161355,4,1,0,80,0,0
55276,-101.575690284753,4,1,0,80,0,0
55362,-101.443439821322,4,1,0,80,0,0
55448,-101.311361546581,4,1,0,80,0,0
55533,-101.179455236342,4,1,0,80,0,0
55619,-101.04772066671,4,1,0,80,0,0
55705,-100.916157614081,4,1,0,80,0,0
55790,-100.78476585514,4,1,0,80,0,0
55876,-100.653545166865,4,1,0,80,0,0
55962,-100.522495326524,4,1,0,80,0,0
56048,-100.391616111675,4,1,0,80,0,0
56133,-100.260907300166,4,1,0,80,0,0
56219,-100.130368670132,4,1,0,80,0,0
56305,-100,4,1,0,80,0,0
65905,-100,4,1,0,80,0,0
65991,-100.321097507074,4,1,0,80,0,0
66076,-100.643226050239,4,1,0,80,0,0
66162,-100.966388940126,4,1,0,80,0,0
66248,-101.290589497996,4,1,0,80,0,0
66334,-101.615831055775,4,1,0,80,0,0
66419,-101.942116956088,4,1,0,80,0,0
66505,-102.269450552293,4,1,0,80,0,0
66591,-102.597835208515,4,1,0,80,0,0
66676,-102.927274299682,4,1,0,80,0,0
66762,-103.257771211558,4,1,0,80,0,0
66848,-103.589329340779,4,1,0,80,0,0
66934,-103.921952094888,4,1,0,80,0,0
67019,-104.255642892368,4,1,0,80,0,0
67105,-104.590405162679,4,1,0,80,0,0
67191,-104.926242346296,4,1,0,80,0,0
67276,-105.263157894737,4,1,0,80,0,0
72762,-105.263157894737,4,1,0,80,0,0
72848,-105.022309717833,4,1,0,80,0,0
72933,-104.78201261545,4,1,0,80,0,0
73019,-104.542265326697,4,1,0,80,0,0
73105,-104.30306659357,4,1,0,80,0,0
73191,-104.064415160942,4,1,0,80,0,0
73276,-103.826309776557,4,1,0,80,0,0
73362,-103.588749191025,4,1,0,80,0,0
73448,-103.351732157816,4,1,0,80,0,0
73533,-103.11525743325,4,1,0,80,0,0
73619,-102.879323776494,4,1,0,80,0,0
73705,-102.643929949553,4,1,0,80,0,0
73791,-102.409074717266,4,1,0,80,0,0
73876,-102.174756847297,4,1,0,80,0,0
73962,-101.94097511013,4,1,0,80,0,0
74048,-101.707728279063,4,1,0,80,0,0
74133,-101.475015130199,4,1,0,80,0,0
74219,-101.242834442442,4,1,0,80,0,0
74305,-101.011184997491,4,1,0,80,0,0
74391,-100.780065579832,4,1,0,80,0,0
74476,-100.549474976732,4,1,0,80,0,0
74562,-100.319411978232,4,1,0,80,0,0
74648,-100.089875377143,4,1,0,80,0,0
74733,-99.8608639690374,4,1,0,80,0,0
74819,-99.6323765522428,4,1,0,80,0,0
74905,-99.404411927837,4,1,0,80,0,0
74991,-99.176968899641,4,1,0,80,0,0
75076,-98.9500462742126,4,1,0,80,0,0
75162,-98.7236428608402,4,1,0,80,0,0
75248,-98.4977574715367,4,1,0,80,0,0
75333,-98.2723889210331,4,1,0,80,0,0
75419,-98.0475360267724,4,1,0,80,0,0
75505,-97.8231976089035,4,1,0,80,0,0
75591,-97.5993724902746,4,1,0,80,0,0
75676,-97.3760594964275,4,1,0,80,0,0
75762,-97.1532574555911,4,1,0,80,0,0
75848,-96.9309651986756,4,1,0,80,0,0
75933,-96.7091815592658,4,1,0,80,0,0
76019,-96.4879053736155,4,1,0,80,0,0
76105,-96.2671354806414,4,1,0,80,0,0
76191,-96.0468707219166,4,1,0,80,0,0
76276,-95.8271099416647,4,1,0,80,0,0
76362,-95.607851986754,4,1,0,80,0,0
76448,-95.389095706691,4,1,0,80,0,0
76533,-95.1708399536148,4,1,0,80,0,0
76619,-94.9530835822908,4,1,0,80,0,0
76705,-94.7358254501047,4,1,0,80,0,0
76791,-94.5190644170566,4,1,0,80,0,0
76876,-94.302799345755,4,1,0,80,0,0
76962,-94.0870291014108,4,1,0,80,0,0
77048,-93.8717525518315,4,1,0,80,0,0
77133,-93.6569685674149,4,1,0,80,0,0
77219,-93.4426760211434,4,1,0,80,0,0
77305,-93.2288737885784,4,1,0,80,0,0
77391,-93.0155607478537,4,1,0,80,0,0
77476,-92.8027357796703,4,1,0,80,0,0
77562,-92.5903977672899,4,1,0,80,0,0
77648,-92.3785455965295,4,1,0,80,0,0
77733,-92.1671781557557,4,1,0,80,0,0
77819,-91.9562943358782,4,1,0,80,0,0
77905,-91.7458930303444,4,1,0,80,0,0
77991,-91.5359731351338,4,1,0,80,0,0
78076,-91.3265335487517,4,1,0,80,0,0
78162,-91.1175731722239,4,1,0,80,0,0
78248,-90.9090909090905,4,1,0,80,0,0
79193,-76.9230769230769,4,1,0,80,0,0
79622,-95.2380952380952,4,1,0,90,0,1
87851,-95.2380952380952,4,1,0,90,0,0
90593,-95.2380952380952,4,1,0,90,0,1
101565,-95.2380952380952,4,1,0,80,0,0
101648,-95.5289561300324,4,1,0,80,0,0
101733,-95.8207053225834,4,1,0,80,0,0
101819,-96.1133455286532,4,1,0,80,0,0
101905,-96.4068794694323,4,1,0,80,0,0
101991,-96.7013098744216,4,1,0,80,0,0
102076,-96.996639481458,4,1,0,80,0,0
102162,-97.2928710367401,4,1,0,80,0,0
102248,-97.5900072948533,4,1,0,80,0,0
102333,-97.8880510187956,4,1,0,80,0,0
102419,-98.1870049800035,4,1,0,80,0,0
102505,-98.4868719583773,4,1,0,80,0,0
102591,-98.7876547423074,4,1,0,80,0,0
102676,-99.0893561287,4,1,0,80,0,0
102762,-99.3919789230033,4,1,0,80,0,0
102848,-99.6955259392332,4,1,0,80,0,0
102933,-100,4,1,0,80,0,0
112536,-83.3333333333333,4,1,0,80,0,0
114251,-100,4,1,0,80,0,0
123508,-100,4,1,0,80,0,0
133104,-100,4,1,0,80,0,0
133190,-100.321097507074,4,1,0,80,0,0
133275,-100.643226050239,4,1,0,80,0,0
133361,-100.966388940126,4,1,0,80,0,0
133447,-101.290589497996,4,1,0,80,0,0
133533,-101.615831055775,4,1,0,80,0,0
133618,-101.942116956088,4,1,0,80,0,0
133704,-102.269450552293,4,1,0,80,0,0
133790,-102.597835208515,4,1,0,80,0,0
133875,-102.927274299682,4,1,0,80,0,0
133961,-103.257771211558,4,1,0,80,0,0
134047,-103.589329340779,4,1,0,80,0,0
134133,-103.921952094888,4,1,0,80,0,0
134218,-104.255642892368,4,1,0,80,0,0
134304,-104.590405162679,4,1,0,80,0,0
134390,-104.926242346296,4,1,0,80,0,0
134475,-105.263157894737,4,1,0,80,0,0
139961,-105.263157894737,4,1,0,80,0,0
140047,-105.022309717833,4,1,0,80,0,0
140132,-104.78201261545,4,1,0,80,0,0
140218,-104.542265326697,4,1,0,80,0,0
140304,-104.30306659357,4,1,0,80,0,0
140390,-104.064415160942,4,1,0,80,0,0
140475,-103.826309776557,4,1,0,80,0,0
140561,-103.588749191025,4,1,0,80,0,0
140647,-103.351732157816,4,1,0,80,0,0
140732,-103.11525743325,4,1,0,80,0,0
140818,-102.879323776494,4,1,0,80,0,0
140904,-102.643929949553,4,1,0,80,0,0
140990,-102.409074717266,4,1,0,80,0,0
141075,-102.174756847297,4,1,0,80,0,0
141161,-101.94097511013,4,1,0,80,0,0
141247,-101.707728279063,4,1,0,80,0,0
141332,-101.475015130199,4,1,0,80,0,0
141418,-101.242834442442,4,1,0,80,0,0
141504,-101.011184997491,4,1,0,80,0,0
141590,-100.780065579832,4,1,0,80,0,0
141675,-100.549474976732,4,1,0,80,0,0
141761,-100.319411978232,4,1,0,80,0,0
141847,-100.089875377143,4,1,0,80,0,0
141932,-99.8608639690374,4,1,0,80,0,0
142018,-99.6323765522428,4,1,0,80,0,0
142104,-99.404411927837,4,1,0,80,0,0
142190,-99.176968899641,4,1,0,80,0,0
142275,-98.9500462742126,4,1,0,80,0,0
142361,-98.7236428608402,4,1,0,80,0,0
142447,-98.4977574715367,4,1,0,80,0,0
142532,-98.2723889210331,4,1,0,80,0,0
142618,-98.0475360267724,4,1,0,80,0,0
142704,-97.8231976089035,4,1,0,80,0,0
142790,-97.5993724902746,4,1,0,80,0,0
142875,-97.3760594964275,4,1,0,80,0,0
142961,-97.1532574555911,4,1,0,80,0,0
143047,-96.9309651986756,4,1,0,80,0,0
143132,-96.7091815592658,4,1,0,80,0,0
143218,-96.4879053736155,4,1,0,80,0,0
143304,-96.2671354806414,4,1,0,80,0,0
143390,-96.0468707219166,4,1,0,80,0,0
143475,-95.8271099416647,4,1,0,80,0,0
143561,-95.607851986754,4,1,0,80,0,0
143647,-95.389095706691,4,1,0,80,0,0
143732,-95.1708399536148,4,1,0,80,0,0
143818,-94.9530835822908,4,1,0,80,0,0
143904,-94.7358254501047,4,1,0,80,0,0
143990,-94.5190644170566,4,1,0,80,0,0
144075,-94.302799345755,4,1,0,80,0,0
144161,-94.0870291014108,4,1,0,80,0,0
144247,-93.8717525518315,4,1,0,80,0,0
144332,-93.6569685674149,4,1,0,80,0,0
144418,-93.4426760211434,4,1,0,80,0,0
144504,-93.2288737885784,4,1,0,80,0,0
144590,-93.0155607478537,4,1,0,80,0,0
144675,-92.8027357796703,4,1,0,80,0,0
144761,-92.5903977672899,4,1,0,80,0,0
144847,-92.3785455965295,4,1,0,80,0,0
144932,-92.1671781557557,4,1,0,80,0,0
145018,-91.9562943358782,4,1,0,80,0,0
145104,-91.7458930303444,4,1,0,80,0,0
145190,-91.5359731351338,4,1,0,80,0,0
145275,-91.3265335487517,4,1,0,80,0,0
145361,-91.1175731722239,4,1,0,80,0,0
145447,-90.9090909090905,4,1,0,80,0,0
146392,-76.9230769230769,4,1,0,80,0,0
146822,-95.2380952380952,4,1,0,90,0,1
155051,-95.2380952380952,4,1,0,90,0,0
157793,-95.2380952380952,4,1,0,90,0,1
168765,-95.2380952380952,4,1,0,90,0,0
170136,-95.2380952380952,4,1,0,90,0,1
179651,-95.2380952380952,4,1,0,75,0,1
179736,-95.2380952380952,4,1,0,75,0,0
181022,-95.2380952380952,4,1,0,90,0,0
181108,-95.2380952380952,4,1,0,90,0,1
192079,-95.2380952380952,4,1,0,80,0,0
192162,-95.6979838236249,4,1,0,80,0,0
192247,-96.1600931330211,4,1,0,80,0,0
192333,-96.6244338897823,4,1,0,80,0,0
192419,-97.0910168691886,4,1,0,80,0,0
192505,-97.5598528985525,4,1,0,80,0,0
192590,-98.0309528574695,4,1,0,80,0,0
192676,-98.5043276780709,4,1,0,80,0,0
192762,-98.9799883452773,4,1,0,80,0,0
192847,-99.4579458970537,4,1,0,80,0,0
192933,-99.9382114246657,4,1,0,80,0,0
193019,-100.420796072936,4,1,0,80,0,0
193105,-100.905711040506,4,1,0,80,0,0
193190,-101.39296758009,4,1,0,80,0,0
193276,-101.882576998742,4,1,0,80,0,0
193362,-102.374550658116,4,1,0,80,0,0
193447,-102.868899974728,4,1,0,80,0,0
193533,-103.365636420224,4,1,0,80,0,0
193619,-103.864771521643,4,1,0,80,0,0
193705,-104.366316861689,4,1,0,80,0,0
193790,-104.870284078992,4,1,0,80,0,0
193876,-105.376684868389,4,1,0,80,0,0
193962,-105.885530981184,4,1,0,80,0,0
194047,-106.39683422543,4,1,0,80,0,0
194133,-106.910606466196,4,1,0,80,0,0
194219,-107.426859625847,4,1,0,80,0,0
194305,-107.94560568432,4,1,0,80,0,0
194390,-108.466856679399,4,1,0,80,0,0
194476,-108.990624706998,4,1,0,80,0,0
194562,-109.516921921439,4,1,0,80,0,0
194647,-110.045760535736,4,1,0,80,0,0
194733,-110.577152821878,4,1,0,80,0,0
194819,-111.111111111111,4,1,0,80,0,0
197562,-111.111111111111,4,1,0,80,0,0
197648,-110.754853196171,4,1,0,80,0,0
197733,-110.399737558549,4,1,0,80,0,0
197819,-110.045760535737,4,1,0,80,0,0
197905,-109.692918476969,4,1,0,80,0,0
197991,-109.341207743187,4,1,0,80,0,0
198076,-108.990624706998,4,1,0,80,0,0
198162,-108.641165752643,4,1,0,80,0,0
198248,-108.292827275954,4,1,0,80,0,0
198333,-107.94560568432,4,1,0,80,0,0
198419,-107.599497396648,4,1,0,80,0,0
198505,-107.254498843328,4,1,0,80,0,0
198591,-106.910606466196,4,1,0,80,0,0
198676,-106.567816718494,4,1,0,80,0,0
198762,-106.22612606484,4,1,0,80,0,0
198848,-105.885530981184,4,1,0,80,0,0
198933,-105.546027954777,4,1,0,80,0,0
199019,-105.207613484133,4,1,0,80,0,0
199105,-104.870284078992,4,1,0,80,0,0
199191,-104.534036260286,4,1,0,80,0,0
199276,-104.198866560101,4,1,0,80,0,0
199362,-103.864771521643,4,1,0,80,0,0
199448,-103.531747699201,4,1,0,80,0,0
199533,-103.199791658113,4,1,0,80,0,0
199619,-102.868899974728,4,1,0,80,0,0
199705,-102.539069236374,4,1,0,80,0,0
199791,-102.210296041319,4,1,0,80,0,0
199876,-101.882576998742,4,1,0,80,0,0
199962,-101.55590872869,4,1,0,80,0,0
200048,-101.230287862048,4,1,0,80,0,0
200133,-100.905711040506,4,1,0,80,0,0
200219,-100.582174916518,4,1,0,80,0,0
200305,-100.259676153276,4,1,0,80,0,0
200391,-99.9382114246656,4,1,0,80,0,0
200476,-99.617777415241,4,1,0,80,0,0
200562,-99.298370820185,4,1,0,80,0,0
200648,-98.9799883452771,4,1,0,80,0,0
200733,-98.6626267068593,4,1,0,80,0,0
200819,-98.3462826318017,4,1,0,80,0,0
200905,-98.0309528574694,4,1,0,80,0,0
200991,-97.7166341316883,4,1,0,80,0,0
201076,-97.4033232127121,4,1,0,80,0,0
201162,-97.0910168691885,4,1,0,80,0,0
201248,-96.7797118801257,4,1,0,80,0,0
201333,-96.4694050348597,4,1,0,80,0,0
201419,-96.160093133021,4,1,0,80,0,0
201505,-95.8517729845011,4,1,0,80,0,0
201591,-95.5444414094205,4,1,0,80,0,0
201676,-95.2380952380952,4,1,0,80,0,0
201705,-95.1458383331669,4,1,0,80,0,0
201733,-95.0536707972718,4,1,0,80,0,0
201762,-94.9615925438385,4,1,0,80,0,0
201790,-94.8696034863793,4,1,0,80,0,0
201819,-94.7777035384902,4,1,0,80,0,0
201847,-94.6858926138511,4,1,0,80,0,0
201876,-94.5941706262252,4,1,0,80,0,0
201905,-94.5025374894597,4,1,0,80,0,0
201933,-94.4109931174848,4,1,0,80,0,0
201962,-94.3195374243143,4,1,0,80,0,0
201990,-94.2281703240454,4,1,0,80,0,0
202019,-94.1368917308582,4,1,0,80,0,0
202047,-94.0457015590162,4,1,0,80,0,0
202076,-93.9545997228659,4,1,0,80,0,0
202105,-93.8635861368366,4,1,0,80,0,0
202133,-93.7726607154407,4,1,0,80,0,0
202162,-93.6818233732734,4,1,0,80,0,0
202190,-93.5910740250125,4,1,0,80,0,0
202219,-93.5004125854186,4,1,0,80,0,0
202247,-93.4098389693347,4,1,0,80,0,0
202276,-93.3193530916864,4,1,0,80,0,0
202305,-93.2289548674818,4,1,0,80,0,0
202333,-93.138644211811,4,1,0,80,0,0
202362,-93.0484210398469,4,1,0,80,0,0
202390,-92.958285266844,4,1,0,80,0,0
202419,-92.8682368081392,4,1,0,80,0,0
202447,-92.7782755791514,4,1,0,80,0,0
202476,-92.6884014953814,4,1,0,80,0,0
202505,-92.5986144724118,4,1,0,80,0,0
202533,-92.5089144259071,4,1,0,80,0,0
202562,-92.4193012716133,4,1,0,80,0,0
202590,-92.3297749253582,4,1,0,80,0,0
202619,-92.240335303051,4,1,0,80,0,0
202647,-92.1509823206826,4,1,0,80,0,0
202676,-92.0617158943249,4,1,0,80,0,0
202705,-91.9725359401314,4,1,0,80,0,0
202733,-91.8834423743368,4,1,0,80,0,0
202762,-91.7944351132568,4,1,0,80,0,0
202790,-91.7055140732882,4,1,0,80,0,0
202819,-91.6166791709089,4,1,0,80,0,0
202847,-91.5279303226776,4,1,0,80,0,0
202876,-91.4392674452338,4,1,0,80,0,0
202905,-91.350690455298,4,1,0,80,0,0
202933,-91.262199269671,4,1,0,80,0,0
202962,-91.1737938052344,4,1,0,80,0,0
202990,-91.0854739789504,4,1,0,80,0,0
203019,-90.9972397078615,4,1,0,80,0,0
203047,-76.9230769230769,4,1,0,80,0,0
203393,-95.2380952380952,4,1,0,90,0,1
214022,-95.2380952380952,4,1,0,80,0,0
214079,-95.5289561300324,4,1,0,80,0,0
214164,-95.8207053225834,4,1,0,80,0,0
214250,-96.1133455286532,4,1,0,80,0,0
214336,-96.4068794694323,4,1,0,80,0,0
214422,-96.7013098744216,4,1,0,80,0,0
214507,-96.996639481458,4,1,0,80,0,0
214593,-97.2928710367401,4,1,0,80,0,0
214679,-97.5900072948533,4,1,0,80,0,0
214764,-97.8880510187956,4,1,0,80,0,0
214850,-98.1870049800035,4,1,0,80,0,0
214936,-98.4868719583773,4,1,0,80,0,0
215022,-98.7876547423074,4,1,0,80,0,0
215107,-99.0893561287,4,1,0,80,0,0
215193,-99.3919789230033,4,1,0,80,0,0
215279,-99.6955259392332,4,1,0,80,0,0
215364,-100,4,1,0,80,0,0
224993,-100,4,1,0,80,0,0
235962,-100,4,1,0,80,0,0
236048,-100.321097507074,4,1,0,80,0,0
236133,-100.643226050239,4,1,0,80,0,0
236219,-100.966388940126,4,1,0,80,0,0
236305,-101.290589497996,4,1,0,80,0,0
236391,-101.615831055775,4,1,0,80,0,0
236476,-101.942116956088,4,1,0,80,0,0
236562,-102.269450552293,4,1,0,80,0,0
236648,-102.597835208515,4,1,0,80,0,0
236733,-102.927274299682,4,1,0,80,0,0
236819,-103.257771211558,4,1,0,80,0,0
236905,-103.589329340779,4,1,0,80,0,0
236991,-103.921952094888,4,1,0,80,0,0
237076,-104.255642892368,4,1,0,80,0,0
237162,-104.590405162679,4,1,0,80,0,0
237248,-104.926242346296,4,1,0,80,0,0
237333,-105.263157894737,4,1,0,80,0,0
246936,-100,4,1,0,80,0,0

[HitObjects]
256,192,1451,5,4,0:0:0:0:
256,192,1622,1,0,0:0:0:0:
256,192,1793,1,8,0:0:0:0:
256,192,1965,1,8,0:0:0:0:
256,192,2308,1,0,0:0:0:0:
256,192,2651,1,8,0:0:0:0:
256,192,2993,1,0,0:0:0:0:
256,192,3165,1,8,0:0:0:0:
256,192,3336,1,8,0:0:0:0:
256,192,3679,1,0,0:0:0:0:
256,192,3851,1,8,0:0:0:0:
256,192,4022,1,0,0:0:0:0:
256,192,4108,1,0,0:0:0:0:
256,192,4193,1,8,0:0:0:0:
256,192,4365,1,8,0:0:0:0:
256,192,4536,1,0,0:0:0:0:
256,192,4708,1,8,0:0:0:0:
256,192,5051,1,0,0:0:0:0:
256,192,5393,1,8,0:0:0:0:
256,192,5736,1,8,0:0:0:0:
256,192,5908,1,0,0:0:0:0:
256,192,6079,1,8,0:0:0:0:
256,192,6422,1,0,0:0:0:0:
256,192,6593,1,8,0:0:0:0:
256,192,6679,1,8,0:0:0:0:
256,192,6765,1,8,0:0:0:0:
256,192,6851,1,8,0:0:0:0:
256,192,6936,1,0,0:0:0:0:
256,192,7108,1,0,0:0:0:0:
256,192,7279,1,8,0:0:0:0:
256,192,7451,1,8,0:0:0:0:
256,192,7793,1,0,0:0:0:0:
256,192,8136,1,8,0:0:0:0:
256,192,8479,1,0,0:0:0:0:
256,192,8651,1,8,0:0:0:0:
256,192,8822,1,8,0:0:0:0:
256,192,9165,1,0,0:0:0:0:
256,192,9336,1,8,0:0:0:0:
256,192,9508,1,0,0:0:0:0:
256,192,9593,1,0,0:0:0:0:
256,192,9679,1,8,0:0:0:0:
256,192,9851,1,8,0:0:0:0:
256,192,10022,1,0,0:0:0:0:
256,192,10193,1,8,0:0:0:0:
256,192,10536,1,0,0:0:0:0:
256,192,10879,1,8,0:0:0:0:
256,192,11222,1,8,0:0:0:0:
256,192,11393,1,0,0:0:0:0:
256,192,11565,1,8,0:0:0:0:
256,192,11908,1,8,0:0:0:0:
256,192,12079,1,0,0:0:0:0:
256,192,12165,1,0,0:0:0:0:
256,192,12251,1,8,0:0:0:0:
256,192,12422,1,4,0:0:0:0:
256,192,12765,1,0,0:0:0:0:
256,192,12936,1,8,0:0:0:0:
256,192,13108,1,0,0:0:0:0:
256,192,13451,1,8,0:0:0:0:
256,192,13622,1,8,0:0:0:0:
256,192,13793,1,0,0:0:0:0:
256,192,14136,1,0,0:0:0:0:
256,192,14308,1,8,0:0:0:0:
256,192,14479,1,0,0:0:0:0:
256,192,14822,1,8,0:0:0:0:
256,192,14993,1,8,0:0:0:0:
256,192,15079,1,8,0:0:0:0:
256,192,15165,1,0,0:0:0:0:
256,192,15508,1,0,0:0:0:0:
256,192,15679,1,8,0:0:0:0:
256,192,15851,1,0,0:0:0:0:
256,192,16193,1,8,0:0:0:0:
256,192,16365,1,8,0:0:0:0:
256,192,16536,1,0,0:0:0:0:
256,192,16879,1,0,0:0:0:0:
256,192,17051,1,8,0:0:0:0:
256,192,17222,1,0,0:0:0:0:
256,192,17565,1,8,0:0:0:0:
256,192,17736,1,8,0:0:0:0:
256,192,17822,1,8,0:0:0:0:
256,192,17908,1,0,0:0:0:0:
256,192,18165,1,8,0:0:0:0:
256,192,18251,1,0,0:0:0:0:
256,192,18422,1,8,0:0:0:0:
256,192,18593,1,0,0:0:0:0:
256,192,18679,1,8,0:0:0:0:
256,192,18851,1,8,0:0:0:0:
256,192,18936,1,0,0:0:0:0:
256,192,19108,1,8,0:0:0:0:
256,192,19279,1,0,0:0:0:0:
256,192,19365,1,0,0:0:0:0:
256,192,19536,1,8,0:0:0:0:
256,192,19622,1,0,0:0:0:0:
256,192,19793,1,8,0:0:0:0:
256,192,19965,1,0,0:0:0:0:
256,192,20051,1,8,0:0:0:0:
256,192,20222,1,8,0:0:0:0:
256,192,20308,1,0,0:0:0:0:
256,192,20479,1,8,0:0:0:0:
256,192,20565,1,0,0:0:0:0:
256,192,20651,1,8,0:0:0:0:
256,192,20736,1,8,0:0:0:0:
256,192,20822,1,0,0:0:0:0:
256,192,20908,1,0,0:0:0:0:
256,192,20993,1,8,0:0:0:0:
256,192,21079,1,8,0:0:0:0:
256,192,21165,1,0,0:0:0:0:
256,192,21251,1,8,0:0:0:0:
256,192,21336,1,0,0:0:0:0:
256,192,21422,1,0,0:0:0:0:
256,192,21508,1,8,0:0:0:0:
256,192,21593,1,8,0:0:0:0:
256,192,21679,1,0,0:0:0:0:
256,192,21765,1,0,0:0:0:0:
256,192,21851,1,8,0:0:0:0:
256,192,23051,1,8,0:0:0:0:
256,192,23136,1,8,0:0:0:0:
256,192,23222,1,8,0:0:0:0:
256,192,23393,1,4,0:0:0:0:
256,192,23565,1,8,0:0:0:0:
256,192,23736,1,0,0:0:0:0:
256,192,23822,1,0,0:0:0:0:
256,192,23908,1,8,0:0:0:0:
256,192,24079,1,0,0:0:0:0:
256,192,24251,1,8,0:0:0:0:
256,192,24336,1,8,0:0:0:0:
256,192,24422,1,8,0:0:0:0:
256,192,24593,1,0,0:0:0:0:
256,192,24765,1,0,0:0:0:0:
256,192,24936,1,8,0:0:0:0:
256,192,25022,1,8,0:0:0:0:
256,192,25108,1,0,0:0:0:0:
256,192,25279,1,8,0:0:0:0:
256,192,25451,1,8,0:0:0:0:
256,192,25622,1,0,0:0:0:0:
256,192,25708,1,0,0:0:0:0:
256,192,25793,1,8,0:0:0:0:
256,192,25965,1,8,0:0:0:0:
256,192,26051,1,0,0:0:0:0:
256,192,26136,1,8,0:0:0:0:
256,192,26308,1,0,0:0:0:0:
256,192,26479,1,8,0:0:0:0:
256,192,26651,1,0,0:0:0:0:
256,192,26736,1,0,0:0:0:0:
256,192,26822,1,8,0:0:0:0:
256,192,26993,1,8,0:0:0:0:
256,192,27165,1,0,0:0:0:0:
256,192,27336,1,8,0:0:0:0:
256,192,27422,1,8,0:0:0:0:
256,192,27508,1,0,0:0:0:0:
256,192,27679,1,8,0:0:0:0:
256,192,27851,1,0,0:0:0:0:
256,192,28022,1,8,0:0:0:0:
256,192,28365,1,0,0:0:0:0:
256,192,28536,1,8,0:0:0:0:
256,192,28622,1,8,0:0:0:0:
256,192,28708,1,8,0:0:0:0:
256,192,28793,1,8,0:0:0:0:
256,192,28879,1,0,0:0:0:0:
256,192,29051,1,8,0:0:0:0:
256,192,29222,1,0,0:0:0:0:
256,192,29308,1,0,0:0:0:0:
256,192,29393,1,8,0:0:0:0:
256,192,29565,1,0,0:0:0:0:
256,192,29736,1,8,0:0:0:0:
256,192,29822,1,8,0:0:0:0:
256,192,29908,1,8,0:0:0:0:
256,192,30079,1,0,0:0:0:0:
256,192,30251,1,0,0:0:0:0:
256,192,30422,1,8,0:0:0:0:
256,192,30508,1,8,0:0:0:0:
256,192,30593,1,0,0:0:0:0:
256,192,30765,1,8,0:0:0:0:
256,192,30936,1,0,0:0:0:0:
256,192,31108,1,0,0:0:0:0:
256,192,31193,1,0,0:0:0:0:
256,192,31279,1,8,0:0:0:0:
256,192,31451,1,8,0:0:0:0:
256,192,31536,1,0,0:0:0:0:
256,192,31622,1,8,0:0:0:0:
256,192,31793,1,0,0:0:0:0:
256,192,31965,1,0,0:0:0:0:
256,192,32051,1,0,0:0:0:0:
256,192,32136,1,8,0:0:0:0:
256,192,32308,1,0,0:0:0:0:
256,192,32479,1,8,0:0:0:0:
256,192,32651,1,0,0:0:0:0:
256,192,32736,1,0,0:0:0:0:
256,192,32822,1,8,0:0:0:0:
256,192,32908,1,0,0:0:0:0:
256,192,32993,1,8,0:0:0:0:
256,192,33165,1,0,0:0:0:0:
256,192,33251,1,0,0:0:0:0:
256,192,33336,1,8,0:0:0:0:
256,192,33508,1,8,0:0:0:0:
256,192,33593,1,8,0:0:0:0:
256,192,33679,1,0,0:0:0:0:
256,192,33765,1,8,0:0:0:0:
256,192,33851,1,0,0:0:0:0:
256,192,33936,1,0,0:0:0:0:
256,192,34022,1,8,0:0:0:0:
256,192,34108,1,0,0:0:0:0:
256,192,34193,1,8,0:0:0:0:
256,192,34365,1,4,0:0:0:0:
256,192,34708,1,0,0:0:0:0:
256,192,34879,1,8,0:0:0:0:
256,192,34965,1,8,0:0:0:0:
256,192,35051,1,0,0:0:0:0:
256,192,35222,1,8,0:0:0:0:
256,192,35393,1,0,0:0:0:0:
256,192,35479,1,0,0:0:0:0:
256,192,35565,1,8,0:0:0:0:
256,192,35736,1,0,0:0:0:0:
256,192,35908,1,8,0:0:0:0:
256,192,35993,1,8,0:0:0:0:
256,192,36079,1,0,0:0:0:0:
256,192,36251,1,8,0:0:0:0:
256,192,36422,1,0,0:0:0:0:
256,192,36593,1,0,0:0:0:0:
256,192,36679,1,0,0:0:0:0:
256,192,36765,1,8,0:0:0:0:
256,192,36936,1,8,0:0:0:0:
256,192,37022,1,0,0:0:0:0:
256,192,37108,1,8,0:0:0:0:
256,192,37279,1,8,0:0:0:0:
256,192,37451,1,0,0:0:0:0:
256,192,37622,1,8,0:0:0:0:
256,192,37708,1,8,0:0:0:0:
256,192,37793,1,0,0:0:0:0:
256,192,37965,1,8,0:0:0:0:
256,192,38136,1,0,0:0:0:0:
256,192,38222,1,0,0:0:0:0:
256,192,38308,1,8,0:0:0:0:
256,192,38479,1,8,0:0:0:0:
256,192,38651,1,0,0:0:0:0:
256,192,38736,1,8,0:0:0:0:
256,192,38822,1,0,0:0:0:0:
256,192,38993,1,8,0:0:0:0:
256,192,39336,1,0,0:0:0:0:
256,192,39508,1,8,0:0:0:0:
256,192,39593,1,8,0:0:0:0:
256,192,39679,1,8,0:0:0:0:
256,192,39765,1,8,0:0:0:0:
256,192,39851,1,0,0:0:0:0:
256,192,40022,1,8,0:0:0:0:
256,192,40193,1,0,0:0:0:0:
256,192,40279,1,0,0:0:0:0:
256,192,40365,1,8,0:0:0:0:
256,192,40536,1,0,0:0:0:0:
256,192,40708,1,8,0:0:0:0:
256,192,40793,1,8,0:0:0:0:
256,192,40879,1,0,0:0:0:0:
256,192,41051,1,8,0:0:0:0:
256,192,41222,1,0,0:0:0:0:
256,192,41393,1,8,0:0:0:0:
256,192,41479,1,0,0:0:0:0:
256,192,41565,1,8,0:0:0:0:
256,192,41736,1,8,0:0:0:0:
256,192,41908,1,0,0:0:0:0:
256,192,42079,1,0,0:0:0:0:
256,192,42165,1,0,0:0:0:0:
256,192,42251,1,8,0:0:0:0:
256,192,42422,1,8,0:0:0:0:
256,192,42508,1,8,0:0:0:0:
256,192,42593,1,0,0:0:0:0:
256,192,42679,1,0,0:0:0:0:
256,192,42765,1,8,0:0:0:0:
256,192,42851,1,0,0:0:0:0:
256,192,42936,1,8,0:0:0:0:
256,192,43022,1,8,0:0:0:0:
256,192,43108,1,0,0:0:0:0:
256,192,43193,1,8,0:0:0:0:
256,192,43279,1,0,0:0:0:0:
256,192,43365,1,0,0:0:0:0:
256,192,43451,1,8,0:0:0:0:
256,192,43536,1,8,0:0:0:0:
256,192,43622,1,0,0:0:0:0:
256,192,43793,1,12,0:0:0:0:
256,192,44136,1,12,0:0:0:0:
256,192,44479,1,4,0:0:0:0:
256,192,44822,1,4,0:0:0:0:
256,192,44993,1,8,0:0:0:0:
256,192,45165,1,8,0:0:0:0:
256,192,45336,1,4,0:0:0:0:
256,192,45679,1,0,0:0:0:0:
256,192,45851,1,8,0:0:0:0:
256,192,46193,1,8,0:0:0:0:
256,192,46365,1,0,0:0:0:0:
256,192,46536,1,8,0:0:0:0:
256,192,46879,1,0,0:0:0:0:
256,192,47051,1,0,0:0:0:0:
256,192,47222,1,8,0:0:0:0:
256,192,47565,1,8,0:0:0:0:
256,192,47908,1,0,0:0:0:0:
256,192,48079,1,8,0:0:0:0:
256,192,48251,1,0,0:0:0:0:
256,192,48593,1,8,0:0:0:0:
256,192,48765,1,0,0:0:0:0:
256,192,48936,1,8,0:0:0:0:
256,192,49022,1,8,0:0:0:0:
256,192,49108,1,0,0:0:0:0:
256,192,49193,1,8,0:0:0:0:
256,192,49279,1,0,0:0:0:0:
256,192,49451,1,8,0:0:0:0:
256,192,49536,1,8,0:0:0:0:
256,192,49622,1,0,0:0:0:0:
256,192,49708,1,0,0:0:0:0:
256,192,49793,1,8,0:0:0:0:
256,192,49965,1,0,0:0:0:0:
256,192,50136,1,8,0:0:0:0:
256,192,50308,1,0,0:0:0:0:
256,192,50479,1,8,0:0:0:0:
256,192,50651,1,8,0:0:0:0:
256,192,50822,1,0,0:0:0:0:
256,192,51165,1,0,0:0:0:0:
256,192,51508,1,0,0:0:0:0:
256,192,51851,1,0,0:0:0:0:
256,192,52193,1,0,0:0:0:0:
256,192,52536,1,0,0:0:0:0:
256,192,52879,1,0,0:0:0:0:
256,192,53222,1,0,0:0:0:0:
256,192,53565,1,0,0:0:0:0:
256,192,53908,1,0,0:0:0:0:
256,192,54079,1,8,0:0:0:0:
256,192,54165,1,8,0:0:0:0:
256,192,54251,1,0,0:0:0:0:
256,192,54336,1,8,0:0:0:0:
256,192,54422,1,0,0:0:0:0:
256,192,54593,1,8,0:0:0:0:
256,192,54679,1,8,0:0:0:0:
256,192,54765,1,0,0:0:0:0:
256,192,54936,1,12,0:0:0:0:
256,192,55108,1,0,0:0:0:0:
256,192,55279,1,8,0:0:0:0:
256,192,55451,1,8,0:0:0:0:
256,192,55622,1,0,0:0:0:0:
256,192,55793,1,0,0:0:0:0:
256,192,55965,1,8,0:0:0:0:
256,192,56308,1,4,0:0:0:0:
256,192,56565,1,0,0:0:0:0:
256,192,56651,1,8,0:0:0:0:
256,192,56822,1,0,0:0:0:0:
256,192,56908,1,0,0:0:0:0:
256,192,56993,1,0,0:0:0:0:
256,192,57165,1,8,0:0:0:0:
256,192,57336,1,0,0:0:0:0:
256,192,57508,1,8,0:0:0:0:
256,192,57593,1,8,0:0:0:0:
256,192,57679,1,0,0:0:0:0:
256,192,57851,1,8,0:0:0:0:
256,192,58022,1,0,0:0:0:0:
256,192,58193,1,0,0:0:0:0:
256,192,58279,1,0,0:0:0:0:
256,192,58365,1,8,0:0:0:0:
256,192,58536,1,0,0:0:0:0:
256,192,58708,1,8,0:0:0:0:
256,192,58879,1,8,0:0:0:0:
256,192,59051,1,0,0:0:0:0:
256,192,59308,1,8,0:0:0:0:
256,192,59393,1,0,0:0:0:0:
256,192,59565,1,8,0:0:0:0:
256,192,59736,1,0,0:0:0:0:
256,192,59908,1,8,0:0:0:0:
256,192,59993,1,8,0:0:0:0:
256,192,60079,1,0,0:0:0:0:
256,192,60251,1,8,0:0:0:0:
256,192,60422,1,0,0:0:0:0:
256,192,60508,1,0,0:0:0:0:
256,192,60593,1,8,0:0:0:0:
256,192,60765,1,8,0:0:0:0:
256,192,60936,1,0,0:0:0:0:
256,192,61022,1,8,0:0:0:0:
256,192,61108,1,0,0:0:0:0:
256,192,61279,1,8,0:0:0:0:
256,192,61451,1,0,0:0:0:0:
256,192,61536,1,0,0:0:0:0:
256,192,61622,1,8,0:0:0:0:
256,192,61793,1,0,0:0:0:0:
256,192,61965,1,8,0:0:0:0:
256,192,62051,1,0,0:0:0:0:
256,192,62136,1,8,0:0:0:0:
256,192,62308,1,8,0:0:0:0:
256,192,62479,1,0,0:0:0:0:
256,192,62651,1,8,0:0:0:0:
256,192,62736,1,8,0:0:0:0:
256,192,62822,1,0,0:0:0:0:
256,192,62993,1,8,0:0:0:0:
256,192,63165,1,0,0:0:0:0:
256,192,63336,1,8,0:0:0:0:
256,192,63422,1,8,0:0:0:0:
256,192,63508,1,8,0:0:0:0:
256,192,63679,1,0,0:0:0:0:
256,192,63765,1,0,0:0:0:0:
256,192,63851,1,8,0:0:0:0:
256,192,64022,1,0,0:0:0:0:
256,192,64193,1,8,0:0:0:0:
256,192,64279,1,0,0:0:0:0:
256,192,64365,1,8,0:0:0:0:
256,192,64451,1,8,0:0:0:0:
256,192,64536,1,0,0:0:0:0:
256,192,64708,1,8,0:0:0:0:
256,192,64879,1,0,0:0:0:0:
256,192,65051,1,8,0:0:0:0:
256,192,65393,1,8,0:0:0:0:
256,192,65565,1,0,0:0:0:0:
256,192,65736,1,8,0:0:0:0:
256,192,66079,1,8,0:0:0:0:
256,192,66251,1,8,0:0:0:0:
256,192,66422,1,8,0:0:0:0:
256,192,66593,1,8,0:0:0:0:
256,192,66765,1,0,0:0:0:0:
256,192,66851,1,0,0:0:0:0:
256,192,66936,1,8,0:0:0:0:
256,192,67108,1,0,0:0:0:0:
256,192,67279,1,12,0:0:0:0:
256,192,67622,1,8,0:0:0:0:
256,192,67793,1,4,0:0:0:0:
256,192,67965,1,4,0:0:0:0:
256,192,68308,1,8,0:0:0:0:
256,192,68393,1,8,0:0:0:0:
256,192,68479,1,8,0:0:0:0:
256,192,68651,1,4,0:0:0:0:
256,192,68993,1,8,0:0:0:0:
256,192,69165,1,4,0:0:0:0:
256,192,69336,1,4,0:0:0:0:
256,192,69508,1,8,0:0:0:0:
256,192,69679,1,8,0:0:0:0:
256,192,69765,1,0,0:0:0:0:
256,192,69851,1,8,0:0:0:0:
256,192,70022,1,4,0:0:0:0:
256,192,70365,1,8,0:0:0:0:
256,192,70536,1,4,0:0:0:0:
256,192,70708,1,4,0:0:0:0:
256,192,70879,1,8,0:0:0:0:
256,192,70965,1,0,0:0:0:0:
256,192,71051,1,8,0:0:0:0:
256,192,71136,1,8,0:0:0:0:
256,192,71222,1,8,0:0:0:0:
256,192,71393,1,4,0:0:0:0:
256,192,71736,1,8,0:0:0:0:
256,192,71908,1,4,0:0:0:0:
256,192,72079,1,4,0:0:0:0:
256,192,72251,1,8,0:0:0:0:
256,192,72336,1,8,0:0:0:0:
256,192,72422,1,0,0:0:0:0:
256,192,72508,1,8,0:0:0:0:
256,192,72593,1,0,0:0:0:0:
256,192,72765,1,12,0:0:0:0:
256,192,73108,1,0,0:0:0:0:
256,192,73279,1,8,0:0:0:0:
256,192,73365,1,8,0:0:0:0:
256,192,73451,1,0,0:0:0:0:
256,192,73622,1,0,0:0:0:0:
256,192,73793,1,8,0:0:0:0:
256,192,73965,1,0,0:0:0:0:
256,192,74136,1,12,0:0:0:0:
256,192,74308,1,0,0:0:0:0:
256,192,74393,1,0,0:0:0:0:
256,192,74479,1,8,0:0:0:0:
256,192,74651,1,8,0:0:0:0:
256,192,74736,1,0,0:0:0:0:
256,192,74822,1,8,0:0:0:0:
256,192,74993,1,0,0:0:0:0:
256,192,75165,1,8,0:0:0:0:
256,192,75336,1,0,0:0:0:0:
256,192,75508,1,12,0:0:0:0:
256,192,75679,1,0,0:0:0:0:
256,192,75851,1,8,0:0:0:0:
256,192,75936,1,0,0:0:0:0:
256,192,76022,1,0,0:0:0:0:
256,192,76193,1,8,0:0:0:0:
256,192,76365,1,0,0:0:0:0:
256,192,76536,1,8,0:0:0:0:
256,192,76622,1,0,0:0:0:0:
256,192,76708,1,8,0:0:0:0:
256,192,76879,1,0,0:0:0:0:
256,192,76965,1,0,0:0:0:0:
256,192,77051,1,8,0:0:0:0:
256,192,77136,1,8,0:0:0:0:
256,192,77222,1,0,0:0:0:0:
256,192,77308,1,8,0:0:0:0:
256,192,77393,1,0,0:0:0:0:
256,192,77479,1,0,0:0:0:0:
256,192,77565,1,8,0:0:0:0:
256,192,77651,1,0,0:0:0:0:
256,192,77736,1,8,0:0:0:0:
256,192,77822,1,8,0:0:0:0:
256,192,77908,1,0,0:0:0:0:
256,192,77993,1,8,0:0:0:0:
256,192,78079,1,0,0:0:0:0:
256,192,78165,1,0,0:0:0:0:
256,192,78251,1,8,0:0:0:0:
256,192,78422,1,0,0:0:0:0:
256,192,78508,1,0,0:0:0:0:
256,192,78593,1,8,0:0:0:0:
256,192,78765,1,0,0:0:0:0:
256,192,78851,1,8,0:0:0:0:
256,192,78936,1,0,0:0:0:0:
256,192,79022,1,8,0:0:0:0:
256,192,79108,1,0,0:0:0:0:
256,192,79279,1,12,0:0:0:0:
256,192,79622,1,4,0:0:0:0:
256,192,79879,1,8,0:0:0:0:
256,192,79965,1,0,0:0:0:0:
256,192,80136,1,8,0:0:0:0:
256,192,80308,1,0,0:0:0:0:
256,192,80393,1,0,0:0:0:0:
256,192,80479,1,0,0:0:0:0:
256,192,80651,1,8,0:0:0:0:
256,192,80736,1,8,0:0:0:0:
256,192,80822,1,0,0:0:0:0:
256,192,80908,1,0,0:0:0:0:
256,192,80993,1,8,0:0:0:0:
256,192,81165,1,0,0:0:0:0:
256,192,81336,1,8,0:0:0:0:
256,192,81422,1,8,0:0:0:0:
256,192,81508,1,0,0:0:0:0:
256,192,81679,1,8,0:0:0:0:
256,192,81851,1,0,0:0:0:0:
256,192,81936,1,0,0:0:0:0:
256,192,82022,1,8,0:0:0:0:
256,192,82193,1,8,0:0:0:0:
256,192,82279,1,8,0:0:0:0:
256,192,82365,1,0,0:0:0:0:
256,192,82451,1,8,0:0:0:0:
256,192,82622,1,8,0:0:0:0:
256,192,82708,1,0,0:0:0:0:
256,192,82879,1,8,0:0:0:0:
256,192,83051,1,0,0:0:0:0:
256,192,83136,1,8,0:0:0:0:
256,192,83222,1,0,0:0:0:0:
256,192,83308,1,0,0:0:0:0:
256,192,83393,1,8,0:0:0:0:
256,192,83565,1,8,0:0:0:0:
256,192,83651,1,8,0:0:0:0:
256,192,83736,1,0,0:0:0:0:
256,192,83908,1,8,0:0:0:0:
256,192,84079,1,0,0:0:0:0:
256,192,84165,1,0,0:0:0:0:
256,192,84251,1,8,0:0:0:0:
256,192,84422,1,0,0:0:0:0:
256,192,84593,1,8,0:0:0:0:
256,192,84679,1,0,0:0:0:0:
256,192,84765,1,8,0:0:0:0:
256,192,84936,1,8,0:0:0:0:
256,192,85108,1,4,0:0:0:0:
256,192,85365,1,0,0:0:0:0:
256,192,85451,1,8,0:0:0:0:
256,192,85536,1,8,0:0:0:0:
256,192,85622,1,0,0:0:0:0:
256,192,85793,1,8,0:0:0:0:
256,192,85965,1,0,0:0:0:0:
256,192,86051,1,0,0:0:0:0:
256,192,86136,1,8,0:0:0:0:
256,192,86308,1,8,0:0:0:0:
256,192,86479,1,4,0:0:0:0:
256,192,86651,1,8,0:0:0:0:
256,192,86822,1,8,0:0:0:0:
256,192,86908,1,8,0:0:0:0:
256,192,86993,1,0,0:0:0:0:
256,192,87165,1,8,0:0:0:0:
256,192,87336,1,0,0:0:0:0:
256,192,87422,1,0,0:0:0:0:
256,192,87508,1,0,0:0:0:0:
256,192,87679,1,8,0:0:0:0:
256,192,87851,1,4,0:0:0:0:
256,192,88022,1,8,0:0:0:0:
256,192,88108,1,8,0:0:0:0:
256,192,88193,1,0,0:0:0:0:
256,192,88279,1,0,0:0:0:0:
256,192,88365,1,8,0:0:0:0:
256,192,88536,1,0,0:0:0:0:
256,192,88708,1,8,0:0:0:0:
256,192,88793,1,8,0:0:0:0:
256,192,88879,1,0,0:0:0:0:
256,192,88965,1,0,0:0:0:0:
256,192,89051,1,8,0:0:0:0:
256,192,89222,1,8,0:0:0:0:
256,192,89308,1,0,0:0:0:0:
256,192,89393,1,8,0:0:0:0:
256,192,89479,1,8,0:0:0:0:
256,192,89565,1,0,0:0:0:0:
256,192,89651,1,0,0:0:0:0:
256,192,89736,1,8,0:0:0:0:
256,192,89822,1,0,0:0:0:0:
256,192,89908,1,8,0:0:0:0:
256,192,89965,1,8,0:0:0:0:
256,192,90022,1,8,0:0:0:0:
256,192,90079,1,0,0:0:0:0:
256,192,90165,1,0,0:0:0:0:
256,192,90251,1,8,0:0:0:0:
256,192,90422,1,8,0:0:0:0:
256,192,90593,1,4,0:0:0:0:
256,192,90851,1,8,0:0:0:0:
256,192,90936,1,0,0:0:0:0:
256,192,91108,1,8,0:0:0:0:
256,192,91279,1,0,0:0:0:0:
256,192,91365,1,0,0:0:0:0:
256,192,91451,1,8,0:0:0:0:
256,192,91536,1,0,0:0:0:0:
256,192,91622,1,8,0:0:0:0:
256,192,91793,1,0,0:0:0:0:
256,192,91879,1,8,0:0:0:0:
256,192,91965,1,0,0:0:0:0:
256,192,92136,1,8,0:0:0:0:
256,192,92308,1,0,0:0:0:0:
256,192,92479,1,8,0:0:0:0:
256,192,92565,1,8,0:0:0:0:
256,192,92651,1,0,0:0:0:0:
256,192,92736,1,8,0:0:0:0:
256,192,92822,1,0,0:0:0:0:
256,192,92908,1,0,0:0:0:0:
256,192,92993,1,8,0:0:0:0:
256,192,93165,1,8,0:0:0:0:
256,192,93336,1,0,0:0:0:0:
256,192,93422,1,8,0:0:0:0:
256,192,93593,1,8,0:0:0:0:
256,192,93679,1,0,0:0:0:0:
256,192,93765,1,0,0:0:0:0:
256,192,93851,1,8,0:0:0:0:
256,192,94022,1,0,0:0:0:0:
256,192,94108,1,0,0:0:0:0:
256,192,94193,1,0,0:0:0:0:
256,192,94365,1,8,0:0:0:0:
256,192,94536,1,8,0:0:0:0:
256,192,94622,1,8,0:0:0:0:
256,192,94708,1,0,0:0:0:0:
256,192,94879,1,8,0:0:0:0:
256,192,95051,1,0,0:0:0:0:
256,192,95136,1,0,0:0:0:0:
256,192,95222,1,8,0:0:0:0:
256,192,95308,1,8,0:0:0:0:
256,192,95393,1,0,0:0:0:0:
256,192,95565,1,8,0:0:0:0:
256,192,95651,1,0,0:0:0:0:
256,192,95736,1,8,0:0:0:0:
256,192,95908,1,8,0:0:0:0:
256,192,96079,1,4,0:0:0:0:
256,192,96336,1,0,0:0:0:0:
256,192,96422,1,8,0:0:0:0:
256,192,96593,1,0,0:0:0:0:
256,192,96765,1,8,0:0:0:0:
256,192,96851,1,8,0:0:0:0:
256,192,97022,1,0,0:0:0:0:
256,192,97108,1,8,0:0:0:0:
256,192,97279,1,8,0:0:0:0:
256,192,97451,1,4,0:0:0:0:
256,192,97708,1,0,0:0:0:0:
256,192,97793,1,8,0:0:0:0:
256,192,97965,1,0,0:0:0:0:
256,192,98136,1,8,0:0:0:0:
256,192,98222,1,8,0:0:0:0:
256,192,98308,1,0,0:0:0:0:
256,192,98393,1,0,0:0:0:0:
256,192,98479,1,8,0:0:0:0:
256,192,98651,1,8,0:0:0:0:
256,192,98822,1,4,0:0:0:0:
256,192,98993,1,8,0:0:0:0:
256,192,99165,1,0,0:0:0:0:
256,192,99251,1,0,0:0:0:0:
256,192,99336,1,8,0:0:0:0:
256,192,99422,1,0,0:0:0:0:
256,192,99508,1,8,0:0:0:0:
256,192,99679,1,0,0:0:0:0:
256,192,99765,1,8,0:0:0:0:
256,192,99851,1,0,0:0:0:0:
256,192,100022,1,8,0:0:0:0:
256,192,100108,1,8,0:0:0:0:
256,192,100193,1,0,0:0:0:0:
256,192,100279,1,0,0:0:0:0:
256,192,100365,1,8,0:0:0:0:
256,192,100451,1,0,0:0:0:0:
256,192,100536,1,8,0:0:0:0:
256,192,100622,1,8,0:0:0:0:
256,192,100708,1,0,0:0:0:0:
256,192,100793,1,0,0:0:0:0:
256,192,100879,1,8,0:0:0:0:
256,192,100936,1,8,0:0:0:0:
256,192,100993,1,8,0:0:0:0:
256,192,101051,1,0,0:0:0:0:
256,192,101136,1,0,0:0:0:0:
256,192,101222,1,8,0:0:0:0:
256,192,101279,1,0,0:0:0:0:
256,192,101336,1,0,0:0:0:0:
256,192,101393,1,8,0:0:0:0:
256,192,101565,1,4,0:0:0:0:
256,192,101736,1,8,0:0:0:0:
256,192,101908,1,0,0:0:0:0:
256,192,101993,1,0,0:0:0:0:
256,192,102079,1,8,0:0:0:0:
256,192,102251,1,0,0:0:0:0:
256,192,102422,1,8,0:0:0:0:
256,192,102508,1,8,0:0:0:0:
256,192,102593,1,8,0:0:0:0:
256,192,102765,1,0,0:0:0:0:
256,192,102936,1,0,0:0:0:0:
256,192,103108,1,8,0:0:0:0:
256,192,103193,1,8,0:0:0:0:
256,192,103279,1,0,0:0:0:0:
256,192,103451,1,8,0:0:0:0:
256,192,103622,1,8,0:0:0:0:
256,192,103793,1,0,0:0:0:0:
256,192,103879,1,0,0:0:0:0:
256,192,103965,1,8,0:0:0:0:
256,192,104136,1,8,0:0:0:0:
256,192,104222,1,0,0:0:0:0:
256,192,104308,1,8,0:0:0:0:
256,192,104479,1,0,0:0:0:0:
256,192,104651,1,8,0:0:0:0:
256,192,104822,1,0,0:0:0:0:
256,192,104908,1,0,0:0:0:0:
256,192,104993,1,8,0:0:0:0:
256,192,105165,1,8,0:0:0:0:
256,192,105336,1,0,0:0:0:0:
256,192,105508,1,8,0:0:0:0:
256,192,105593,1,8,0:0:0:0:
256,192,105679,1,0,0:0:0:0:
256,192,105851,1,8,0:0:0:0:
256,192,106022,1,0,0:0:0:0:
256,192,106193,1,8,0:0:0:0:
256,192,106536,1,0,0:0:0:0:
256,192,106708,1,8,0:0:0:0:
256,192,106793,1,8,0:0:0:0:
256,192,106879,1,8,0:0:0:0:
256,192,106965,1,8,0:0:0:0:
256,192,107051,1,0,0:0:0:0:
256,192,107222,1,8,0:0:0:0:
256,192,107393,1,0,0:0:0:0:
256,192,107479,1,0,0:0:0:0:
256,192,107565,1,8,0:0:0:0:
256,192,107736,1,0,0:0:0:0:
256,192,107908,1,8,0:0:0:0:
256,192,107993,1,8,0:0:0:0:
256,192,108079,1,8,0:0:0:0:
256,192,108251,1,0,0:0:0:0:
256,192,108422,1,0,0:0:0:0:
256,192,108593,1,8,0:0:0:0:
256,192,108679,1,8,0:0:0:0:
256,192,108765,1,0,0:0:0:0:
256,192,108936,1,8,0:0:0:0:
256,192,109108,1,0,0:0:0:0:
256,192,109279,1,0,0:0:0:0:
256,192,109365,1,0,0:0:0:0:
256,192,109451,1,8,0:0:0:0:
256,192,109622,1,8,0:0:0:0:
256,192,109708,1,0,0:0:0:0:
256,192,109793,1,8,0:0:0:0:
256,192,109965,1,0,0:0:0:0:
256,192,110136,1,0,0:0:0:0:
256,192,110222,1,0,0:0:0:0:
256,192,110308,1,8,0:0:0:0:
256,192,110479,1,0,0:0:0:0:
256,192,110651,1,8,0:0:0:0:
256,192,110822,1,0,0:0:0:0:
256,192,110908,1,0,0:0:0:0:
256,192,110993,1,8,0:0:0:0:
256,192,111079,1,0,0:0:0:0:
256,192,111165,1,8,0:0:0:0:
256,192,111336,1,0,0:0:0:0:
256,192,111422,1,0,0:0:0:0:
256,192,111508,1,8,0:0:0:0:
256,192,111679,1,8,0:0:0:0:
256,192,111765,1,8,0:0:0:0:
256,192,111851,1,0,0:0:0:0:
256,192,111936,1,8,0:0:0:0:
256,192,112022,1,0,0:0:0:0:
256,192,112108,1,0,0:0:0:0:
256,192,112193,1,8,0:0:0:0:
256,192,112279,1,0,0:0:0:0:
256,192,112365,1,8,0:0:0:0:
256,192,112536,1,4,0:0:0:0:
256,192,113051,1,4,0:0:0:0:
256,192,113736,1,12,0:0:0:0:
256,192,114422,1,0,0:0:0:0:
256,192,114593,1,8,0:0:0:0:
256,192,114936,1,8,0:0:0:0:
256,192,115022,1,8,0:0:0:0:
256,192,115108,1,8,0:0:0:0:
256,192,115279,1,0,0:0:0:0:
256,192,115451,1,8,0:0:0:0:
256,192,115536,1,8,0:0:0:0:
256,192,115622,1,0,0:0:0:0:
256,192,115793,1,0,0:0:0:0:
256,192,115965,1,8,0:0:0:0:
256,192,116051,1,8,0:0:0:0:
256,192,116136,1,0,0:0:0:0:
256,192,116308,1,8,0:0:0:0:
256,192,116393,1,8,0:0:0:0:
256,192,116479,1,0,0:0:0:0:
256,192,116651,1,0,0:0:0:0:
256,192,116736,1,0,0:0:0:0:
256,192,116822,1,8,0:0:0:0:
256,192,116908,1,0,0:0:0:0:
256,192,116993,1,8,0:0:0:0:
256,192,117165,1,0,0:0:0:0:
256,192,117336,1,8,0:0:0:0:
256,192,117508,1,0,0:0:0:0:
256,192,117679,1,8,0:0:0:0:
256,192,117851,1,8,0:0:0:0:
256,192,118022,1,0,0:0:0:0:
256,192,118193,1,8,0:0:0:0:
256,192,118279,1,8,0:0:0:0:
256,192,118365,1,0,0:0:0:0:
256,192,118536,1,8,0:0:0:0:
256,192,118708,1,0,0:0:0:0:
256,192,118879,1,0,0:0:0:0:
256,192,118965,1,0,0:0:0:0:
256,192,119051,1,8,0:0:0:0:
256,192,119222,1,8,0:0:0:0:
256,192,119393,1,0,0:0:0:0:
256,192,119565,1,8,0:0:0:0:
256,192,119651,1,0,0:0:0:0:
256,192,119736,1,8,0:0:0:0:
256,192,119908,1,8,0:0:0:0:
256,192,120079,1,0,0:0:0:0:
256,192,120165,1,8,0:0:0:0:
256,192,120251,1,0,0:0:0:0:
256,192,120336,1,0,0:0:0:0:
256,192,120422,1,8,0:0:0:0:
256,192,120593,1,8,0:0:0:0:
256,192,120765,1,0,0:0:0:0:
256,192,120851,1,0,0:0:0:0:
256,192,120936,1,8,0:0:0:0:
256,192,121022,1,8,0:0:0:0:
256,192,121108,1,0,0:0:0:0:
256,192,121279,1,8,0:0:0:0:
256,192,121365,1,0,0:0:0:0:
256,192,121451,1,8,0:0:0:0:
256,192,121536,1,8,0:0:0:0:
256,192,121622,1,0,0:0:0:0:
256,192,121793,1,8,0:0:0:0:
256,192,121879,1,8,0:0:0:0:
256,192,121965,1,0,0:0:0:0:
256,192,122136,1,8,0:0:0:0:
256,192,122308,1,8,0:0:0:0:
256,192,122479,1,0,0:0:0:0:
256,192,122651,1,0,0:0:0:0:
256,192,122822,1,8,0:0:0:0:
256,192,122993,1,0,0:0:0:0:
256,192,123165,1,8,0:0:0:0:
256,192,123508,1,4,0:0:0:0:
256,192,123765,1,0,0:0:0:0:
256,192,123851,1,8,0:0:0:0:
256,192,124022,1,0,0:0:0:0:
256,192,124108,1,0,0:0:0:0:
256,192,124193,1,0,0:0:0:0:
256,192,124365,1,8,0:0:0:0:
256,192,124536,1,0,0:0:0:0:
256,192,124708,1,8,0:0:0:0:
256,192,124793,1,8,0:0:0:0:
256,192,124879,1,0,0:0:0:0:
256,192,125051,1,8,0:0:0:0:
256,192,125222,1,0,0:0:0:0:
256,192,125393,1,0,0:0:0:0:
256,192,125479,1,0,0:0:0:0:
256,192,125565,1,8,0:0:0:0:
256,192,125736,1,0,0:0:0:0:
256,192,125908,1,8,0:0:0:0:
256,192,126079,1,8,0:0:0:0:
256,192,126251,1,0,0:0:0:0:
256,192,126508,1,8,0:0:0:0:
256,192,126593,1,0,0:0:0:0:
256,192,126765,1,8,0:0:0:0:
256,192,126936,1,0,0:0:0:0:
256,192,127108,1,8,0:0:0:0:
256,192,127193,1,8,0:0:0:0:
256,192,127279,1,0,0:0:0:0:
256,192,127451,1,8,0:0:0:0:
256,192,127622,1,0,0:0:0:0:
256,192,127708,1,0,0:0:0:0:
256,192,127793,1,8,0:0:0:0:
256,192,127965,1,8,0:0:0:0:
256,192,128136,1,0,0:0:0:0:
256,192,128222,1,8,0:0:0:0:
256,192,128308,1,0,0:0:0:0:
256,192,128479,1,8,0:0:0:0:
256,192,128651,1,0,0:0:0:0:
256,192,128736,1,0,0:0:0:0:
256,192,128822,1,8,0:0:0:0:
256,192,128993,1,0,0:0:0:0:
256,192,129165,1,8,0:0:0:0:
256,192,129251,1,0,0:0:0:0:
256,192,129336,1,8,0:0:0:0:
256,192,129508,1,8,0:0:0:0:
256,192,129679,1,0,0:0:0:0:
256,192,129851,1,8,0:0:0:0:
256,192,129936,1,8,0:0:0:0:
256,192,130022,1,0,0:0:0:0:
256,192,130193,1,8,0:0:0:0:
256,192,130365,1,0,0:0:0:0:
256,192,130536,1,8,0:0:0:0:
256,192,130622,1,8,0:0:0:0:
256,192,130708,1,8,0:0:0:0:
256,192,130879,1,0,0:0:0:0:
256,192,130965,1,0,0:0:0:0:
256,192,131051,1,8,0:0:0:0:
256,192,131222,1,0,0:0:0:0:
256,192,131393,1,8,0:0:0:0:
256,192,131479,1,0,0:0:0:0:
256,192,131565,1,8,0:0:0:0:
256,192,131651,1,8,0:0:0:0:
256,192,131736,1,0,0:0:0:0:
256,192,131908,1,8,0:0:0:0:
256,192,132079,1,0,0:0:0:0:
256,192,132251,1,8,0:0:0:0:
256,192,132593,1,8,0:0:0:0:
256,192,132765,1,0,0:0:0:0:
256,192,132936,1,8,0:0:0:0:
256,192,133279,1,8,0:0:0:0:
256,192,133451,1,8,0:0:0:0:
256,192,133622,1,8,0:0:0:0:
256,192,133793,1,8,0:0:0:0:
256,192,133965,1,0,0:0:0:0:
256,192,134051,1,0,0:0:0:0:
256,192,134136,1,8,0:0:0:0:
256,192,134308,1,0,0:0:0:0:
256,192,134479,1,12,0:0:0:0:
256,192,134822,1,8,0:0:0:0:
256,192,134993,1,4,0:0:0:0:
256,192,135165,1,4,0:0:0:0:
256,192,135508,1,8,0:0:0:0:
256,192,135593,1,8,0:0:0:0:
256,192,135679,1,8,0:0:0:0:
256,192,135851,1,4,0:0:0:0:
256,192,136193,1,8,0:0:0:0:
256,192,136365,1,4,0:0:0:0:
256,192,136536,1,4,0:0:0:0:
256,192,136708,1,8,0:0:0:0:
256,192,136879,1,8,0:0:0:0:
256,192,136965,1,0,0:0:0:0:
256,192,137051,1,8,0:0:0:0:
256,192,137222,1,4,0:0:0:0:
256,192,137565,1,8,0:0:0:0:
256,192,137736,1,4,0:0:0:0:
256,192,137908,1,4,0:0:0:0:
256,192,138079,1,8,0:0:0:0:
256,192,138165,1,0,0:0:0:0:
256,192,138251,1,8,0:0:0:0:
256,192,138336,1,8,0:0:0:0:
256,192,138422,1,8,0:0:0:0:
256,192,138593,1,4,0:0:0:0:
256,192,138936,1,8,0:0:0:0:
256,192,139108,1,4,0:0:0:0:
256,192,139279,1,4,0:0:0:0:
256,192,139451,1,8,0:0:0:0:
256,192,139536,1,8,0:0:0:0:
256,192,139622,1,0,0:0:0:0:
256,192,139708,1,8,0:0:0:0:
256,192,139793,1,0,0:0:0:0:
256,192,139965,1,12,0:0:0:0:
256,192,140308,1,0,0:0:0:0:
256,192,140479,1,8,0:0:0:0:
256,192,140565,1,8,0:0:0:0:
256,192,140651,1,0,0:0:0:0:
256,192,140822,1,0,0:0:0:0:
256,192,140993,1,8,0:0:0:0:
256,192,141165,1,0,0:0:0:0:
256,192,141336,1,12,0:0:0:0:
256,192,141508,1,0,0:0:0:0:
256,192,141593,1,0,0:0:0:0:
256,192,141679,1,8,0:0:0:0:
256,192,141851,1,8,0:0:0:0:
256,192,141936,1,0,0:0:0:0:
256,192,142022,1,8,0:0:0:0:
256,192,142193,1,0,0:0:0:0:
256,192,142365,1,8,0:0:0:0:
256,192,142536,1,0,0:0:0:0:
256,192,142708,1,12,0:0:0:0:
256,192,142879,1,0,0:0:0:0:
256,192,143051,1,8,0:0:0:0:
256,192,143136,1,0,0:0:0:0:
256,192,143222,1,0,0:0:0:0:
256,192,143393,1,8,0:0:0:0:
256,192,143565,1,0,0:0:0:0:
256,192,143736,1,8,0:0:0:0:
256,192,143822,1,0,0:0:0:0:
256,192,143908,1,8,0:0:0:0:
256,192,144079,1,0,0:0:0:0:
256,192,144165,1,0,0:0:0:0:
256,192,144251,1,8,0:0:0:0:
256,192,144336,1,8,0:0:0:0:
256,192,144422,1,0,0:0:0:0:
256,192,144508,1,8,0:0:0:0:
256,192,144593,1,0,0:0:0:0:
256,192,144679,1,0,0:0:0:0:
256,192,144765,1,8,0:0:0:0:
256,192,144851,1,0,0:0:0:0:
256,192,144936,1,8,0:0:0:0:
256,192,145022,1,8,0:0:0:0:
256,192,145108,1,0,0:0:0:0:
256,192,145193,1,8,0:0:0:0:
256,192,145279,1,0,0:0:0:0:
256,192,145365,1,0,0:0:0:0:
256,192,145451,1,8,0:0:0:0:
256,192,145622,1,0,0:0:0:0:
256,192,145708,1,0,0:0:0:0:
256,192,145793,1,8,0:0:0:0:
256,192,145965,1,0,0:0:0:0:
256,192,146051,1,8,0:0:0:0:
256,192,146136,1,0,0:0:0:0:
256,192,146222,1,8,0:0:0:0:
256,192,146308,1,0,0:0:0:0:
256,192,146479,1,12,0:0:0:0:
256,192,146822,1,4,0:0:0:0:
256,192,147079,1,8,0:0:0:0:
256,192,147165,1,0,0:0:0:0:
256,192,147336,1,8,0:0:0:0:
256,192,147508,1,0,0:0:0:0:
256,192,147593,1,0,0:0:0:0:
256,192,147679,1,0,0:0:0:0:
256,192,147851,1,8,0:0:0:0:
256,192,147936,1,8,0:0:0:0:
256,192,148022,1,0,0:0:0:0:
256,192,148108,1,8,0:0:0:0:
256,192,148193,1,0,0:0:0:0:
256,192,148365,1,0,0:0:0:0:
256,192,148536,1,8,0:0:0:0:
256,192,148622,1,0,0:0:0:0:
256,192,148708,1,8,0:0:0:0:
256,192,148879,1,0,0:0:0:0:
256,192,149051,1,8,0:0:0:0:
256,192,149136,1,8,0:0:0:0:
256,192,149222,1,0,0:0:0:0:
256,192,149393,1,0,0:0:0:0:
256,192,149479,1,0,0:0:0:0:
256,192,149565,1,8,0:0:0:0:
256,192,149651,1,0,0:0:0:0:
256,192,149822,1,0,0:0:0:0:
256,192,149908,1,8,0:0:0:0:
256,192,150079,1,0,0:0:0:0:
256,192,150251,1,8,0:0:0:0:
256,192,150336,1,8,0:0:0:0:
256,192,150422,1,0,0:0:0:0:
256,192,150508,1,0,0:0:0:0:
256,192,150593,1,8,0:0:0:0:
256,192,150765,1,0,0:0:0:0:
256,192,150851,1,8,0:0:0:0:
256,192,150936,1,0,0:0:0:0:
256,192,151108,1,8,0:0:0:0:
256,192,151279,1,0,0:0:0:0:
256,192,151365,1,0,0:0:0:0:
256,192,151451,1,8,0:0:0:0:
256,192,151536,1,8,0:0:0:0:
256,192,151622,1,0,0:0:0:0:
256,192,151793,1,8,0:0:0:0:
256,192,151879,1,8,0:0:0:0:
256,192,151965,1,0,0:0:0:0:
256,192,152136,1,8,0:0:0:0:
256,192,152308,1,4,0:0:0:0:
256,192,152565,1,0,0:0:0:0:
256,192,152651,1,8,0:0:0:0:
256,192,152822,1,0,0:0:0:0:
256,192,152993,1,8,0:0:0:0:
256,192,153079,1,8,0:0:0:0:
256,192,153165,1,0,0:0:0:0:
256,192,153251,1,8,0:0:0:0:
256,192,153336,1,0,0:0:0:0:
256,192,153508,1,8,0:0:0:0:
256,192,153679,1,4,0:0:0:0:
256,192,153851,1,8,0:0:0:0:
256,192,154022,1,0,0:0:0:0:
256,192,154108,1,0,0:0:0:0:
256,192,154193,1,8,0:0:0:0:
256,192,154365,1,0,0:0:0:0:
256,192,154536,1,8,0:0:0:0:
256,192,154622,1,8,0:0:0:0:
256,192,154708,1,0,0:0:0:0:
256,192,154879,1,8,0:0:0:0:
256,192,155051,1,4,0:0:0:0:
256,192,155222,1,8,0:0:0:0:
256,192,155308,1,8,0:0:0:0:
256,192,155393,1,0,0:0:0:0:
256,192,155479,1,0,0:0:0:0:
256,192,155565,1,8,0:0:0:0:
256,192,155736,1,0,0:0:0:0:
256,192,155908,1,8,0:0:0:0:
256,192,155993,1,8,0:0:0:0:
256,192,156079,1,0,0:0:0:0:
256,192,156165,1,0,0:0:0:0:
256,192,156251,1,8,0:0:0:0:
256,192,156422,1,8,0:0:0:0:
256,192,156508,1,0,0:0:0:0:
256,192,156593,1,8,0:0:0:0:
256,192,156679,1,8,0:0:0:0:
256,192,156765,1,0,0:0:0:0:
256,192,156851,1,0,0:0:0:0:
256,192,156936,1,8,0:0:0:0:
256,192,157022,1,0,0:0:0:0:
256,192,157108,1,8,0:0:0:0:
256,192,157165,1,8,0:0:0:0:
256,192,157222,1,8,0:0:0:0:
256,192,157279,1,0,0:0:0:0:
256,192,157365,1,0,0:0:0:0:
256,192,157451,1,8,0:0:0:0:
256,192,157622,1,8,0:0:0:0:
256,192,157793,1,4,0:0:0:0:
256,192,158051,1,8,0:0:0:0:
256,192,158136,1,0,0:0:0:0:
256,192,158308,1,8,0:0:0:0:
256,192,158479,1,0,0:0:0:0:
256,192,158565,1,0,0:0:0:0:
256,192,158651,1,8,0:0:0:0:
256,192,158736,1,8,0:0:0:0:
256,192,158822,1,0,0:0:0:0:
256,192,158993,1,8,0:0:0:0:
256,192,159079,1,0,0:0:0:0:
256,192,159165,1,8,0:0:0:0:
256,192,159336,1,0,0:0:0:0:
256,192,159508,1,8,0:0:0:0:
256,192,159679,1,0,0:0:0:0:
256,192,159765,1,0,0:0:0:0:
256,192,159851,1,8,0:0:0:0:
256,192,159936,1,0,0:0:0:0:
256,192,160022,1,8,0:0:0:0:
256,192,160108,1,8,0:0:0:0:
256,192,160193,1,0,0:0:0:0:
256,192,160365,1,8,0:0:0:0:
256,192,160536,1,0,0:0:0:0:
256,192,160622,1,8,0:0:0:0:
256,192,160793,1,8,0:0:0:0:
256,192,160879,1,0,0:0:0:0:
256,192,160965,1,0,0:0:0:0:
256,192,161051,1,8,0:0:0:0:
256,192,161222,1,0,0:0:0:0:
256,192,161393,1,8,0:0:0:0:
256,192,161479,1,0,0:0:0:0:
256,192,161565,1,8,0:0:0:0:
256,192,161651,1,8,0:0:0:0:
256,192,161736,1,0,0:0:0:0:
256,192,161822,1,0,0:0:0:0:
256,192,161908,1,8,0:0:0:0:
256,192,162079,1,8,0:0:0:0:
256,192,162251,1,0,0:0:0:0:
256,192,162336,1,0,0:0:0:0:
256,192,162422,1,8,0:0:0:0:
256,192,162508,1,0,0:0:0:0:
256,192,162593,1,8,0:0:0:0:
256,192,162765,1,0,0:0:0:0:
256,192,162851,1,8,0:0:0:0:
256,192,162936,1,0,0:0:0:0:
256,192,163108,1,8,0:0:0:0:
256,192,163279,1,4,0:0:0:0:
256,192,163536,1,0,0:0:0:0:
256,192,163622,1,8,0:0:0:0:
256,192,163793,1,0,0:0:0:0:
256,192,163965,1,8,0:0:0:0:
256,192,164051,1,0,0:0:0:0:
256,192,164222,1,0,0:0:0:0:
256,192,164308,1,8,0:0:0:0:
256,192,164479,1,8,0:0:0:0:
256,192,164651,1,4,0:0:0:0:
256,192,164908,1,0,0:0:0:0:
256,192,164993,1,8,0:0:0:0:
256,192,165165,1,0,0:0:0:0:
256,192,165336,1,8,0:0:0:0:
256,192,165422,1,0,0:0:0:0:
256,192,165508,1,0,0:0:0:0:
256,192,165593,1,0,0:0:0:0:
256,192,165679,1,8,0:0:0:0:
256,192,165851,1,8,0:0:0:0:
256,192,166022,1,4,0:0:0:0:
256,192,166193,1,8,0:0:0:0:
256,192,166365,1,0,0:0:0:0:
256,192,166451,1,0,0:0:0:0:
256,192,166536,1,8,0:0:0:0:
256,192,166622,1,0,0:0:0:0:
256,192,166708,1,8,0:0:0:0:
256,192,166879,1,0,0:0:0:0:
256,192,166965,1,8,0:0:0:0:
256,192,167051,1,0,0:0:0:0:
256,192,167222,1,8,0:0:0:0:
256,192,167308,1,8,0:0:0:0:
256,192,167393,1,0,0:0:0:0:
256,192,167479,1,0,0:0:0:0:
256,192,167565,1,8,0:0:0:0:
256,192,167651,1,0,0:0:0:0:
256,192,167736,1,8,0:0:0:0:
256,192,167822,1,8,0:0:0:0:
256,192,167908,1,0,0:0:0:0:
256,192,167993,1,0,0:0:0:0:
256,192,168079,1,8,0:0:0:0:
256,192,168136,1,8,0:0:0:0:
256,192,168193,1,8,0:0:0:0:
256,192,168251,1,0,0:0:0:0:
256,192,168336,1,0,0:0:0:0:
256,192,168422,1,8,0:0:0:0:
256,192,168479,1,0,0:0:0:0:
256,192,168536,1,0,0:0:0:0:
256,192,168593,1,8,0:0:0:0:
256,192,168679,1,8,0:0:0:0:
256,192,168765,1,0,0:0:0:0:
256,192,168851,1,8,0:0:0:0:
256,192,169022,1,0,0:0:0:0:
256,192,169108,1,0,0:0:0:0:
256,192,169279,1,8,0:0:0:0:
256,192,169365,1,8,0:0:0:0:
256,192,169451,1,0,0:0:0:0:
256,192,169536,1,0,0:0:0:0:
256,192,169622,1,8,0:0:0:0:
256,192,169708,1,0,0:0:0:0:
256,192,169793,1,8,0:0:0:0:
256,192,170136,1,4,0:0:0:0:
256,192,170393,1,8,0:0:0:0:
256,192,170479,1,0,0:0:0:0:
256,192,170651,1,8,0:0:0:0:
256,192,170822,1,0,0:0:0:0:
256,192,170908,1,0,0:0:0:0:
256,192,170993,1,8,0:0:0:0:
256,192,171079,1,0,0:0:0:0:
256,192,171251,1,0,0:0:0:0:
256,192,171336,1,8,0:0:0:0:
256,192,171422,1,8,0:0:0:0:
256,192,171508,1,0,0:0:0:0:
256,192,171593,1,0,0:0:0:0:
256,192,171679,1,8,0:0:0:0:
256,192,171851,1,0,0:0:0:0:
256,192,172022,1,8,0:0:0:0:
256,192,172193,1,0,0:0:0:0:
256,192,172279,1,0,0:0:0:0:
256,192,172365,1,8,0:0:0:0:
256,192,172451,1,0,0:0:0:0:
256,192,172622,1,0,0:0:0:0:
256,192,172708,1,8,0:0:0:0:
256,192,172793,1,8,0:0:0:0:
256,192,172879,1,0,0:0:0:0:
256,192,173051,1,0,0:0:0:0:
256,192,173222,1,8,0:0:0:0:
256,192,173393,1,0,0:0:0:0:
256,192,173479,1,0,0:0:0:0:
256,192,173565,1,8,0:0:0:0:
256,192,173736,1,0,0:0:0:0:
256,192,173822,1,8,0:0:0:0:
256,192,173993,1,8,0:0:0:0:
256,192,174079,1,0,0:0:0:0:
256,192,174165,1,0,0:0:0:0:
256,192,174251,1,8,0:0:0:0:
256,192,174422,1,0,0:0:0:0:
256,192,174593,1,8,0:0:0:0:
256,192,174679,1,0,0:0:0:0:
256,192,174765,1,8,0:0:0:0:
256,192,174936,1,0,0:0:0:0:
256,192,175108,1,8,0:0:0:0:
256,192,175193,1,0,0:0:0:0:
256,192,175365,1,0,0:0:0:0:
256,192,175451,1,8,0:0:0:0:
256,192,175536,1,0,0:0:0:0:
256,192,175622,1,8,0:0:0:0:
256,192,175793,1,0,0:0:0:0:
256,192,175965,1,8,0:0:0:0:
256,192,176051,1,8,0:0:0:0:
256,192,176136,1,0,0:0:0:0:
256,192,176308,1,8,0:0:0:0:
256,192,176479,1,0,0:0:0:0:
256,192,176565,1,8,0:0:0:0:
256,192,176736,1,8,0:0:0:0:
256,192,176822,1,0,0:0:0:0:
256,192,176908,1,0,0:0:0:0:
256,192,176993,1,8,0:0:0:0:
256,192,177165,1,0,0:0:0:0:
256,192,177251,1,0,0:0:0:0:
256,192,177336,1,8,0:0:0:0:
256,192,177422,1,0,0:0:0:0:
256,192,177508,1,8,0:0:0:0:
256,192,177593,1,8,0:0:0:0:
256,192,177679,1,0,0:0:0:0:
256,192,177851,1,8,0:0:0:0:
256,192,178022,1,0,0:0:0:0:
256,192,178108,1,8,0:0:0:0:
256,192,178193,1,0,0:0:0:0:
256,192,178279,1,0,0:0:0:0:
256,192,178365,1,8,0:0:0:0:
256,192,178536,1,0,0:0:0:0:
256,192,178622,1,8,0:0:0:0:
256,192,178793,1,8,0:0:0:0:
256,192,178879,1,0,0:0:0:0:
256,192,179051,1,8,0:0:0:0:
256,192,179222,1,0,0:0:0:0:
256,192,179308,1,8,0:0:0:0:
256,192,179479,1,8,0:0:0:0:
256,192,179565,1,0,0:0:0:0:
256,192,179736,1,8,0:0:0:0:
256,192,179908,1,0,0:0:0:0:
256,192,179993,1,8,0:0:0:0:
256,192,180165,1,0,0:0:0:0:
256,192,180251,1,8,0:0:0:0:
256,192,180422,1,8,0:0:0:0:
256,192,180593,1,0,0:0:0:0:
256,192,180679,1,8,0:0:0:0:
256,192,180765,1,0,0:0:0:0:
256,192,180851,1,0,0:0:0:0:
256,192,180936,1,8,0:0:0:0:
256,192,181108,1,4,0:0:0:0:
256,192,181365,1,0,0:0:0:0:
256,192,181451,1,8,0:0:0:0:
256,192,181622,1,0,0:0:0:0:
256,192,181793,1,8,0:0:0:0:
256,192,181879,1,8,0:0:0:0:
256,192,181965,1,0,0:0:0:0:
256,192,182051,1,8,0:0:0:0:
256,192,182222,1,8,0:0:0:0:
256,192,182308,1,0,0:0:0:0:
256,192,182393,1,0,0:0:0:0:
256,192,182479,1,8,0:0:0:0:
256,192,182565,1,0,0:0:0:0:
256,192,182651,1,8,0:0:0:0:
256,192,182822,1,0,0:0:0:0:
256,192,182993,1,8,0:0:0:0:
256,192,183165,1,0,0:0:0:0:
256,192,183251,1,0,0:0:0:0:
256,192,183336,1,8,0:0:0:0:
256,192,183422,1,0,0:0:0:0:
256,192,183593,1,0,0:0:0:0:
256,192,183679,1,8,0:0:0:0:
256,192,183765,1,8,0:0:0:0:
256,192,183851,1,0,0:0:0:0:
256,192,184022,1,8,0:0:0:0:
256,192,184108,1,0,0:0:0:0:
256,192,184193,1,8,0:0:0:0:
256,192,184365,1,0,0:0:0:0:
256,192,184536,1,8,0:0:0:0:
256,192,184708,1,0,0:0:0:0:
256,192,184793,1,8,0:0:0:0:
256,192,184965,1,8,0:0:0:0:
256,192,185051,1,0,0:0:0:0:
256,192,185136,1,8,0:0:0:0:
256,192,185222,1,0,0:0:0:0:
256,192,185393,1,8,0:0:0:0:
256,192,185565,1,0,0:0:0:0:
256,192,185651,1,0,0:0:0:0:
256,192,185736,1,8,0:0:0:0:
256,192,185908,1,0,0:0:0:0:
256,192,186079,1,8,0:0:0:0:
256,192,186165,1,0,0:0:0:0:
256,192,186336,1,0,0:0:0:0:
256,192,186422,1,8,0:0:0:0:
256,192,186508,1,8,0:0:0:0:
256,192,186593,1,0,0:0:0:0:
256,192,186765,1,0,0:0:0:0:
256,192,186936,1,8,0:0:0:0:
256,192,187022,1,8,0:0:0:0:
256,192,187108,1,0,0:0:0:0:
256,192,187279,1,8,0:0:0:0:
256,192,187451,1,0,0:0:0:0:
256,192,187536,1,8,0:0:0:0:
256,192,187708,1,8,0:0:0:0:
256,192,187793,1,0,0:0:0:0:
256,192,187879,1,0,0:0:0:0:
256,192,187965,1,8,0:0:0:0:
256,192,188136,1,0,0:0:0:0:
256,192,188308,1,8,0:0:0:0:
256,192,188393,1,0,0:0:0:0:
256,192,188479,1,8,0:0:0:0:
256,192,188565,1,8,0:0:0:0:
256,192,188651,1,0,0:0:0:0:
256,192,188822,1,8,0:0:0:0:
256,192,188993,1,0,0:0:0:0:
256,192,189165,1,8,0:0:0:0:
256,192,189336,1,0,0:0:0:0:
256,192,189422,1,8,0:0:0:0:
256,192,189508,1,0,0:0:0:0:
256,192,189593,1,0,0:0:0:0:
256,192,189679,1,8,0:0:0:0:
256,192,189765,1,0,0:0:0:0:
256,192,189851,1,8,0:0:0:0:
256,192,189936,1,8,0:0:0:0:
256,192,190022,1,0,0:0:0:0:
256,192,190079,1,0,0:0:0:0:
256,192,190136,1,0,0:0:0:0:
256,192,190193,1,8,0:0:0:0:
256,192,190279,1,8,0:0:0:0:
256,192,190365,1,0,0:0:0:0:
256,192,190422,1,0,0:0:0:0:
256,192,190479,1,0,0:0:0:0:
256,192,190536,1,8,0:0:0:0:
256,192,190622,1,8,0:0:0:0:
256,192,190708,1,0,0:0:0:0:
256,192,190879,1,8,0:0:0:0:
256,192,190965,1,0,0:0:0:0:
256,192,191051,1,8,0:0:0:0:
256,192,191222,1,0,0:0:0:0:
256,192,191308,1,8,0:0:0:0:
256,192,191393,1,0,0:0:0:0:
256,192,191479,1,8,0:0:0:0:
256,192,191565,1,0,0:0:0:0:
256,192,191736,1,12,0:0:0:0:
256,192,192079,1,4,0:0:0:0:
256,192,192251,1,0,0:0:0:0:
256,192,192422,1,8,0:0:0:0:
256,192,192593,1,8,0:0:0:0:
256,192,192936,1,8,0:0:0:0:
256,192,193022,1,8,0:0:0:0:
256,192,193108,1,8,0:0:0:0:
256,192,193279,1,8,0:0:0:0:
256,192,193451,1,0,0:0:0:0:
256,192,193622,1,0,0:0:0:0:
256,192,193793,1,8,0:0:0:0:
256,192,193965,1,0,0:0:0:0:
256,192,194136,1,8,0:0:0:0:
256,192,194393,1,0,0:0:0:0:
256,192,194479,1,8,0:0:0:0:
256,192,194651,1,8,0:0:0:0:
256,192,194822,1,0,0:0:0:0:
256,192,194993,1,0,0:0:0:0:
256,192,195165,1,8,0:0:0:0:
256,192,195336,1,8,0:0:0:0:
256,192,195679,1,8,0:0:0:0:
256,192,195765,1,8,0:0:0:0:
256,192,195851,1,8,0:0:0:0:
256,192,196022,1,8,0:0:0:0:
256,192,196193,1,0,0:0:0:0:
256,192,196365,1,0,0:0:0:0:
256,192,196536,1,8,0:0:0:0:
256,192,196708,1,8,0:0:0:0:
256,192,196879,1,0,0:0:0:0:
256,192,197051,1,12,0:0:0:0:
256,192,197565,1,0,0:0:0:0:
256,192,197651,1,0,0:0:0:0:
256,192,197736,1,0,0:0:0:0:
256,192,197908,1,8,0:0:0:0:
256,192,198079,1,0,0:0:0:0:
256,192,198165,1,8,0:0:0:0:
256,192,198251,1,0,0:0:0:0:
256,192,198422,1,8,0:0:0:0:
256,192,198593,1,0,0:0:0:0:
256,192,198679,1,0,0:0:0:0:
256,192,198765,1,0,0:0:0:0:
256,192,198936,1,12,0:0:0:0:
256,192,199108,1,0,0:0:0:0:
256,192,199193,1,8,0:0:0:0:
256,192,199279,1,0,0:0:0:0:
256,192,199451,1,8,0:0:0:0:
256,192,199622,1,0,0:0:0:0:
256,192,199708,1,0,0:0:0:0:
256,192,199793,1,0,0:0:0:0:
256,192,199965,1,8,0:0:0:0:
256,192,200136,1,0,0:0:0:0:
256,192,200308,1,8,0:0:0:0:
256,192,200393,1,0,0:0:0:0:
256,192,200479,1,8,0:0:0:0:
256,192,200565,1,8,0:0:0:0:
256,192,200651,1,0,0:0:0:0:
256,192,200736,1,0,0:0:0:0:
256,192,200822,1,8,0:0:0:0:
256,192,200908,1,0,0:0:0:0:
256,192,200993,1,8,0:0:0:0:
256,192,201079,1,8,0:0:0:0:
256,192,201165,1,0,0:0:0:0:
256,192,201251,1,0,0:0:0:0:
256,192,201336,1,8,0:0:0:0:
256,192,201422,1,8,0:0:0:0:
256,192,201508,1,0,0:0:0:0:
256,192,201593,1,0,0:0:0:0:
256,192,201679,1,8,0:0:0:0:
256,192,201736,1,8,0:0:0:0:
256,192,201793,1,8,0:0:0:0:
256,192,201851,1,0,0:0:0:0:
256,192,201936,1,0,0:0:0:0:
256,192,202022,1,8,0:0:0:0:
256,192,202079,1,0,0:0:0:0:
256,192,202136,1,0,0:0:0:0:
256,192,202193,1,8,0:0:0:0:
256,192,202279,1,0,0:0:0:0:
256,192,202365,1,8,0:0:0:0:
256,192,202422,1,8,0:0:0:0:
256,192,202479,1,8,0:0:0:0:
256,192,202536,1,8,0:0:0:0:
256,192,202622,1,8,0:0:0:0:
256,192,202708,1,0,0:0:0:0:
256,192,202879,1,0,0:0:0:0:
256,192,203051,1,8,0:0:0:0:
256,192,203393,1,4,0:0:0:0:
256,192,203565,1,8,0:0:0:0:
256,192,203736,1,0,0:0:0:0:
256,192,203822,1,0,0:0:0:0:
256,192,203908,1,8,0:0:0:0:
256,192,203993,1,0,0:0:0:0:
256,192,204079,1,8,0:0:0:0:
256,192,204251,1,0,0:0:0:0:
256,192,204336,1,8,0:0:0:0:
256,192,204422,1,0,0:0:0:0:
256,192,204593,1,8,0:0:0:0:
256,192,204765,1,0,0:0:0:0:
256,192,204936,1,8,0:0:0:0:
256,192,205022,1,8,0:0:0:0:
256,192,205108,1,0,0:0:0:0:
256,192,205193,1,8,0:0:0:0:
256,192,205279,1,0,0:0:0:0:
256,192,205365,1,0,0:0:0:0:
256,192,205451,1,8,0:0:0:0:
256,192,205622,1,8,0:0:0:0:
256,192,205793,1,0,0:0:0:0:
256,192,205879,1,8,0:0:0:0:
256,192,206051,1,8,0:0:0:0:
256,192,206136,1,0,0:0:0:0:
256,192,206222,1,0,0:0:0:0:
256,192,206308,1,8,0:0:0:0:
256,192,206479,1,0,0:0:0:0:
256,192,206565,1,0,0:0:0:0:
256,192,206651,1,0,0:0:0:0:
256,192,206822,1,8,0:0:0:0:
256,192,206993,1,8,0:0:0:0:
256,192,207079,1,8,0:0:0:0:
256,192,207165,1,0,0:0:0:0:
256,192,207336,1,8,0:0:0:0:
256,192,207508,1,0,0:0:0:0:
256,192,207593,1,0,0:0:0:0:
256,192,207679,1,8,0:0:0:0:
256,192,207765,1,8,0:0:0:0:
256,192,207851,1,0,0:0:0:0:
256,192,208022,1,8,0:0:0:0:
256,192,208108,1,0,0:0:0:0:
256,192,208193,1,8,0:0:0:0:
256,192,208365,1,8,0:0:0:0:
256,192,208536,1,4,0:0:0:0:
256,192,208793,1,0,0:0:0:0:
256,192,208879,1,8,0:0:0:0:
256,192,209051,1,0,0:0:0:0:
256,192,209222,1,8,0:0:0:0:
256,192,209308,1,8,0:0:0:0:
256,192,209479,1,0,0:0:0:0:
256,192,209565,1,8,0:0:0:0:
256,192,209736,1,8,0:0:0:0:
256,192,209908,1,4,0:0:0:0:
256,192,210165,1,0,0:0:0:0:
256,192,210251,1,8,0:0:0:0:
256,192,210422,1,0,0:0:0:0:
256,192,210593,1,8,0:0:0:0:
256,192,210679,1,8,0:0:0:0:
256,192,210765,1,0,0:0:0:0:
256,192,210851,1,0,0:0:0:0:
256,192,210936,1,8,0:0:0:0:
256,192,211108,1,8,0:0:0:0:
256,192,211279,1,4,0:0:0:0:
256,192,211451,1,8,0:0:0:0:
256,192,211622,1,0,0:0:0:0:
256,192,211708,1,0,0:0:0:0:
256,192,211793,1,8,0:0:0:0:
256,192,211879,1,0,0:0:0:0:
256,192,211965,1,8,0:0:0:0:
256,192,212136,1,0,0:0:0:0:
256,192,212222,1,8,0:0:0:0:
256,192,212308,1,0,0:0:0:0:
256,192,212479,1,8,0:0:0:0:
256,192,212565,1,8,0:0:0:0:
256,192,212651,1,0,0:0:0:0:
256,192,212736,1,0,0:0:0:0:
256,192,212822,1,8,0:0:0:0:
256,192,212908,1,0,0:0:0:0:
256,192,212993,1,8,0:0:0:0:
256,192,213079,1,8,0:0:0:0:
256,192,213165,1,0,0:0:0:0:
256,192,213251,1,0,0:0:0:0:
256,192,213336,1,8,0:0:0:0:
256,192,213393,1,8,0:0:0:0:
256,192,213451,1,8,0:0:0:0:
256,192,213508,1,0,0:0:0:0:
256,192,213593,1,0,0:0:0:0:
256,192,213679,1,8,0:0:0:0:
256,192,213736,1,0,0:0:0:0:
256,192,213793,1,0,0:0:0:0:
256,192,213851,1,8,0:0:0:0:
256,192,214022,1,4,0:0:0:0:
256,192,214193,1,8,0:0:0:0:
256,192,214365,1,0,0:0:0:0:
256,192,214451,1,0,0:0:0:0:
256,192,214536,1,8,0:0:0:0:
256,192,214708,1,0,0:0:0:0:
256,192,214879,1,8,0:0:0:0:
256,192,214965,1,8,0:0:0:0:
256,192,215051,1,8,0:0:0:0:
256,192,215222,1,0,0:0:0:0:
256,192,215393,1,0,0:0:0:0:
256,192,215565,1,8,0:0:0:0:
256,192,215651,1,8,0:0:0:0:
256,192,215736,1,0,0:0:0:0:
256,192,215908,1,8,0:0:0:0:
256,192,216079,1,8,0:0:0:0:
256,192,216251,1,0,0:0:0:0:
256,192,216422,1,8,0:0:0:0:
256,192,216593,1,8,0:0:0:0:
256,192,216679,1,0,0:0:0:0:
256,192,216765,1,8,0:0:0:0:
256,192,216936,1,0,0:0:0:0:
256,192,217108,1,8,0:0:0:0:
256,192,217279,1,0,0:0:0:0:
256,192,217365,1,0,0:0:0:0:
256,192,217451,1,8,0:0:0:0:
256,192,217622,1,8,0:0:0:0:
256,192,217793,1,0,0:0:0:0:
256,192,217965,1,8,0:0:0:0:
256,192,218051,1,8,0:0:0:0:
256,192,218136,1,0,0:0:0:0:
256,192,218308,1,8,0:0:0:0:
256,192,218479,1,0,0:0:0:0:
256,192,218651,1,8,0:0:0:0:
256,192,218993,1,0,0:0:0:0:
256,192,219165,1,8,0:0:0:0:
256,192,219251,1,8,0:0:0:0:
256,192,219336,1,8,0:0:0:0:
256,192,219422,1,8,0:0:0:0:
256,192,219508,1,0,0:0:0:0:
256,192,219679,1,8,0:0:0:0:
256,192,219851,1,0,0:0:0:0:
256,192,219936,1,0,0:0:0:0:
256,192,220022,1,8,0:0:0:0:
256,192,220193,1,0,0:0:0:0:
256,192,220365,1,8,0:0:0:0:
256,192,220451,1,8,0:0:0:0:
256,192,220536,1,8,0:0:0:0:
256,192,220708,1,0,0:0:0:0:
256,192,220879,1,0,0:0:0:0:
256,192,221051,1,8,0:0:0:0:
256,192,221136,1,8,0:0:0:0:
256,192,221222,1,0,0:0:0:0:
256,192,221393,1,8,0:0:0:0:
256,192,221565,1,0,0:0:0:0:
256,192,221736,1,0,0:0:0:0:
256,192,221908,1,8,0:0:0:0:
256,192,222079,1,8,0:0:0:0:
256,192,222165,1,0,0:0:0:0:
256,192,222251,1,8,0:0:0:0:
256,192,222422,1,0,0:0:0:0:
256,192,222593,1,0,0:0:0:0:
256,192,222679,1,0,0:0:0:0:
256,192,222765,1,8,0:0:0:0:
256,192,222936,1,0,0:0:0:0:
256,192,223108,1,8,0:0:0:0:
256,192,223279,1,0,0:0:0:0:
256,192,223365,1,0,0:0:0:0:
256,192,223451,1,8,0:0:0:0:
256,192,223536,1,0,0:0:0:0:
256,192,223622,1,8,0:0:0:0:
256,192,223793,1,0,0:0:0:0:
256,192,223879,1,0,0:0:0:0:
256,192,223965,1,8,0:0:0:0:
256,192,224136,1,8,0:0:0:0:
256,192,224222,1,8,0:0:0:0:
256,192,224308,1,0,0:0:0:0:
256,192,224393,1,8,0:0:0:0:
256,192,224479,1,0,0:0:0:0:
256,192,224565,1,0,0:0:0:0:
256,192,224651,1,8,0:0:0:0:
256,192,224736,1,0,0:0:0:0:
256,192,224822,1,8,0:0:0:0:
256,192,224993,1,4,0:0:0:0:
256,192,225336,1,0,0:0:0:0:
256,192,225508,1,8,0:0:0:0:
256,192,225593,1,8,0:0:0:0:
256,192,225679,1,0,0:0:0:0:
256,192,225851,1,8,0:0:0:0:
256,192,226022,1,0,0:0:0:0:
256,192,226108,1,0,0:0:0:0:
256,192,226193,1,8,0:0:0:0:
256,192,226365,1,0,0:0:0:0:
256,192,226536,1,8,0:0:0:0:
256,192,226622,1,8,0:0:0:0:
256,192,226708,1,0,0:0:0:0:
256,192,226879,1,8,0:0:0:0:
256,192,227051,1,0,0:0:0:0:
256,192,227222,1,0,0:0:0:0:
256,192,227308,1,0,0:0:0:0:
256,192,227393,1,8,0:0:0:0:
256,192,227565,1,8,0:0:0:0:
256,192,227651,1,0,0:0:0:0:
256,192,227736,1,8,0:0:0:0:
256,192,227908,1,8,0:0:0:0:
256,192,228079,1,0,0:0:0:0:
256,192,228251,1,8,0:0:0:0:
256,192,228336,1,8,0:0:0:0:
256,192,228422,1,0,0:0:0:0:
256,192,228593,1,8,0:0:0:0:
256,192,228765,1,0,0:0:0:0:
256,192,228851,1,0,0:0:0:0:
256,192,228936,1,8,0:0:0:0:
256,192,229108,1,8,0:0:0:0:
256,192,229279,1,0,0:0:0:0:
256,192,229365,1,8,0:0:0:0:
256,192,229451,1,0,0:0:0:0:
256,192,229622,1,8,0:0:0:0:
256,192,229965,1,0,0:0:0:0:
256,192,230136,1,8,0:0:0:0:
256,192,230222,1,8,0:0:0:0:
256,192,230308,1,8,0:0:0:0:
256,192,230393,1,8,0:0:0:0:
256,192,230479,1,0,0:0:0:0:
256,192,230651,1,8,0:0:0:0:
256,192,230822,1,0,0:0:0:0:
256,192,230908,1,0,0:0:0:0:
256,192,230993,1,8,0:0:0:0:
256,192,231165,1,0,0:0:0:0:
256,192,231336,1,8,0:0:0:0:
256,192,231422,1,8,0:0:0:0:
256,192,231508,1,0,0:0:0:0:
256,192,231679,1,8,0:0:0:0:
256,192,231851,1,0,0:0:0:0:
256,192,232022,1,8,0:0:0:0:
256,192,232108,1,0,0:0:0:0:
256,192,232193,1,8,0:0:0:0:
256,192,232365,1,8,0:0:0:0:
256,192,232536,1,0,0:0:0:0:
256,192,232708,1,0,0:0:0:0:
256,192,232793,1,0,0:0:0:0:
256,192,232879,1,8,0:0:0:0:
256,192,233051,1,8,0:0:0:0:
256,192,233136,1,8,0:0:0:0:
256,192,233222,1,0,0:0:0:0:
256,192,233308,1,0,0:0:0:0:
256,192,233393,1,8,0:0:0:0:
256,192,233479,1,0,0:0:0:0:
256,192,233565,1,8,0:0:0:0:
256,192,233651,1,8,0:0:0:0:
256,192,233736,1,0,0:0:0:0:
256,192,233822,1,8,0:0:0:0:
256,192,233908,1,0,0:0:0:0:
256,192,233993,1,0,0:0:0:0:
256,192,234079,1,8,0:0:0:0:
256,192,234165,1,8,0:0:0:0:
256,192,234251,1,0,0:0:0:0:
256,192,234422,1,12,0:0:0:0:
256,192,234765,1,0,0:0:0:0:
256,192,234936,1,8,0:0:0:0:
256,192,235108,1,0,0:0:0:0:
256,192,235451,1,0,0:0:0:0:
256,192,235622,1,8,0:0:0:0:
256,192,235708,1,8,0:0:0:0:
256,192,235793,1,8,0:0:0:0:
256,192,235965,1,4,0:0:0:0:
256,192,236136,1,0,0:0:0:0:
256,192,236308,1,8,0:0:0:0:
256,192,236479,1,8,0:0:0:0:
256,192,236565,1,8,0:0:0:0:
256,192,236651,1,0,0:0:0:0:
256,192,236822,1,8,0:0:0:0:
256,192,236993,1,0,0:0:0:0:
256,192,237165,1,8,0:0:0:0:
256,192,237508,1,0,0:0:0:0:
256,192,237679,1,8,0:0:0:0:
256,192,237851,1,8,0:0:0:0:
256,192,238193,1,0,0:0:0:0:
256,192,238365,1,8,0:0:0:0:
256,192,238536,1,0,0:0:0:0:
256,192,238622,1,0,0:0:0:0:
256,192,238708,1,8,0:0:0:0:
256,192,238879,1,8,0:0:0:0:
256,192,239051,1,0,0:0:0:0:
256,192,239222,1,8,0:0:0:0:
256,192,239565,1,0,0:0:0:0:
256,192,239736,1,0,0:0:0:0:
256,192,239908,1,8,0:0:0:0:
256,192,239993,1,8,0:0:0:0:
256,192,240079,1,0,0:0:0:0:
256,192,240251,1,8,0:0:0:0:
256,192,240422,1,0,0:0:0:0:
256,192,240593,1,8,0:0:0:0:
256,192,240936,1,0,0:0:0:0:
256,192,241108,1,8,0:0:0:0:
256,192,241193,1,0,0:0:0:0:
256,192,241279,1,8,0:0:0:0:
256,192,241451,1,0,0:0:0:0:
256,192,241622,1,0,0:0:0:0:
256,192,241793,1,8,0:0:0:0:
256,192,241965,1,8,0:0:0:0:
256,192,242308,1,8,0:0:0:0:
256,192,242479,1,0,0:0:0:0:
256,192,242651,1,8,0:0:0:0:
256,192,242736,1,8,0:0:0:0:
256,192,242822,1,0,0:0:0:0:
256,192,242993,1,0,0:0:0:0:
256,192,243165,1,8,0:0:0:0:
256,192,243336,1,8,0:0:0:0:
256,192,243679,1,0,0:0:0:0:
256,192,243851,1,8,0:0:0:0:
256,192,244022,1,0,0:0:0:0:
256,192,244108,1,0,0:0:0:0:
256,192,244193,1,8,0:0:0:0:
256,192,244365,1,8,0:0:0:0:
256,192,244536,1,0,0:0:0:0:
256,192,244708,1,8,0:0:0:0:
256,192,245051,1,0,0:0:0:0:
256,192,245222,1,0,0:0:0:0:
256,192,245393,1,8,0:0:0:0:
256,192,245479,1,8,0:0:0:0:
256,192,245565,1,0,0:0:0:0:
256,192,245736,1,8,0:0:0:0:
256,192,245908,1,0,0:0:0:0:
256,192,246079,1,8,0:0:0:0:
256,192,246422,1,8,0:0:0:0:
256,192,246593,1,8,0:0:0:0:
256,192,246765,1,8,0:0:0:0:
256,192,246936,1,4,0:0:0:0:
256,192,247108,1,0,0:0:0:0:
256,192,247279,1,8,0:0:0:0:
256,192,247451,1,8,0:0:0:0:
256,192,247536,1,8,0:0:0:0:
256,192,247622,1,0,0:0:0:0:
256,192,247793,1,8,0:0:0:0:
256,192,247965,1,0,0:0:0:0:
256,192,248136,1,8,0:0:0:0:
256,192,248222,1,8,0:0:0:0:
256,192,248308,1,8,0:0:0:0:
256,192,248479,1,0,0:0:0:0:
256,192,248651,1,8,0:0:0:0:
256,192,248822,1,8,0:0:0:0:
256,192,249165,1,0,0:0:0:0:
256,192,249336,1,8,0:0:0:0:
256,192,249508,1,0,0:0:0:0:
256,192,249593,1,0,0:0:0:0:
256,192,249679,1,8,0:0:0:0:
256,192,249851,1,8,0:0:0:0:
256,192,250022,1,0,0:0:0:0:
256,192,250193,1,8,0:0:0:0:
256,192,250536,1,0,0:0:0:0:
256,192,250708,1,0,0:0:0:0:
256,192,250879,1,8,0:0:0:0:
256,192,250965,1,8,0:0:0:0:
256,192,251051,1,0,0:0:0:0:
256,192,251222,1,8,0:0:0:0:
256,192,251393,1,0,0:0:0:0:
256,192,251565,1,8,0:0:0:0:
256,192,251908,1,0,0:0:0:0:
256,192,252079,1,8,0:0:0:0:
256,192,252165,1,0,0:0:0:0:
256,192,252251,1,8,0:0:0:0:
256,192,252336,1,8,0:0:0:0:
256,192,252422,1,0,0:0:0:0:
256,192,252593,1,0,0:0:0:0:
256,192,252765,1,8,0:0:0:0:
256,192,252936,1,8,0:0:0:0:
256,192,253108,1,0,0:0:0:0:
256,192,253279,1,0,0:0:0:0:
256,192,253365,1,0,0:0:0:0:
256,192,253451,1,8,0:0:0:0:
256,192,253622,1,8,0:0:0:0:
256,192,253793,1,0,0:0:0:0:
256,192,253965,1,0,0:0:0:0:
256,192,254051,1,0,0:0:0:0:
256,192,254136,1,8,0:0:0:0:
256,192,254308,1,8,0:0:0:0:
256,192,254479,1,0,0:0:0:0:
256,192,254651,1,8,0:0:0:0:
256,192,254822,1,8,0:0:0:0:
256,192,254993,1,0,0:0:0:0:
256,192,255079,1,0,0:0:0:0:
256,192,255165,1,8,0:0:0:0:
256,192,255251,1,0,0:0:0:0:
256,192,255336,1,8,0:0:0:0:
256,192,255422,1,8,0:0:0:0:
256,192,255508,1,0,0:0:0:0:
256,192,255593,1,0,0:0:0:0:
256,192,255679,1,8,0:0:0:0:
256,192,255765,1,8,0:0:0:0:
256,192,255851,1,0,0:0:0:0:
256,192,255908,1,0,0:0:0:0:
256,192,255965,1,0,0:0:0:0:
256,192,256022,1,8,0:0:0:0:
256,192,256108,1,8,0:0:0:0:
256,192,256193,1,0,0:0:0:0:
256,192,256365,1,12,0:0:0:0:
256,192,256708,1,0,0:0:0:0:
256,192,256879,1,8,0:0:0:0:
256,192,257051,1,0,0:0:0:0:
256,192,257393,1,8,0:0:0:0:
256,192,257565,1,0,0:0:0:0:
256,192,257736,1,8,0:0:0:0:
