osu file format v14

[General]
AudioFilename: audio.mp3
AudioLeadIn: 0
PreviewTime: 60903
Countdown: 0
SampleSet: Normal
StackLeniency: 0.7
Mode: 0
LetterboxInBreaks: 0
WidescreenStoryboard: 1

[Editor]
DistanceSpacing: 1.1
BeatDivisor: 6
GridSize: 16
TimelineZoom: 1

[Metadata]
Title:Koi Kou Enishi
TitleUnicode:恋ひ恋ふ縁
Artist:KOTOKO
ArtistUnicode:KOTOKO
Creator:Crystal
Version:ak74's Insane
Source:千恋*万花
Tags:Senren Banka yuzusoft opening sahuang [Crz]Sword ak74 yf_bmp Sword
BeatmapID:1344212
BeatmapSetID:622780

[Difficulty]
HPDrainRate:6
CircleSize:4
OverallDifficulty:7
ApproachRate:8.2
SliderMultiplier:1.6
SliderTickRate:1

[Events]
//Background and Video events
0,0,"bg.jpg",0,0
//Break Periods
//Storyboard Layer 0 (Background)
//Storyboard Layer 1 (Fail)
//Storyboard Layer 2 (Pass)
//Storyboard Layer 3 (Foreground)
//Storyboard Sound Samples

[TimingPoints]
70,416.666666666667,4,1,1,40,1,0
6320,-83.3333333333333,4,1,1,50,0,0
6736,-83.3333333333333,4,1,1,60,0,0
6945,-100,4,1,1,60,0,0
40070,-83.3333333333333,4,1,1,60,0,0
42986,-100,4,1,1,60,0,0
46111,-83.3333333333333,4,1,1,60,0,0
46736,-125,4,2,1,40,0,0
56736,-100,4,2,1,40,0,0
60070,-100,4,2,1,45,0,0
61111,-80,4,1,1,50,0,0
61736,-80,4,1,1,80,0,1
88403,-90.9090909090909,4,1,1,70,0,0
101528,-66.6666666666667,4,1,1,60,0,0

[Colours]
Combo1 : 255,128,255
Combo2 : 128,255,128
Combo3 : 255,128,0
Combo4 : 128,0,255

[HitObjects]
40,322,1736,5,0,0:0:0:0:
133,300,1945,1,0,0:0:0:0:
69,228,2153,1,0,0:0:0:0:
40,322,2361,2,0,B|109:272|122:359|212:296,1,160
287,233,2986,2,0,P|285:193|282:153,1,80
215,52,3403,5,0,0:0:0:0:
299,26,3611,1,0,0:0:0:0:
363,86,3820,1,0,0:0:0:0:
443,51,4028,2,0,P|393:83|440:169,1,160
450,176,4514,2,0,P|474:165|501:165,1,53.3333333333333
370,243,4861,1,0,0:0:0:0:
485,296,5070,5,0,0:0:0:0:
395,348,5278,1,0,0:0:0:0:
291,344,5486,2,0,P|249:342|195:336,1,80,8|0,0:0|0:0,0:0:0:0:
173,323,5799,2,0,P|169:297|170:274,1,40,8|0,0:0|0:0,0:0:0:0:
144,240,6007,2,0,P|147:214|147:191,1,40,8|0,0:0|0:0,0:0:0:0:
54,124,6320,6,0,P|105:61|15:49,1,191.999994140625,8|4,0:0|0:0,0:0:0:0:
204,66,6945,1,0,0:0:0:0:
158,186,7153,1,8,0:0:0:0:
355,93,7361,2,0,B|309:68|259:87|259:87|235:63|189:66,1,160
38,184,7986,2,0,P|93:177|128:176,1,80,8|0,0:0|0:0,0:0:0:0:
163,322,8403,2,0,P|123:319|83:314,2,80,0|0|8,0:0|0:0|0:0,0:0:0:0:
243,238,9028,2,0,P|308:185|385:223,1,160
307,360,9653,5,10,0:0:0:0:
307,360,9861,1,0,0:0:0:0:
307,360,10070,2,0,P|312:312|320:277,1,80
455,302,10486,1,8,0:0:0:0:
498,171,10695,2,0,P|418:177|313:182,1,160
455,82,11320,2,0,P|415:86|367:88,1,80,8|0,0:0|0:0,0:0:0:0:
200,17,11945,6,0,P|195:59|192:106,1,80,0|8,0:0|0:0,0:0:0:0:
112,182,12361,2,0,P|30:179|0:115,1,160
17,79,12882,2,0,L|62:74,1,40,0|8,0:0|0:0,0:0:0:0:
160,21,13195,2,0,L|205:16,1,40
239,14,13403,5,4,0:0:0:0:
226,125,13611,2,0,P|269:120|322:115,1,80,0|8,0:0|0:0,0:0:0:0:
424,33,14028,2,0,B|480:103|395:117|458:211,1,160
512,289,14653,1,8,0:0:0:0:
420,365,14861,2,0,P|345:347|237:328,1,160
404,269,15486,1,8,0:0:0:0:
247,251,15695,2,0,P|205:269|205:392,1,160
46,328,16320,5,10,0:0:0:0:
46,328,16528,1,0,0:0:0:0:
46,328,16736,2,0,P|43:284|37:233,1,80
128,113,17153,1,8,0:0:0:0:
0,176,17361,2,0,B|91:138|71:226|180:185,1,160
248,116,17986,2,0,P|247:67|239:12,1,80,8|0,0:0|0:0,0:0:0:0:
443,81,18611,5,8,0:0:0:0:
333,29,18820,1,0,0:0:0:0:
248,116,19028,2,0,P|288:173|377:148,1,160,14|8,0:0|0:0,0:0:0:0:
487,198,19653,2,0,L|481:245,1,40,8|0,0:0|0:0,0:0:0:0:
437,303,19861,1,0,0:0:0:0:
437,303,19965,1,0,0:0:0:0:
437,303,20070,6,0,B|403:310|403:310|332:300,1,80
251,242,20486,2,0,B|217:235|217:235|146:245,1,80,8|0,0:0|0:0,0:0:0:0:
69,311,20903,1,2,0:0:0:0:
87,170,21111,1,0,0:0:0:0:
69,311,21320,1,10,0:0:0:0:
87,170,21528,2,0,L|80:104,1,40
80,50,21736,6,0,B|125:44|152:89,1,80
255,149,22153,2,0,P|258:106|266:58,1,80,8|0,0:0|0:0,0:0:0:0:
446,22,22570,1,2,0:0:0:0:
357,96,22778,1,0,0:0:0:0:
509,184,22986,2,0,B|527:129|470:100,1,80,10|0,0:0|0:0,0:0:0:0:
390,172,23403,6,0,B|282:189|357:146|225:164,1,160,0|8,0:0|0:0,0:0:0:0:
60,100,24028,2,0,P|107:44|197:81,1,160,0|2,0:0|0:0,0:0:0:0:
213,89,24549,1,2,0:0:0:0:
235,122,24653,2,0,L|233:169,1,40,10|0,0:0|0:0,0:0:0:0:
228,242,24861,1,0,0:0:0:0:
65,190,25070,1,2,0:0:0:0:
65,190,25174,1,2,0:0:0:0:
65,190,25278,2,0,L|70:246,1,40,2|0,0:0|0:0,0:0:0:0:
79,309,25486,5,10,0:0:0:0:
197,349,25695,1,0,0:0:0:0:
270,248,25904,1,0,0:0:0:0:
196,147,26111,1,0,0:0:0:0:
68,229,26320,2,0,B|125:208|96:244|159:217,1,80,10|0,0:0|0:0,0:0:0:0:
270,248,26736,5,0,0:0:0:0:
197,349,26945,1,0,0:0:0:0:
320,363,27153,2,0,P|359:358|402:353,1,80,8|0,0:0|0:0,0:0:0:0:
496,274,27570,1,2,0:0:0:0:
382,188,27778,1,0,0:0:0:0:
496,274,27986,1,10,0:0:0:0:
382,188,28195,2,0,L|335:195,1,40
267,167,28403,6,0,P|286:132|327:118,1,80
287,252,28820,2,0,P|307:285|299:328,1,80,8|0,0:0|0:0,0:0:0:0:
203,226,29236,2,0,P|163:227|130:198,1,80,2|0,0:0|0:0,0:0:0:0:
27,138,29653,1,10,0:0:0:0:
117,52,29861,1,0,0:0:0:0:
221,120,30070,6,0,B|247:143|247:143|329:164|350:72,1,160,0|8,0:0|0:0,0:0:0:0:
448,17,30695,2,0,P|442:35|443:59,1,40,2|2,0:0|0:0,0:0:0:0:
473,120,30903,2,0,P|485:133|506:145,2,40,2|0|0,0:0|0:0|0:0,0:0:0:0:
491,245,31320,2,0,P|478:258|457:270,1,40,10|0,0:0|0:0,0:0:0:0:
392,293,31528,1,2,0:0:0:0:
392,293,31632,1,0,0:0:0:0:
392,293,31736,6,0,L|289:285,1,80
142,211,32153,2,0,L|245:203,1,80,10|0,0:0|0:0,0:0:0:0:
342,142,32570,1,0,0:0:0:0:
450,160,32778,1,0,0:0:0:0:
470,50,32986,1,10,0:0:0:0:
360,31,33195,1,0,0:0:0:0:
212,78,33403,6,0,B|219:119|219:119|216:144|216:144|243:178|235:249,1,160,4|8,0:0|0:0,0:0:0:0:
4,216,34028,2,0,P|49:161|126:189,1,160
187,294,34653,1,8,0:0:0:0:
85,359,34861,1,0,0:0:0:0:
85,359,34965,1,0,0:0:0:0:
85,359,35070,6,0,L|4:350,2,80,0|0|8,0:0|0:0|0:0,0:0:0:0:
187,294,35695,1,0,0:0:0:0:
285,376,35903,2,0,P|289:326|294:284,1,80
430,334,36320,2,0,P|426:284|421:242,1,80,10|0,0:0|0:0,0:0:0:0:
337,153,36736,6,0,P|395:205|472:183,1,160,0|8,0:0|0:0,0:0:0:0:
429,41,37361,2,0,B|364:49|364:49|345:68|345:68|260:81,1,160
167,23,37986,1,8,0:0:0:0:
119,139,38195,1,0,0:0:0:0:
119,139,38299,1,0,0:0:0:0:
119,139,38403,6,0,P|160:137|209:151,2,80,0|0|8,0:0|0:0|0:0,0:0:0:0:
30,52,39028,2,0,B|-6:82|10:133|10:133|39:170|21:222,1,160
140,354,39653,5,10,0:0:0:0:
114,234,39861,1,10,0:0:0:0:
40,323,40070,2,0,B|121:304|180:302|180:302|212:310|241:326,1,191.999994140625,4|10,0:0|0:0,0:0:0:0:
415,339,40695,2,0,P|355:282|317:356,1,191.999994140625,4|0,0:0|0:0,0:0:0:0:
222,194,41320,5,10,0:0:0:0:
222,194,41528,2,0,P|162:251|124:177,1,191.999994140625,4|0,0:0|0:0,0:0:0:0:
18,49,42361,2,0,B|67:17|116:40|116:40|160:68|226:30,1,191.999994140625
316,90,42986,1,10,0:0:0:0:
316,90,43195,1,0,0:0:0:0:
414,12,43403,6,0,B|462:6|488:44,1,80
504,164,43820,2,0,B|485:208|439:212,1,80,8|0,0:0|0:0,0:0:0:0:
327,165,44236,2,0,B|297:126|317:84,1,80
204,34,44653,1,8,0:0:0:0:
216,157,44861,1,0,0:0:0:0:
216,157,44965,1,0,0:0:0:0:
216,157,45070,6,0,P|176:154|125:148,1,80
7,257,45486,2,0,P|46:252|86:249,1,80,8|0,0:0|0:0,0:0:0:0:
99,258,45799,1,0,0:0:0:0:
109,270,45903,1,0,0:0:0:0:
210,353,46111,2,0,P|288:313|210:279,1,191.999994140625,12|0,0:0|0:0,0:0:0:0:
158,294,46736,5,0,0:0:0:0:
357,358,47153,1,0,0:0:0:0:
439,368,47361,1,0,0:0:0:0:
509,323,47570,2,0,B|500:297|500:297|509:179,1,128,0|8,0:0|0:0,0:0:0:0:
467,30,48403,2,0,P|433:33|394:34,1,64
446,105,48820,2,0,P|412:108|373:109,1,64
419,183,49236,2,0,P|350:181|302:125,1,128,0|8,0:0|0:0,0:0:0:0:
239,31,49861,5,0,0:0:0:0:
159,57,50070,2,0,P|161:105|162:186,1,128
83,156,50695,1,0,0:0:0:0:
19,209,50903,1,0,0:0:0:0:
32,290,51111,1,0,0:0:0:0:
108,319,51320,1,8,0:0:0:0:
171,267,51528,1,0,0:0:0:0:
218,198,51736,6,0,P|248:192|284:192,1,64
360,165,52153,2,0,P|336:123|254:115,1,128
183,82,52778,2,0,P|179:49|181:29,2,32,0|0|8,0:0|0:0|0:0,0:0:0:0:
429,24,53403,6,0,P|432:74|436:180,1,128
486,217,54028,1,0,0:0:0:0:
486,217,54236,2,0,P|424:236|363:186,1,128,0|8,0:0|0:0,0:0:0:0:
314,146,54861,1,0,0:0:0:0:
236,115,55070,6,0,P|198:119|194:149,1,64
118,179,55486,2,0,P|80:175|76:145,1,64
1,111,55903,2,0,P|50:69|118:86,1,128,0|8,0:0|0:0,0:0:0:0:
118,179,56528,5,0,0:0:0:0:
39,233,56736,2,0,B|102:227|102:227|125:232|125:232|197:225,1,160,0|8,0:0|0:0,0:0:0:0:
335,147,57361,1,0,0:0:0:0:
415,112,57569,2,0,B|351:106|351:106|328:111|328:111|256:104,1,160,0|8,0:0|0:0,0:0:0:0:
434,348,58403,6,0,P|491:292|445:229,1,160,0|8,0:0|0:0,0:0:0:0:
336,277,59028,1,0,0:0:0:0:
212,317,59236,2,0,B|283:349|327:315|327:315|340:260,1,160,0|8,0:0|0:0,0:0:0:0:
200,57,60070,5,8,0:0:0:0:
132,125,60278,1,8,0:0:0:0:
176,210,60486,1,8,0:0:0:0:
271,193,60695,1,8,0:0:0:0:
285,99,60903,1,8,0:0:0:0:
200,57,61111,6,2,B|144:82|163:33|85:65,1,100
17,169,61736,6,0,P|23:242|30:386,1,200,6|8,0:0|0:0,0:0:0:0:
158,234,62361,1,0,0:0:0:0:
223,351,62570,2,0,P|178:323|114:339,1,100,2|2,0:0|0:0,0:0:0:0:
121,337,62882,1,0,0:0:0:0:
111,348,62986,1,8,0:0:0:0:
255,193,63195,1,2,0:0:0:0:
400,315,63403,6,0,P|357:340|303:334,1,100
512,179,63820,2,0,P|505:228|502:277,1,100,10|0,0:0|0:0,0:0:0:0:
374,194,64236,1,0,0:0:0:0:
430,35,64445,1,2,0:0:0:0:
374,194,64653,2,0,P|318:179|275:183,1,100,10|0,0:0|0:0,0:0:0:0:
61,126,65070,6,0,P|81:59|205:48,1,200,0|10,0:0|0:0,0:0:0:0:
251,172,65695,1,0,0:0:0:0:
118,233,65903,2,0,B|143:208|188:225|188:225|211:259|257:254,1,150
300,236,66320,2,0,P|335:166|268:98,1,150,10|0,0:0|0:0,0:0:0:0:
254,92,66736,5,0,0:0:0:0:
83,162,66945,1,0,0:0:0:0:
83,162,67049,1,0,0:0:0:0:
83,162,67153,1,10,0:0:0:0:
59,315,67361,1,0,0:0:0:0:
200,247,67570,2,0,P|256:241|307:234,1,100,0|2,0:0|0:0,0:0:0:0:
418,338,67986,2,0,P|415:309|429:283,1,50,2|0,0:0|0:0,0:0:0:0:
497,302,68195,2,0,P|499:330|485:356,1,50
470,232,68403,6,0,B|477:166|477:166|474:149|474:149|484:66,1,150,4|0,0:0|0:0,0:0:0:0:
457,38,68820,2,0,P|402:31|359:69,1,100,8|0,0:0|0:0,0:0:0:0:
290,189,69236,1,0,0:0:0:0:
140,137,69445,2,0,P|135:105|135:72,1,50,2|2,0:0|0:0,0:0:0:0:
199,48,69653,2,0,P|165:13|94:28,1,100,10|2,0:0|0:0,0:0:0:0:
15,118,70070,6,0,P|14:169|11:244,1,100
115,364,70486,2,0,P|157:333|209:339,1,100,8|0,0:0|0:0,0:0:0:0:
314,244,70903,1,0,0:0:0:0:
182,171,71111,2,0,B|107:169|63:108|63:108|87:134|124:135,1,200
266,148,71736,5,0,0:0:0:0:
122,53,71945,1,0,0:0:0:0:
248,32,72153,1,10,0:0:0:0:
371,11,72361,2,0,B|436:5|436:67|436:67|377:99|408:169,1,200
506,258,72986,2,0,P|457:232|408:241,1,100,10|0,0:0|0:0,0:0:0:0:
437,372,73403,5,2,0:0:0:0:
437,372,73611,1,2,0:0:0:0:
437,372,73820,1,10,0:0:0:0:
437,372,74028,2,0,B|354:312|332:402|243:325,1,200,2|2,0:0|0:0,0:0:0:0:
323,233,74653,2,0,P|321:271|297:282,1,50,2|0,0:0|0:0,0:0:0:0:
268,189,74861,2,0,P|296:163|321:172,1,50
246,258,75070,6,0,B|272:173|217:98|217:98|236:114|267:113,1,200,4|8,0:0|0:0,0:0:0:0:
376,100,75695,1,0,0:0:0:0:
213,20,75903,2,0,P|163:39|137:99,1,100,2|2,0:0|0:0,0:0:0:0:
138,91,76215,1,2,0:0:0:0:
141,105,76319,1,8,0:0:0:0:
15,210,76528,2,0,P|64:207|126:254,1,100,2|0,0:0|0:0,0:0:0:0:
315,316,76945,5,0,0:0:0:0:
191,379,77153,1,10,0:0:0:0:
55,348,77361,1,0,0:0:0:0:
177,281,77570,2,0,P|191:332|188:396,1,100,0|2,0:0|0:0,0:0:0:0:
107,239,77986,2,0,P|150:202|196:203,1,100,10|0,0:0|0:0,0:0:0:0:
384,326,78403,6,0,P|314:359|279:252,1,200,0|10,0:0|0:0,0:0:0:0:
409,167,79028,1,0,0:0:0:0:
493,261,79236,2,0,B|405:280|439:229|347:250,1,150
313,214,79653,2,0,P|378:179|354:112,1,150,10|0,0:0|0:0,0:0:0:0:
311,103,80070,5,0,0:0:0:0:
206,284,80278,1,0,0:0:0:0:
397,198,80486,1,10,0:0:0:0:
193,155,80695,1,0,0:0:0:0:
332,310,80903,2,0,P|294:277|221:296,1,100,0|2,0:0|0:0,0:0:0:0:
201,298,81215,1,0,0:0:0:0:
152,310,81320,2,0,P|116:305|96:286,1,50,2|2,0:0|0:0,0:0:0:0:
46,220,81528,2,0,P|21:220|0:232,1,50,2|2,0:0|0:0,0:0:0:0:
79,132,81736,6,0,P|167:127|185:26,1,200,4|10,0:0|0:0,0:0:0:0:
95,42,82361,1,0,0:0:0:0:
254,138,82570,2,0,B|313:104|305:156|364:116,1,100
361,115,82882,1,0,0:0:0:0:
370,103,82986,1,10,0:0:0:0:
303,2,83195,1,0,0:0:0:0:
502,56,83403,6,0,B|491:80|495:101|495:101|521:148|493:211,1,150
437,247,83820,2,0,P|501:262|504:304,1,100,10|0,0:0|0:0,0:0:0:0:
304,354,84236,2,0,P|353:357|403:363,1,100,0|2,0:0|0:0,0:0:0:0:
244,238,84653,1,10,0:0:0:0:
53,280,84861,5,0,0:0:0:0:
53,280,84965,1,0,0:0:0:0:
53,280,85070,1,2,0:0:0:0:
244,238,85278,1,2,0:0:0:0:
115,201,85486,1,8,0:0:0:0:
162,30,85695,1,2,0:0:0:0:
273,156,85903,5,0,0:0:0:0:
115,201,86111,1,2,0:0:0:0:
0,80,86320,1,8,0:0:0:0:
162,30,86528,6,0,P|186:32|206:46,1,50,2|0,0:0|0:0,0:0:0:0:
265,93,86736,2,0,P|325:83|386:76,1,100,2|2,0:0|0:0,0:0:0:0:
378,82,87049,1,0,0:0:0:0:
388,92,87153,1,8,0:0:0:0:
496,202,87361,5,2,0:0:0:0:
481,216,87465,1,0,0:0:0:0:
461,221,87570,1,0,0:0:0:0:
308,283,87778,5,2,0:0:0:0:
304,258,87882,1,0,0:0:0:0:
314,235,87986,2,0,L|374:248,1,50,8|0,0:0|0:0,0:0:0:0:
410,304,88195,2,0,L|396:364,1,50,2|0,0:0|0:0,0:0:0:0:
330,380,88403,6,0,P|291:365|239:364,1,88.000002685547,4|0,0:0|0:0,0:0:0:0:
97,244,88820,1,8,0:0:0:0:
50,326,89028,2,0,P|172:308|175:244,1,176.000005371094
110,157,89653,2,0,P|61:159|9:166,1,88.000002685547,8|0,0:0|0:0,0:0:0:0:
190,44,90070,2,0,P|233:49|277:50,2,88.000002685547,0|0|8,0:0|0:0|0:0,0:0:0:0:
314,203,90695,2,0,P|386:216|436:122,1,176.000005371094
364,40,91320,5,10,0:0:0:0:
364,40,91528,1,0,0:0:0:0:
364,40,91736,2,0,L|355:129,1,88.000002685547
466,297,92153,1,8,0:0:0:0:
505,210,92361,2,0,B|442:186|400:228|400:228|359:210|328:231,1,176.000005371094
307,354,92986,2,0,P|355:355|407:333,1,88.000002685547,8|0,0:0|0:0,0:0:0:0:
181,130,93611,6,0,P|133:129|81:151,1,88.000002685547,0|8,0:0|0:0,0:0:0:0:
0,249,94028,2,0,P|46:317|127:298,1,176.000005371094,0|8,0:0|0:0,0:0:0:0:
161,257,94549,2,0,P|160:235|156:213,1,44.0000013427735
46,26,94861,2,0,P|41:47|40:69,1,44.0000013427735,8|0,0:0|0:0,0:0:0:0:
76,108,95070,6,0,P|127:113|169:73,1,88.000002685547,4|0,0:0|0:0,0:0:0:0:
365,139,95486,1,8,0:0:0:0:
411,57,95694,2,0,P|329:38|280:105,1,176.000005371094
358,244,96320,1,8,0:0:0:0:
498,189,96528,2,0,B|453:172|417:202|417:202|376:232|308:201,1,176.000005371094
234,165,97153,1,8,0:0:0:0:
467,261,97361,2,0,B|496:316|464:367|464:367|439:348|398:357,1,176.000005371094
236,317,97986,5,10,0:0:0:0:
236,317,98195,1,0,0:0:0:0:
236,317,98403,2,0,P|286:310|332:299,1,88.000002685547
119,239,98820,2,0,P|69:246|23:257,1,88.000002685547,8|0,0:0|0:0,0:0:0:0:
251,166,99236,5,2,0:0:0:0:
296,138,99340,1,2,0:0:0:0:
309,87,99444,1,2,0:0:0:0:
282,41,99548,1,2,0:0:0:0:
231,28,99653,1,2,0:0:0:0:
186,55,99756,1,2,0:0:0:0:
172,106,99861,1,0,0:0:0:0:
199,152,100278,5,0,0:0:0:0:
275,130,100486,1,0,0:0:0:0:
344,167,100695,1,0,0:0:0:0:
367,243,100903,1,0,0:0:0:0:
329,313,101111,1,0,0:0:0:0:
253,335,101320,1,0,0:0:0:0:
221,238,101528,6,0,P|347:229|467:224,1,240.000009155274,6|8,0:0|0:0,0:0:0:0:
450,116,102153,1,2,0:0:0:0:
430,341,102361,1,12,0:0:0:0:
