osu file format v14

[General]
AudioFilename: audio.mp3
AudioLeadIn: 0
PreviewTime: 60903
Countdown: 0
SampleSet: Normal
StackLeniency: 0.7
Mode: 0
LetterboxInBreaks: 0
WidescreenStoryboard: 0

[Editor]
DistanceSpacing: 1.2
BeatDivisor: 2
GridSize: 16
TimelineZoom: 1.7

[Metadata]
Title:Koi Kou Enishi
TitleUnicode:恋ひ恋ふ縁
Artist:KOTOKO
ArtistUnicode:KOTOKO
Creator:Crystal
Version:Sword's Normal
Source:千恋*万花
Tags:Senren Banka yuzusoft opening sahuang [Crz]Sword ak74 yf_bmp Sword
BeatmapID:1383741
BeatmapSetID:622780

[Difficulty]
HPDrainRate:4
CircleSize:3.5
OverallDifficulty:4
ApproachRate:5
SliderMultiplier:1.3
SliderTickRate:1

[Events]
//Background and Video events
0,0,"bg.jpg",0,0
//Break Periods
//Storyboard Layer 0 (Background)
//Storyboard Layer 1 (Fail)
//Storyboard Layer 2 (Pass)
//Storyboard Layer 3 (Foreground)
//Storyboard Sound Samples

[TimingPoints]
70,416.666666666667,4,1,1,60,1,0
5486,-100,4,1,1,45,0,0
6320,-100,4,1,1,60,0,0
6736,-100,4,1,1,70,0,0
20070,-100,4,1,1,60,0,0
46736,-100,4,1,1,50,0,0
61736,-100,4,1,1,80,0,1
88403,-100,4,1,1,70,0,0

[Colours]
Combo1 : 255,128,255
Combo2 : 128,255,128
Combo3 : 255,128,0
Combo4 : 128,0,255

[HitObjects]
82,46,1736,6,0,L|78:119,1,65,2|0,0:3|0:0,0:0:0:0:
29,172,2153,1,0,0:0:0:0:
29,172,2361,2,0,B|11:234|38:307,1,130,0|0,0:0|0:0,0:0:0:0:
98,345,2986,2,0,L|185:338,1,65,0|0,0:0|0:0,0:0:0:0:
210,278,3403,6,0,L|202:207,2,65,2|0|0,0:3|0:0|0:0,0:0:0:0:
273,323,4028,1,0,0:0:0:0:
427,298,4445,2,0,L|496:309,2,65
452,223,5070,6,0,L|441:158,1,65
477,90,5486,2,0,P|482:55|473:24,1,65,8|0,0:3|0:0,0:0:0:0:
403,60,5903,2,0,L|338:52,2,65,0|0|8,0:0|0:0|0:3,0:0:0:0:
385,139,6528,1,0,0:0:0:0:
385,139,6736,6,0,P|303:146|257:123,1,130,6|10,0:0|0:0,0:0:0:0:
195,85,7361,2,0,L|64:92,2,130,2|2|2,0:0|0:0|0:0,0:0:0:0:
208,166,8403,5,0,0:0:0:0:
208,166,8611,2,0,P|197:203|215:253,1,65,2|10,0:0|0:0,0:0:0:0:
276,206,9028,2,0,L|428:223,1,130,2|2,0:0|0:0,0:0:0:0:
474,257,9653,2,0,P|478:297|472:331,1,65,10|2,0:0|0:0,0:0:0:0:
402,349,10070,5,2,0:0:0:0:
402,349,10278,2,0,L|309:341,1,65,2|10,0:0|0:0,0:0:0:0:
275,296,10695,2,0,P|282:221|268:156,1,130,2|2,0:0|0:0,0:0:0:0:
219,109,11320,1,10,0:0:0:0:
219,109,11528,6,0,P|124:107|76:113,1,130,2|2,0:0|0:0,0:0:0:0:
29,161,12153,1,10,0:0:0:0:
29,161,12361,2,0,P|27:203|33:296,1,130,2|2,0:0|0:0,0:0:0:0:
101,328,12986,2,0,L|168:331,1,65,10|2,0:0|0:0,0:0:0:0:
175,253,13403,6,0,P|242:245|308:251,1,130,2|10,0:0|0:0,0:0:0:0:
338,320,14028,2,0,P|402:325|467:317,1,130,2|2,0:0|0:0,0:0:0:0:
499,246,14653,2,0,L|493:172,1,65,10|2,0:0|0:0,0:0:0:0:
450,116,15070,6,2,L|465:47,2,65,2|2|10,0:0|0:0|0:0,0:0:0:0:
374,137,15695,2,0,P|278:125|225:90,1,130,2|2,0:0|0:0,0:0:0:0:
172,96,16320,2,0,L|176:168,1,65,10|2,0:0|0:0,0:0:0:0:
214,228,16736,6,0,L|298:264,2,65,2|2|10,0:0|0:0|0:0,0:0:0:0:
139,249,17361,2,0,P|153:316|123:374,1,130,2|2,0:0|0:0,0:0:0:0:
55,338,17986,1,10,0:0:0:0:
55,338,18195,6,0,P|40:261|47:210,1,130,2|2,0:0|0:0,0:0:0:0:
33,133,18820,2,0,L|26:69,2,65,10|2|0,0:0|0:0|0:0,0:0:0:0:
111,160,19445,1,0,0:0:0:0:
111,160,19653,2,0,L|189:147,1,65,8|0,0:0|0:0,0:0:0:0:
224,90,20070,6,0,P|291:96|367:84,1,130,4|8,0:2|0:0,0:0:0:0:
409,36,20695,2,0,P|424:122|396:155,1,130,0|0,0:0|0:0,0:0:0:0:
331,187,21320,2,0,L|340:259,1,65,8|0,0:0|0:0,0:0:0:0:
390,318,21736,5,0,0:0:0:0:
390,318,21945,2,0,L|468:325,2,65,0|8|0,0:0|0:0|0:0,0:0:0:0:
312,329,22570,2,0,L|246:334,1,65,0|0,0:0|0:0,0:0:0:0:
216,262,22986,2,0,L|149:264,1,65,8|0,0:0|0:0,0:0:0:0:
102,325,23403,6,0,P|69:264|91:212,1,130,4|8,0:0|0:0,0:0:0:0:
148,159,24028,2,0,L|218:159,1,65,0|0,0:0|0:0,0:0:0:0:
279,117,24445,2,0,P|276:78|277:45,2,65,2|10|2,0:0|0:0|0:0,0:0:0:0:
324,181,25070,2,0,P|327:220|326:253,2,65,2|2|10,0:0|0:0|0:0,0:0:0:0:
366,115,25695,5,2,0:0:0:0:
366,115,25903,2,0,P|364:67|368:39,1,65,2|2,0:0|0:0,0:0:0:0:
437,18,26320,1,10,0:0:0:0:
486,78,26528,1,2,0:0:0:0:
454,149,26736,6,0,P|449:198|453:295,1,130,4|8,0:2|0:0,0:0:0:0:
417,348,27361,2,0,L|346:346,1,65,0|0,0:0|0:0,0:0:0:0:
303,284,27778,2,0,P|300:246|304:214,2,65,0|8|0,0:0|0:0|0:0,0:0:0:0:
253,344,28403,6,0,P|180:352|124:334,1,130,0|8,0:0|0:0,0:0:0:0:
89,266,29028,1,0,0:0:0:0:
89,266,29236,2,0,L|91:202,1,65,0|0,0:0|0:0,0:0:0:0:
168,192,29653,2,0,L|164:123,1,65,8|0,0:0|0:0,0:0:0:0:
227,80,30070,6,0,P|296:114|374:98,1,130,0|8,0:0|0:0,0:0:0:0:
426,91,30695,1,2,0:0:0:0:
426,91,30903,2,0,L|503:88,2,65,2|2|10,0:0|0:0|0:0,0:0:0:0:
405,169,31528,1,2,0:0:0:0:
405,169,31736,6,0,L|407:243,1,65,2|0,0:0|0:0,0:0:0:0:
484,244,32153,2,0,L|480:328,1,65,10|2,0:0|0:0,0:0:0:0:
402,311,32570,2,0,P|310:324|281:287,1,130,2|10,0:0|0:0,0:0:0:0:
254,233,33195,1,0,0:0:0:0:
254,233,33403,6,0,L|246:149,1,65,4|0,0:2|0:0,0:0:0:0:
201,105,33820,1,8,0:0:0:0:
276,86,34028,2,0,P|349:90|420:86,2,130,2|2|2,0:0|0:0|0:0,0:0:0:0:
201,105,35070,6,0,L|134:110,1,65,0|2,0:0|0:0,0:0:0:0:
128,32,35486,2,0,L|44:36,1,65,8|2,0:0|0:0,0:0:0:0:
18,99,35903,2,0,P|9:168|37:240,1,130,0|8,0:0|0:0,0:0:0:0:
97,267,36528,1,0,0:0:0:0:
97,267,36736,6,0,L|177:269,1,65,4|0,0:0|0:0,0:0:0:0:
227,310,37153,1,8,0:0:0:0:
240,233,37361,2,0,P|234:163|236:94,2,130,2|2|2,0:0|0:0|0:0,0:0:0:0:
303,278,38403,6,0,L|369:279,1,65,0|2,0:0|0:0,0:0:0:0:
382,355,38820,2,0,L|460:352,1,65,8|2,0:0|0:0,0:0:0:0:
489,287,39236,2,0,P|500:213|490:150,1,130,0|8,0:0|0:0,0:0:0:0:
459,87,39861,1,0,0:0:0:0:
459,87,40070,6,0,L|391:92,1,65,2|0,0:0|0:0,0:0:0:0:
335,39,40486,1,10,0:0:0:0:
316,115,40695,2,0,P|312:186|329:253,2,130,2|4|4,0:0|0:3|0:3,0:0:0:0:
175,47,41945,6,0,L|173:121,1,65,2|8,0:0|0:0,0:0:0:0:
215,177,42361,2,0,L|217:253,1,65,2|0,0:0|0:0,0:0:0:0:
179,310,42778,2,0,B|129:319|129:319|103:308|103:308|51:316,1,130,2|2,0:0|0:0,0:0:0:0:
27,241,43403,6,0,P|13:207|16:171,2,65,2|2|10,0:0|0:0|0:0,0:0:0:0:
89,194,44028,1,2,0:0:0:0:
68,118,44236,2,0,P|66:79|67:53,1,65,0|2,0:0|0:0,0:0:0:0:
139,24,44653,2,0,L|214:27,1,65,8|2,0:0|0:0,0:0:0:0:
251,88,45070,6,0,P|244:158|258:229,2,130,2|10|0,0:0|0:0|0:0,0:0:0:0:
312,40,46111,2,0,L|443:48,1,130,4|0,0:2|0:0,0:0:0:0:
481,115,46736,6,0,P|490:182|471:250,1,130,4|8,0:0|0:0,0:0:0:0:
404,275,47361,1,2,0:0:0:0:
404,275,47570,2,0,P|336:279|273:281,1,130,2|8,0:0|0:0,0:0:0:0:
136,354,48403,6,0,L|132:288,1,65,2|0,0:0|0:0,0:0:0:0:
74,236,48820,2,0,L|77:170,1,65,8|0,0:0|0:0,0:0:0:0:
144,131,49236,2,0,P|201:169|271:158,1,130,2|8,0:0|0:0,0:0:0:0:
165,38,50070,6,0,P|91:32|35:54,1,130,2|8,0:0|0:0,0:0:0:0:
13,128,50695,1,2,0:0:0:0:
13,128,50903,2,0,L|18:215,1,65,2|0,0:0|0:0,0:0:0:0:
76,243,51320,2,0,L|74:326,1,65,8|0,0:0|0:0,0:0:0:0:
140,349,51736,6,0,P|242:350|277:341,2,130,2|8|2,0:0|0:0|0:0,0:0:0:0:
222,216,52986,1,8,0:0:0:0:
355,297,53403,6,0,P|423:320|483:289,1,130,4|8,0:0|0:0,0:0:0:0:
494,222,54028,1,2,0:0:0:0:
494,222,54236,2,0,P|486:145|494:73,2,130,2|8|2,0:0|0:0|0:0,0:0:0:0:
417,235,55278,2,0,L|312:218,1,65,2|8,0:0|0:0,0:0:0:0:
282,258,55695,1,2,0:0:0:0:
233,196,55903,2,0,P|152:191|76:201,1,130,2|0,0:0|0:0,0:0:0:0:
207,79,56736,6,0,P|288:84|364:74,2,130,2|8|2,0:0|0:0|0:0,0:0:0:0:
69,152,57986,1,8,0:0:0:0:
180,261,58403,2,0,P|237:209|475:356,1,390,2|2,0:1|0:1,0:0:0:0:
318,311,60070,5,2,0:0:0:0:
273,41,61111,2,0,L|198:47,1,65,0|2,0:0|0:0,0:0:0:0:
162,195,61736,5,4,0:2:0:0:
60,77,62153,2,0,P|56:176|58:222,2,130,8|2|8,0:0|0:0|0:0,0:0:0:0:
211,41,63403,2,0,L|293:47,1,65,2|0,0:0|0:0,0:0:0:0:
290,122,63820,2,0,L|364:119,1,65,8|0,0:0|0:0,0:0:0:0:
406,60,64236,2,0,P|435:123|398:184,1,130,2|8,0:0|0:0,0:0:0:0:
478,315,65070,6,0,P|398:344|338:319,1,130,2|10,0:0|0:0,0:0:0:0:
300,284,65695,1,2,0:0:0:0:
300,284,65903,2,0,L|154:295,1,130,2|8,0:0|0:0,0:0:0:0:
17,290,66736,5,2,0:0:0:0:
17,290,66945,2,0,L|14:194,2,65,0|10|0,0:0|0:0|0:0,0:0:0:0:
94,276,67570,2,0,P|119:205|97:151,1,130,2|8,0:0|0:0,0:0:0:0:
46,10,68403,6,0,P|122:46|178:35,1,130,4|10,0:2|0:0,0:0:0:0:
238,81,69028,1,2,0:0:0:0:
238,81,69236,2,0,L|379:91,1,130,2|8,0:0|0:0,0:0:0:0:
462,222,70070,5,2,0:0:0:0:
462,222,70278,2,0,B|462:305,2,65,0|10|0,0:0|0:0|0:0,0:0:0:0:
389,252,70903,2,0,L|313:259,1,65,2|2,0:0|0:0,0:0:0:0:
301,332,71320,2,0,L|218:331,1,65,8|0,0:0|0:0,0:0:0:0:
187,271,71736,6,0,P|180:183|192:125,2,130,2|10|0,0:0|0:0|0:0,0:0:0:0:
51,347,72986,2,0,L|41:274,1,65,10|2,0:0|0:0,0:0:0:0:
25,206,73403,6,0,P|24:170|26:136,1,65,2|2,0:0|0:0,0:0:0:0:
63,72,73820,2,0,P|100:63|132:60,1,65,10|2,0:0|0:0,0:0:0:0:
188,107,74236,1,2,0:0:0:0:
226,38,74445,1,2,0:0:0:0:
271,100,74653,2,0,L|346:98,1,65,10|2,0:0|0:0,0:0:0:0:
392,151,75070,6,0,P|397:223|388:288,2,130,4|10|0,0:2|0:0|0:0,0:0:0:0:
455,105,76111,2,0,L|448:35,2,65,2|10|2,0:0|0:0|0:0,0:0:0:0:
485,177,76736,2,0,P|490:249|481:314,1,130,2|8,0:0|0:0,0:0:0:0:
424,358,77361,2,0,P|348:367|280:349,1,130,0|0,0:0|0:0,0:0:0:0:
245,296,77986,1,10,0:0:0:0:
106,367,78403,6,0,P|89:297|101:239,1,130,2|10,0:0|0:0,0:0:0:0:
153,184,79028,1,2,0:0:0:0:
153,184,79236,2,0,L|142:43,1,130,2|8,0:0|0:0,0:0:0:0:
10,137,80070,6,0,L|83:142,1,65,2|2,0:0|0:0,0:0:0:0:
75,219,80486,2,0,L|83:305,1,65,8|2,0:0|0:0,0:0:0:0:
159,277,80903,2,0,P|238:280|268:211,1,130,2|8,0:0|0:0,0:0:0:0:
272,88,81736,6,0,P|329:47|407:48,1,130,2|10,0:0|0:0,0:0:0:0:
461,85,82361,1,2,0:0:0:0:
461,85,82570,2,0,P|474:169|460:218,1,130,2|10,0:0|0:0,0:0:0:0:
404,263,83195,1,2,0:0:0:0:
404,263,83403,6,0,P|336:264|260:271,2,130,2|10|2,0:0|0:0|0:0,0:0:0:0:
389,186,84445,1,0,0:0:0:0:
389,186,84653,2,0,L|364:105,1,65,10|0,0:0|0:0,0:0:0:0:
369,45,85070,6,0,P|323:25|240:26,1,130,2|10,0:0|0:0,0:0:0:0:
229,101,85695,2,0,P|164:103|104:80,1,130,2|2,0:0|0:0,0:0:0:0:
32,111,86320,2,0,L|28:179,1,65,10|2,0:0|0:0,0:0:0:0:
97,224,86736,6,0,P|95:264|97:292,1,65,2|2,0:0|0:0,0:0:0:0:
153,343,87153,2,0,L|220:345,1,65,10|2,0:0|0:0,0:0:0:0:
265,282,87570,2,0,L|262:205,2,65,2|2|10,0:0|0:0|0:0,0:0:0:0:
312,351,88195,1,0,0:0:0:0:
312,351,88403,6,0,P|388:364|450:344,1,130,4|10,0:2|0:0,0:0:0:0:
468,278,89028,2,0,P|475:215|470:146,2,130,2|2|2,0:0|0:0|0:0,0:0:0:0:
393,254,90070,5,0,0:0:0:0:
393,254,90278,2,0,L|382:169,1,65,2|10,0:0|0:0,0:0:0:0:
340,125,90695,2,0,P|267:107|206:189,1,130,2|2,0:0|0:0,0:0:0:0:
189,204,91320,2,0,L|195:276,1,65,10|2,0:0|0:0,0:0:0:0:
244,328,91736,6,0,L|328:308,2,65,2|2|10,0:0|0:0|0:0,0:0:0:0:
170,350,92361,2,0,P|120:321|107:255,1,130,2|2,0:0|0:0,0:0:0:0:
123,177,92986,1,10,0:0:0:0:
123,177,93195,6,0,P|123:109|113:41,1,130,2|2,0:0|0:0,0:0:0:0:
194,32,93820,1,10,0:0:0:0:
194,32,94028,2,0,P|303:44|341:37,1,130,2|2,0:0|0:0,0:0:0:0:
383,89,94653,2,0,L|383:153,1,65,10|2,0:0|0:0,0:0:0:0:
447,197,95070,6,0,P|452:269|432:327,1,130,2|10,0:0|0:0,0:0:0:0:
360,350,95695,2,0,P|296:360|230:349,1,130,2|2,0:0|0:0,0:0:0:0:
194,280,96320,2,0,L|129:278,1,65,8|2,0:0|0:0,0:0:0:0:
66,231,96736,6,0,P|56:157|63:102,1,130,0|10,0:0|0:0,0:0:0:0:
129,61,97361,2,0,P|204:71|272:61,1,130,2|2,0:0|0:0,0:0:0:0:
321,109,97986,2,0,L|320:178,1,65,10|2,0:0|0:0,0:0:0:0:
261,225,98403,6,0,L|183:222,2,65,2|2|10,0:0|0:0|0:0,0:0:0:0:
335,249,99028,2,0,P|407:254|448:196,1,130,2|8,0:0|0:0,0:0:0:0:
466,140,99653,2,0,L|469:68,1,65,8|8,0:0|0:0,0:0:0:0:
314,47,100278,6,0,L|246:46,1,65,2|0,0:0|0:0,0:0:0:0:
230,122,100695,2,0,L|159:117,1,65,0|2,0:0|0:0,0:0:0:0:
93,87,101111,2,0,L|86:19,2,65,0|0|4,0:0|0:0|0:2,0:0:0:0:
64,240,101945,2,0,L|57:308,2,65,2|2|2,0:0|0:0|0:0,0:0:0:0:
