osu file format v14

[General]
AudioFilename: audio.mp3
AudioLeadIn: 0
PreviewTime: 60903
Countdown: 0
SampleSet: Normal
StackLeniency: 0.7
Mode: 0
LetterboxInBreaks: 0
WidescreenStoryboard: 1

[Editor]
DistanceSpacing: 0.4
BeatDivisor: 6
GridSize: 16
TimelineZoom: 2.1

[Metadata]
Title:Koi Kou Enishi
TitleUnicode:恋ひ恋ふ縁
Artist:KOTOKO
ArtistUnicode:KOTOKO
Creator:Crystal
Version:Hard
Source:千恋*万花
Tags:Senren Banka yuzusoft opening sahuang [Crz]Sword ak74 yf_bmp Sword
BeatmapID:1342993
BeatmapSetID:622780

[Difficulty]
HPDrainRate:5.5
CircleSize:3.7
OverallDifficulty:6
ApproachRate:7.8
SliderMultiplier:1.6
SliderTickRate:1

[Events]
//Background and Video events
0,0,"bg.jpg",0,0
//Break Periods
//Storyboard Layer 0 (Background)
//Storyboard Layer 1 (Fail)
//Storyboard Layer 2 (Pass)
//Storyboard Layer 3 (Foreground)
//Storyboard Sound Samples

[TimingPoints]
70,416.666666666667,4,1,1,40,1,0
1736,-133.333333333333,4,1,1,40,0,0
5486,-133.333333333333,4,1,1,20,0,0
5695,-133.333333333333,4,1,1,40,0,0
6320,-133.333333333333,4,1,1,20,0,0
6528,-133.333333333333,4,1,1,50,0,0
6736,-100,4,1,1,60,0,0
46111,-133.333333333333,4,1,1,60,0,0
46632,-133.333333333333,4,2,1,10,0,0
46736,-125,4,2,1,40,0,0
60070,-100,4,2,1,45,0,0
61111,-100,4,1,1,50,0,0
61736,-100,4,1,1,80,0,1
88403,-100,4,1,1,70,0,0
100278,-200,4,1,1,30,0,0
101528,-100,4,1,1,60,0,0

[Colours]
Combo1 : 255,128,255
Combo2 : 128,255,128
Combo3 : 255,128,0
Combo4 : 128,0,255

[HitObjects]
118,142,1736,6,0,L|111:73,2,60.0000022888184,2|0|0,0:3|0:0|0:0,0:0:0:0:
127,225,2361,2,0,B|172:209|172:209|260:222,1,120.000004577637,0|0,0:0|0:0,0:0:0:0:
326,234,2986,1,0,0:0:0:0:
326,234,3195,1,0,0:0:0:0:
397,189,3403,6,0,L|392:128,2,60.0000022888184,2|0|0,0:3|0:0|0:0,0:0:0:0:
406,272,4028,1,0,0:0:0:0:
131,160,4445,2,0,L|129:192,1,20.0000007629395
124,212,4653,2,0,L|128:284,1,60.0000022888184,0|0,0:0|0:0,0:0:0:0:
174,341,5070,5,0,0:0:0:0:
248,301,5278,1,0,0:0:0:0:
248,301,5382,1,0,0:0:0:0:
248,301,5486,2,0,L|319:298,1,60.0000022888184,8|0,0:3|0:0,0:0:0:0:
416,340,5903,1,0,0:0:0:0:
474,279,6111,2,0,L|470:256,2,15.0000005722046
462,183,6320,1,8,0:3:0:0:
462,183,6528,1,0,0:0:0:0:
341,76,6736,6,0,P|338:124|341:160,1,80,6|0,0:0|0:0,0:0:0:0:
362,241,7153,1,10,0:0:0:0:
340,155,7361,2,0,P|278:154|172:156,1,160,2|2,0:0|0:0,0:0:0:0:
96,184,7986,1,10,0:0:0:0:
32,122,8195,6,0,P|8:173|-2:289,1,160,2|2,0:0|0:0,0:0:0:0:
65,330,8820,1,10,0:0:0:0:
65,330,9028,2,0,P|118:320|148:311,1,80,2|0,0:0|0:0,0:0:0:0:
225,345,9445,1,2,0:0:0:0:
225,345,9653,2,0,P|278:355|308:364,1,80,10|2,0:0|0:0,0:0:0:0:
388,341,10070,6,0,P|423:311|450:268,1,80,2|2,0:0|0:0,0:0:0:0:
445,195,10486,1,10,0:0:0:0:
349,90,10695,2,0,P|353:157|362:253,1,160,2|2,0:0|0:0,0:0:0:0:
361,249,11320,1,10,0:0:0:0:
282,300,11528,6,0,P|212:284|220:190,1,160,2|2,0:0|0:0,0:0:0:0:
233,107,12153,1,10,0:0:0:0:
233,107,12361,2,0,P|182:116|137:111,1,80,2|0,0:0|0:0,0:0:0:0:
61,68,12778,1,2,0:0:0:0:
61,68,12882,1,0,0:0:0:0:
61,68,12986,2,0,P|55:119|38:161,1,80,10|2,0:0|0:0,0:0:0:0:
15,247,13403,5,2,0:0:0:0:
127,226,13611,1,2,0:0:0:0:
74,320,13820,1,10,0:0:0:0:
15,247,14028,2,0,L|188:251,1,160,2|2,0:0|0:0,0:0:0:0:
271,307,14653,1,10,0:0:0:0:
271,307,14861,6,0,P|318:297|362:295,1,80,2|0,0:0|0:0,0:0:0:0:
429,332,15278,1,2,0:0:0:0:
429,332,15486,1,10,0:0:0:0:
494,249,15695,2,0,P|502:210|506:170,1,80,2|0,0:0|0:0,0:0:0:0:
400,120,16111,1,2,0:0:0:0:
400,120,16320,2,0,P|403:159|412:198,1,80,10|2,0:0|0:0,0:0:0:0:
310,262,16736,5,2,0:0:0:0:
239,208,16945,1,2,0:0:0:0:
186,278,17153,1,10,0:0:0:0:
112,229,17361,2,0,B|79:252|79:252|40:229|30:180|70:116,1,160,2|2,0:0|0:0,0:0:0:0:
99,70,17986,1,10,0:0:0:0:
199,107,18195,6,0,B|252:124|275:100|275:100|305:127|359:105,1,160,2|2,0:0|0:0,0:0:0:0:
364,101,18715,1,0,0:0:0:0:
378,94,18820,1,10,0:0:0:0:
491,149,19028,1,2,0:0:0:0:
491,149,19445,5,0,0:0:0:0:
424,206,19653,2,0,L|428:252,3,40,8|0|0|0,0:0|0:0|0:0|0:0,0:0:0:0:
432,289,20070,5,4,0:2:0:0:
353,328,20278,2,0,P|306:316|276:289,2,80,0|8|0,0:0|0:0|0:0,0:0:0:0:
206,341,20903,1,0,0:0:0:0:
206,341,21111,2,0,P|173:305|162:266,1,80,0|8,0:0|0:0,0:0:0:0:
176,188,21528,1,0,0:0:0:0:
176,188,21632,1,0,0:0:0:0:
176,188,21736,5,0,0:0:0:0:
278,127,21945,2,0,P|277:183|274:216,2,80,0|8|0,0:0|0:0|0:0,0:0:0:0:
198,88,22570,2,0,P|198:48|200:8,1,80,0|0,0:0|0:0,0:0:0:0:
284,34,22986,1,8,0:0:0:0:
368,9,23195,1,0,0:0:0:0:
469,64,23403,6,0,P|459:111|449:231,1,160,4|8,0:0|0:0,0:0:0:0:
497,305,24028,2,0,P|448:273|395:356,1,160,0|2,0:0|0:0,0:0:0:0:
304,362,24653,2,0,L|245:357,2,40,10|0|2,0:0|0:0|0:0,0:0:0:0:
296,274,25070,5,2,0:0:0:0:
208,281,25278,2,0,L|149:286,2,40,2|2|10,0:0|0:0|0:0,0:0:0:0:
296,274,25695,1,2,0:0:0:0:
356,191,25903,2,0,P|370:150|369:107,1,80,2|2,0:0|0:0,0:0:0:0:
272,48,26320,2,0,P|265:87|271:126,1,80,10|2,0:0|0:0,0:0:0:0:
370,113,26736,5,4,0:2:0:0:
271,126,26945,2,0,P|230:125|174:117,2,80,0|8|0,0:0|0:0|0:0,0:0:0:0:
299,223,27570,1,0,0:0:0:0:
299,223,27778,2,0,P|259:233|203:241,1,80,0|8,0:0|0:0,0:0:0:0:
132,230,28195,1,0,0:0:0:0:
132,230,28299,1,0,0:0:0:0:
132,230,28403,5,0,0:0:0:0:
103,326,28611,2,0,P|142:321|191:322,2,80,0|8|0,0:0|0:0|0:0,0:0:0:0:
28,279,29236,2,0,P|23:240|24:191,1,80,0|0,0:0|0:0,0:0:0:0:
39,112,29653,1,8,0:0:0:0:
39,112,29861,1,0,0:0:0:0:
142,167,30070,6,0,B|244:150|185:217|305:194,1,160,0|8,0:0|0:0,0:0:0:0:
375,165,30695,1,2,0:0:0:0:
388,156,30799,1,2,0:0:0:0:
398,143,30903,2,0,P|403:192|408:225,1,80,2|2,0:0|0:0,0:0:0:0:
450,299,31320,2,0,P|450:325|446:349,2,40,10|0|2,0:0|0:0|0:0,0:0:0:0:
351,323,31736,6,0,P|307:325|262:319,1,80,2|0,0:0|0:0,0:0:0:0:
206,261,32153,2,0,P|166:258|126:263,1,80,10|2,0:0|0:0,0:0:0:0:
40,285,32570,2,0,P|35:245|37:205,1,80,2|2,0:0|0:0,0:0:0:0:
80,112,32986,1,10,0:0:0:0:
159,149,33195,1,0,0:0:0:0:
253,96,33403,6,0,P|304:92|427:72,1,160,4|8,0:2|0:0,0:0:0:0:
493,33,34028,2,0,P|507:93|508:135,1,80,2|0,0:0|0:0,0:0:0:0:
439,176,34445,2,0,P|434:215|436:255,1,80,2|8,0:0|0:0,0:0:0:0:
503,324,34861,2,0,P|450:305|377:369,1,160,2|2,0:0|0:0,0:0:0:0:
304,296,35486,5,8,0:0:0:0:
249,374,35695,1,2,0:0:0:0:
187,300,35903,2,0,P|192:232|192:126,1,160,0|8,0:0|0:0,0:0:0:0:
178,53,36528,1,0,0:0:0:0:
192,140,36736,6,0,P|249:148|328:74,1,160,4|8,0:0|0:0,0:0:0:0:
349,2,37361,1,2,0:0:0:0:
460,52,37570,2,0,L|462:140,1,80,0|2,0:0|0:0,0:0:0:0:
461,219,37986,1,8,0:0:0:0:
394,288,38195,1,2,0:0:0:0:
378,290,38299,1,0,0:0:0:0:
362,292,38403,6,0,P|337:249|329:205,1,80,0|2,0:0|0:0,0:0:0:0:
283,135,38820,2,0,P|249:171|209:191,1,80,8|2,0:0|0:0,0:0:0:0:
135,186,39236,1,0,0:0:0:0:
135,186,39653,1,8,0:0:0:0:
117,99,39861,1,0,0:0:0:0:
59,232,40070,6,0,P|110:225|238:217,1,160,2|10,0:0|0:0,0:0:0:0:
293,263,40695,2,0,P|248:237|307:148,2,160,2|4|4,0:0|0:3|0:3,0:0:0:0:
293,263,41945,2,0,P|353:254|387:254,1,80,2|8,0:0|0:0,0:0:0:0:
448,297,42361,6,0,P|476:256|474:146,1,160,2|2,0:0|0:0,0:0:0:0:
379,96,42986,2,0,P|378:147|389:183,1,80,10|2,0:0|0:0,0:0:0:0:
304,220,43403,5,2,0:0:0:0:
216,208,43611,1,2,0:0:0:0:
128,196,43820,1,10,0:0:0:0:
41,183,44028,2,0,P|56:246|50:281,1,80,2|0,0:0|0:0,0:0:0:0:
131,304,44445,2,0,P|99:360|70:381,1,80,2|8,0:0|0:0,0:0:0:0:
0,377,44861,1,2,0:0:0:0:
226,329,45278,6,0,L|309:326,1,80,2|10,0:0|0:0,0:0:0:0:
402,295,45695,1,2,0:0:0:0:
399,310,45799,1,0,0:0:0:0:
396,325,45903,1,0,0:0:0:0:
495,360,46111,2,0,L|486:225,1,120.000004577637,4|0,0:2|0:0,0:0:0:0:
480,157,46736,6,0,B|363:213|402:89|278:142,1,192,4|2,0:0|0:0,0:0:0:0:
229,171,47570,2,0,L|92:164,1,128,2|8,0:0|0:0,0:0:0:0:
101,164,48403,6,0,P|122:126|127:91,1,64,2|0,0:0|0:0,0:0:0:0:
3,169,48820,2,0,P|16:210|38:237,1,64,8|0,0:0|0:0,0:0:0:0:
106,253,49236,2,0,P|120:293|120:329,2,64,2|0|8,0:0|0:0|0:0,0:0:0:0:
273,352,50070,6,0,B|260:319|273:265|329:255|329:255|278:242|273:195,1,192,2|2,0:0|0:0,0:0:0:0:
254,139,50903,2,0,P|296:102|368:109,1,128,2|8,0:0|0:0,0:0:0:0:
364,106,51736,6,0,P|322:108|301:94,1,64,2|0,0:0|0:0,0:0:0:0:
242,40,52153,2,0,P|200:38|179:52,1,64,8|0,0:0|0:0,0:0:0:0:
128,112,52570,1,2,0:0:0:0:
128,112,52986,1,8,0:0:0:0:
203,326,53403,6,0,P|222:266|182:206,1,128,4|8,0:0|0:0,0:0:0:0:
137,275,54028,1,2,0:0:0:0:
70,224,54236,2,0,P|51:284|91:344,1,128,2|8,0:0|0:0,0:0:0:0:
137,275,54861,1,0,0:0:0:0:
203,326,55070,6,0,L|276:323,1,64,2|0,0:0|0:0,0:0:0:0:
346,346,55486,2,0,L|419:343,1,64,8|0,0:0|0:0,0:0:0:0:
485,307,55903,1,2,0:0:0:0:
356,201,56320,2,0,P|352:157|361:135,1,64,8|0,0:0|0:0,0:0:0:0:
432,101,56736,6,0,P|373:115|303:76,1,128,2|8,0:0|0:0,0:0:0:0:
257,26,57361,1,2,0:0:0:0:
257,26,57570,2,0,P|271:85|232:155,1,128,2|8,0:0|0:0,0:0:0:0:
107,239,58403,5,2,0:1:0:0:
256,192,58611,12,2,60070,0:1:0:0:
118,107,61111,5,8,0:1:0:0:
111,211,61320,1,8,0:3:0:0:
111,211,61736,6,0,B|169:191|169:191|204:209|209:261|189:293,1,160,4|8,0:2|0:0,0:0:0:0:
159,357,62361,1,2,0:0:0:0:
310,374,62570,2,0,L|302:289,1,80,2|2,0:0|0:0,0:0:0:0:
309,279,62882,1,2,0:0:0:0:
315,264,62986,1,10,0:0:0:0:
398,299,63195,1,2,0:0:0:0:
487,254,63403,6,0,P|473:208|478:161,1,80,2|0,0:0|0:0,0:0:0:0:
398,132,63820,2,0,P|390:179|365:219,1,80,8|0,0:0|0:0,0:0:0:0:
279,251,64236,1,2,0:0:0:0:
195,221,64445,1,2,0:0:0:0:
115,317,64653,2,0,L|200:315,1,80,8|0,0:0|0:0,0:0:0:0:
180,226,65070,6,0,L|38:230,1,120,2|0,0:0|0:0,0:0:0:0:
20,249,65486,2,0,P|42:201|31:163,1,80,10|2,0:0|0:0,0:0:0:0:
5,91,65903,2,0,P|44:45|116:57,1,120,2|0,0:0|0:0,0:0:0:0:
136,70,66320,2,0,L|225:62,1,80,8|0,0:0|0:0,0:0:0:0:
296,27,66736,5,2,0:0:0:0:
283,130,66945,1,0,0:0:0:0:
303,42,67153,1,10,0:0:0:0:
290,145,67362,1,0,0:0:0:0:
310,57,67570,2,0,P|355:56|396:50,1,80,2|0,0:0|0:0,0:0:0:0:
491,161,67986,2,0,P|445:158|405:151,1,80,8|0,0:0|0:0,0:0:0:0:
396,146,68299,1,0,0:0:0:0:
382,137,68403,6,0,P|413:171|374:278,1,160,4|10,0:2|0:0,0:0:0:0:
300,292,69028,1,2,0:0:0:0:
201,181,69236,2,0,L|287:178,1,80,0|2,0:0|0:0,0:0:0:0:
277,193,69549,1,2,0:0:0:0:
273,208,69653,1,10,0:0:0:0:
233,102,69861,1,2,0:0:0:0:
161,50,70070,6,0,P|121:55|89:77,1,80,2|0,0:0|0:0,0:0:0:0:
108,163,70486,2,0,P|83:194|76:233,1,80,10|0,0:0|0:0,0:0:0:0:
142,293,70903,1,2,0:0:0:0:
142,293,71111,2,0,L|225:288,1,80,2|8,0:0|0:0,0:0:0:0:
309,295,71528,1,0,0:0:0:0:
309,295,71736,6,0,P|290:238|292:210,2,80,2|2|10,0:0|0:0|0:0,0:0:0:0:
389,332,72361,2,0,P|439:301|478:203,1,160,2|2,0:0|0:0,0:0:0:0:
434,109,72986,1,10,0:0:0:0:
434,109,73195,1,2,0:0:0:0:
374,173,73403,6,0,P|317:193|288:184,1,80,2|2,0:0|0:0,0:0:0:0:
225,142,73820,1,10,0:0:0:0:
232,248,74028,1,2,0:0:0:0:
225,142,74236,1,2,0:0:0:0:
232,248,74445,5,2,0:0:0:0:
229,263,74549,1,2,0:0:0:0:
226,278,74653,2,0,B|276:270|276:270|305:298|334:304|364:298,1,120,10|0,0:0|0:0,0:0:0:0:
381,296,75070,6,0,P|357:243|413:156,1,160,4|10,0:2|0:0,0:0:0:0:
487,135,75695,1,2,0:0:0:0:
334,180,75903,2,0,P|291:181|251:173,1,80,0|2,0:0|0:0,0:0:0:0:
247,160,76215,1,0,0:0:0:0:
239,145,76320,1,10,0:0:0:0:
270,54,76528,1,2,0:0:0:0:
159,31,76736,6,0,L|163:115,1,80,2|0,0:0|0:0,0:0:0:0:
24,84,77153,2,0,L|20:168,1,80,8|0,0:0|0:0,0:0:0:0:
161,146,77570,2,0,L|165:230,1,80,2|0,0:0|0:0,0:0:0:0:
44,325,77986,2,0,P|96:308|138:381,1,120,10|0,0:0|0:0,0:0:0:0:
164,367,78403,6,0,P|217:350|338:342,1,160,2|10,0:0|0:0,0:0:0:0:
407,356,79028,1,2,0:0:0:0:
495,291,79236,2,0,P|511:248|484:179,1,120,0|0,0:0|0:0,0:0:0:0:
450,154,79653,2,0,P|407:160|371:161,1,80,10|0,0:0|0:0,0:0:0:0:
225,117,80070,5,2,0:0:0:0:
349,81,80278,1,2,0:0:0:0:
270,183,80486,1,8,0:0:0:0:
274,53,80695,1,2,0:0:0:0:
347,161,80903,1,2,0:0:0:0:
210,115,81111,5,0,0:0:0:0:
126,144,81320,2,0,P|129:171|127:203,3,40,8|0|0|0,0:0|0:0|0:0|0:0,0:0:0:0:
102,219,81736,6,0,P|93:274|101:381,1,160,2|10,0:0|0:0,0:0:0:0:
100,377,82361,1,2,0:0:0:0:
212,359,82570,2,0,P|281:368|337:306,1,160,2|10,0:0|0:0,0:0:0:0:
337,305,83195,1,2,0:0:0:0:
263,208,83403,6,0,P|252:254|259:294,1,80,2|0,0:0|0:0,0:0:0:0:
419,352,83820,2,0,P|430:306|423:266,1,80,10|2,0:0|0:0,0:0:0:0:
337,305,84236,2,0,L|173:308,1,160,2|10,0:0|0:0,0:0:0:0:
160,319,85070,6,0,L|71:317,1,80,2|2,0:0|0:0,0:0:0:0:
145,230,85486,2,0,L|224:228,1,80,10|2,0:0|0:0,0:0:0:0:
161,327,85903,6,0,L|55:324,1,80,2|2,0:0|0:0,0:0:0:0:
143,221,86319,2,0,L|238:219,1,80,10|2,0:0|0:0,0:0:0:0:
308,275,86736,5,2,0:0:0:0:
337,191,86945,2,0,L|390:184,2,40,2|2|10,0:0|0:0|0:0,0:0:0:0:
361,106,87361,2,0,L|414:99,2,40,2|2|2,0:0|0:0|0:0,0:0:0:0:
306,36,87778,1,2,0:0:0:0:
306,36,87986,2,0,P|261:56|223:58,1,80,10|2,0:0|0:0,0:0:0:0:
145,34,88403,6,0,L|151:134,2,80,4|2|10,0:2|0:0|0:0,0:0:0:0:
66,75,89028,2,0,P|46:137|61:232,1,160,2|2,0:0|0:0,0:0:0:0:
166,206,89653,1,0,0:0:0:0:
166,206,89861,2,0,P|212:197|249:200,1,80,2|0,0:0|0:0,0:0:0:0:
305,135,90278,1,2,0:0:0:0:
305,135,90486,1,10,0:0:0:0:
388,210,90695,2,0,P|397:256|394:293,1,80,2|0,0:0|0:0,0:0:0:0:
300,346,91111,1,2,0:0:0:0:
300,346,91320,2,0,P|298:306|306:267,1,80,10|2,0:0|0:0,0:0:0:0:
394,288,91736,6,0,P|438:282|489:282,2,80,2|2|10,0:0|0:0|0:0,0:0:0:0:
306,267,92361,2,0,P|259:276|147:253,1,160,2|2,0:0|0:0,0:0:0:0:
80,201,92986,1,10,0:0:0:0:
80,201,93195,2,0,P|60:151|70:109,1,80,2|0,0:0|0:0,0:0:0:0:
98,46,93611,5,2,0:0:0:0:
98,46,93820,1,10,0:0:0:0:
214,50,94028,2,0,P|204:103|173:133,1,80,2|0,0:0|0:0,0:0:0:0:
244,190,94445,1,2,0:0:0:0:
244,190,94549,1,0,0:0:0:0:
244,190,94653,2,0,P|241:243|264:280,1,80,10|2,0:0|0:0,0:0:0:0:
264,276,94965,1,0,0:0:0:0:
278,283,95070,6,0,P|352:273|457:267,1,160,2|10,0:0|0:0,0:0:0:0:
448,354,95695,2,0,P|374:364|269:370,1,160,2|2,0:0|0:0,0:0:0:0:
208,334,96320,1,8,0:0:0:0:
124,360,96528,2,0,P|79:347|60:246,1,160,2|2,0:0|0:0,0:0:0:0:
111,163,97153,1,10,0:0:0:0:
111,163,97361,2,0,P|156:151|196:153,1,80,2|0,0:0|0:0,0:0:0:0:
254,210,97778,1,2,0:0:0:0:
254,210,97986,2,0,P|299:218|334:238,1,80,10|2,0:0|0:0,0:0:0:0:
406,297,98403,5,2,0:0:0:0:
438,216,98611,1,2,0:0:0:0:
492,285,98820,1,10,0:0:0:0:
406,297,99028,2,0,L|400:198,1,80,2|8,0:0|0:0,0:0:0:0:
406,201,99340,1,8,0:0:0:0:
411,185,99445,2,0,L|410:142,4,40,8|8|8|8|8,0:0|0:0|0:0|0:0|0:0,0:0:0:0:
211,104,100278,6,0,L|160:100,2,40,2|0|0,0:0|0:0|0:0,0:0:0:0:
189,189,100903,2,0,L|138:185,2,40,2|0|0,0:0|0:0|0:0,0:0:0:0:
284,232,101528,6,0,P|240:261|214:370,1,160,4|2,0:2|0:0,0:0:0:0:
129,285,102153,1,2,0:0:0:0:
114,374,102361,1,2,0:0:0:0:
