osu file format v14

[General]
AudioFilename: audio.mp3
AudioLeadIn: 0
PreviewTime: 60903
Countdown: 0
SampleSet: Normal
StackLeniency: 0.7
Mode: 0
LetterboxInBreaks: 0
WidescreenStoryboard: 1

[Editor]
DistanceSpacing: 0.5
BeatDivisor: 6
GridSize: 16
TimelineZoom: 1

[Metadata]
Title:Koi Kou Enishi
TitleUnicode:恋ひ恋ふ縁
Artist:KOTOKO
ArtistUnicode:KOTOKO
Creator:Crystal
Version:Another
Source:千恋*万花
Tags:Senren Banka yuzusoft opening sahuang [Crz]Sword ak74 yf_bmp Sword
BeatmapID:1316207
BeatmapSetID:622780

[Difficulty]
HPDrainRate:6
CircleSize:4.8
OverallDifficulty:7.5
ApproachRate:8.5
SliderMultiplier:1.6
SliderTickRate:1

[Events]
//Background and Video events
0,0,"bg.jpg",0,0
//Break Periods
//Storyboard Layer 0 (Background)
//Storyboard Layer 1 (Fail)
//Storyboard Layer 2 (Pass)
//Storyboard Layer 3 (Foreground)
//Storyboard Sound Samples

[TimingPoints]
70,416.666666666667,4,1,1,40,1,0
1736,-133.333333333333,4,1,1,40,0,0
5486,-133.333333333333,4,1,1,20,0,0
5695,-133.333333333333,4,1,1,40,0,0
6320,-133.333333333333,4,1,1,20,0,0
6424,-133.333333333333,4,1,1,50,0,0
6736,-100,4,1,1,60,0,0
46111,-133.333333333333,4,1,1,60,0,0
46632,-133.333333333333,4,2,1,10,0,0
46736,-125,4,2,1,40,0,0
60070,-125,4,2,1,45,0,0
61111,-125,4,1,1,50,0,0
61736,-100,4,1,1,80,0,1
88403,-100,4,1,1,70,0,0
100278,-100,4,1,1,30,0,0
101528,-100,4,1,1,60,0,0

[Colours]
Combo1 : 255,128,255
Combo2 : 128,255,128
Combo3 : 255,128,0
Combo4 : 128,0,255

[HitObjects]
128,214,1736,6,0,L|118:152,1,60.0000022888184,2|0,0:3|0:0,0:0:0:0:
106,82,2153,1,0,0:0:0:0:
43,229,2361,1,0,0:0:0:0:
128,214,2778,5,0,0:0:0:0:
106,82,2986,1,0,0:0:0:0:
43,229,3194,1,0,0:0:0:0:
211,199,3403,2,0,L|201:137,1,60.0000022888184,2|0,0:3|0:0,0:0:0:0:
189,67,3820,1,0,0:0:0:0:
128,214,4028,1,0,0:0:0:0:
294,157,4445,5,0,0:0:0:0:
292,171,4514,1,0,0:0:0:0:
283,237,4653,1,0,0:0:0:0:
303,88,4861,1,0,0:0:0:0:
348,354,5070,2,0,L|338:292,1,60.0000022888184,0|0,0:0|0:0,0:0:0:0:
352,291,5382,1,0,0:0:0:0:
366,287,5486,1,8,0:3:0:0:
247,362,5695,6,0,L|242:331,1,30.0000011444092,0|0,0:0|0:0,0:0:0:0:
185,237,5903,2,0,L|189:266,1,30.0000011444092,0|0,0:0|0:0,0:0:0:0:
152,374,6111,2,0,L|147:343,1,30.0000011444092,0|0,0:0|0:0,0:0:0:0:
90,249,6320,1,8,0:3:0:0:
87,263,6424,1,0,0:0:0:0:
84,277,6528,1,0,0:0:0:0:
81,291,6632,1,0,0:0:0:0:
70,325,6736,6,0,L|55:240,1,80,6|0,0:0|0:0,0:0:0:0:
247,120,7153,1,10,0:0:0:0:
111,37,7361,2,0,L|139:194,1,160,2|2,0:0|0:0,0:0:0:0:
164,313,7986,1,10,0:0:0:0:
237,244,8195,2,0,L|250:322,1,80,2|0,0:0|0:0,0:0:0:0:
341,194,8611,1,2,0:0:0:0:
172,160,8820,1,10,0:0:0:0:
301,96,9028,6,0,L|287:17,1,80,2|0,0:0|0:0,0:0:0:0:
172,160,9445,1,2,0:0:0:0:
172,160,9653,1,10,0:0:0:0:
172,160,9861,1,2,0:0:0:0:
354,272,10070,6,0,L|340:193,1,80,2|2,0:0|0:0,0:0:0:0:
434,123,10486,1,10,0:0:0:0:
252,194,10695,2,0,L|280:351,1,160,2|2,0:0|0:0,0:0:0:0:
252,194,11320,1,10,0:0:0:0:
185,288,11528,6,0,L|198:366,1,80,2|0,0:0|0:0,0:0:0:0:
353,262,11945,1,2,0:0:0:0:
153,182,12153,1,10,0:0:0:0:
94,305,12361,6,0,L|107:383,1,80,2|0,0:0|0:0,0:0:0:0:
267,280,12778,1,2,0:0:0:0:
267,280,12882,1,0,0:0:0:0:
267,280,12986,1,10,0:0:0:0:
28,229,13195,1,2,0:0:0:0:
172,101,13403,6,0,L|185:179,1,80,2|2,0:0|0:0,0:0:0:0:
159,20,13820,1,10,0:0:0:0:
113,210,14028,2,0,L|141:367,1,160,2|2,0:0|0:0,0:0:0:0:
113,210,14653,1,10,0:0:0:0:
271,198,14861,2,0,L|284:276,1,80,2|0,0:0|0:0,0:0:0:0:
185,179,15278,1,2,0:0:0:0:
346,160,15486,1,10,0:0:0:0:
211,361,15695,6,0,L|198:283,1,80,2|0,0:0|0:0,0:0:0:0:
252,67,16111,2,0,L|260:113,1,40,2|0,0:0|0:0,0:0:0:0:
336,84,16320,2,0,L|344:130,1,40,10|0,0:0|0:0,0:0:0:0:
418,103,16528,2,0,L|426:149,1,40,2|0,0:0|0:0,0:0:0:0:
390,281,16736,6,0,L|377:203,1,80,2|2,0:0|0:0,0:0:0:0:
477,319,17153,1,10,0:0:0:0:
318,347,17361,2,0,L|290:190,1,160,2|2,0:0|0:0,0:0:0:0:
390,281,17986,1,10,0:0:0:0:
221,308,18195,6,0,L|208:230,1,80,2|0,0:0|0:0,0:0:0:0:
377,161,18611,1,2,0:0:0:0:
377,161,18715,1,0,0:0:0:0:
377,161,18820,1,10,0:0:0:0:
175,75,19028,6,0,L|188:153,1,80,2|0,0:0|0:0,0:0:0:0:
37,278,19445,2,0,L|31:238,1,40,0|0,0:0|0:0,0:0:0:0:
18,162,19653,5,8,0:0:0:0:
14,142,19757,1,0,0:0:0:0:
11,122,19861,1,0,0:0:0:0:
8,102,19965,1,0,0:0:0:0:
97,84,20070,6,0,L|110:162,1,80,4|0,0:2|0:0,0:0:0:0:
125,238,20486,1,8,0:0:0:0:
181,72,20695,2,0,L|194:150,1,80,0|0,0:0|0:0,0:0:0:0:
290,219,21111,2,0,L|277:141,2,80,0|8|0,0:0|0:0|0:0,0:0:0:0:
294,238,21632,1,0,0:0:0:0:
297,257,21736,5,0,0:0:0:0:
383,275,21945,1,0,0:0:0:0:
215,283,22153,1,8,0:0:0:0:
383,275,22361,1,0,0:0:0:0:
122,265,22570,2,0,L|135:343,1,80,0|0,0:0|0:0,0:0:0:0:
311,379,22986,2,0,L|298:301,1,80,8|0,0:0|0:0,0:0:0:0:
186,125,23403,6,0,L|214:282,1,160,4|8,0:0|0:0,0:0:0:0:
34,309,24028,2,0,L|21:231,1,80,0|0,0:0|0:0,0:0:0:0:
79,76,24445,1,2,0:0:0:0:
82,95,24549,1,2,0:0:0:0:
85,115,24653,1,10,0:0:0:0:
88,135,24757,1,0,0:0:0:0:
92,154,24861,2,0,L|98:194,1,40,2|0,0:0|0:0,0:0:0:0:
191,132,25070,5,2,0:0:0:0:
187,112,25174,1,2,0:0:0:0:
184,92,25278,1,2,0:0:0:0:
181,72,25382,1,2,0:0:0:0:
177,53,25486,1,10,0:0:0:0:
106,23,25695,1,2,0:0:0:0:
82,95,25903,5,2,0:0:0:0:
280,67,26111,1,2,0:0:0:0:
82,95,26320,1,10,0:0:0:0:
280,67,26528,1,2,0:0:0:0:
204,210,26736,6,0,L|191:132,1,80,4|0,0:2|0:0,0:0:0:0:
178,50,27153,1,8,0:0:0:0:
309,244,27361,2,0,L|296:166,1,80,0|0,0:0|0:0,0:0:0:0:
378,58,27778,2,0,L|391:136,2,80,0|8|0,0:0|0:0|0:0,0:0:0:0:
373,38,28299,1,0,0:0:0:0:
369,18,28403,5,0,0:0:0:0:
287,77,28611,1,0,0:0:0:0:
194,38,28820,1,8,0:0:0:0:
112,97,29028,1,0,0:0:0:0:
19,58,29236,2,0,L|32:136,1,80,0|0,0:0|0:0,0:0:0:0:
223,212,29653,2,0,L|210:134,1,80,8|0,0:0|0:0,0:0:0:0:
32,136,30070,6,0,L|60:293,1,160,0|8,0:0|0:0,0:0:0:0:
181,365,30695,1,2,0:0:0:0:
177,345,30799,1,2,0:0:0:0:
174,325,30903,1,2,0:0:0:0:
171,305,31007,1,2,0:0:0:0:
167,286,31111,1,2,0:0:0:0:
258,211,31320,1,10,0:0:0:0:
258,211,31424,1,0,0:0:0:0:
258,211,31528,2,0,L|264:251,1,40,2|0,0:0|0:0,0:0:0:0:
277,327,31736,5,2,0:0:0:0:
149,235,31944,1,0,0:0:0:0:
241,110,32152,1,10,0:0:0:0:
365,199,32361,1,2,0:0:0:0:
149,235,32570,2,0,L|136:157,1,80,2|2,0:0|0:0,0:0:0:0:
290,37,32986,1,10,0:0:0:0:
267,203,33195,1,0,0:0:0:0:
56,317,33403,6,0,L|28:160,1,160,4|8,0:2|0:0,0:0:0:0:
110,28,34028,2,0,L|123:106,1,80,2|0,0:0|0:0,0:0:0:0:
242,219,34445,2,0,L|229:141,1,80,2|8,0:0|0:0,0:0:0:0:
158,282,34861,1,2,0:0:0:0:
158,282,34965,1,0,0:0:0:0:
158,282,35070,6,0,L|145:204,1,80,0|2,0:0|0:0,0:0:0:0:
349,271,35486,2,0,L|336:193,1,80,8|2,0:0|0:0,0:0:0:0:
247,262,35903,2,0,L|260:340,1,80,0|0,0:0|0:0,0:0:0:0:
438,251,36319,2,0,L|451:329,1,80,10|0,0:0|0:0,0:0:0:0:
349,271,36736,6,0,L|321:114,1,160,4|8,0:0|0:0,0:0:0:0:
217,37,37361,2,0,L|230:115,1,80,2|0,0:0|0:0,0:0:0:0:
413,87,37778,1,2,0:0:0:0:
413,87,37986,1,8,0:0:0:0:
251,212,38195,1,2,0:0:0:0:
251,212,38299,1,0,0:0:0:0:
251,212,38403,6,0,L|264:290,1,80,0|2,0:0|0:0,0:0:0:0:
84,352,38820,2,0,L|71:274,1,80,8|2,0:0|0:0,0:0:0:0:
354,240,39236,2,0,L|367:318,1,80,0|2,0:0|0:0,0:0:0:0:
187,380,39653,2,0,L|174:302,1,80,10|0,0:0|0:0,0:0:0:0:
142,131,40070,5,2,0:0:0:0:
111,221,40278,1,0,0:0:0:0:
205,205,40486,1,10,0:0:0:0:
17,239,40695,1,2,0:0:0:0:
256,48,41111,1,4,0:3:0:0:
495,239,41528,6,0,L|508:317,1,80,4|0,0:3|0:0,0:0:0:0:
402,192,41945,1,2,0:0:0:0:
402,192,42153,1,8,0:0:0:0:
303,226,42361,2,0,L|331:383,1,160,2|2,0:0|0:0,0:0:0:0:
221,349,42986,1,10,0:0:0:0:
408,282,43195,1,2,0:0:0:0:
190,162,43403,6,0,L|203:240,1,80,2|2,0:0|0:0,0:0:0:0:
243,91,43820,1,10,0:0:0:0:
292,249,44028,2,0,L|279:171,1,80,2|2,0:0|0:0,0:0:0:0:
107,153,44445,2,0,L|120:231,1,80,2|8,0:0|0:0,0:0:0:0:
233,360,44861,5,2,0:0:0:0:
229,340,44965,1,0,0:0:0:0:
226,320,45069,1,2,0:0:0:0:
212,232,45277,1,2,0:0:0:0:
333,329,45486,1,10,0:0:0:0:
125,300,45695,5,2,0:0:0:0:
121,280,45799,1,0,0:0:0:0:
118,260,45903,1,0,0:0:0:0:
82,65,46111,6,0,L|103:196,1,120.000004577637,4|0,0:2|0:0,0:0:0:0:
249,257,46736,6,0,L|229:131,1,128,4|8,0:0|0:0,0:0:0:0:
217,54,47361,1,2,0:0:0:0:
151,172,47570,2,0,L|161:235,1,64,2|0,0:0|0:0,0:0:0:0:
336,277,47986,2,0,L|325:213,1,64,8|0,0:0|0:0,0:0:0:0:
228,130,48403,6,0,L|238:193,1,64,2|0,0:0|0:0,0:0:0:0:
316,151,48820,2,0,L|326:214,1,64,8|0,0:0|0:0,0:0:0:0:
404,172,49236,1,2,0:0:0:0:
228,130,49445,1,0,0:0:0:0:
404,172,49653,1,8,0:0:0:0:
182,358,50070,6,0,L|162:232,1,128,2|8,0:0|0:0,0:0:0:0:
228,178,50695,1,2,0:0:0:0:
65,193,50903,2,0,L|75:256,1,64,2|0,0:0|0:0,0:0:0:0:
216,98,51320,2,0,L|206:35,1,64,8|0,0:0|0:0,0:0:0:0:
126,81,51736,5,2,0:0:0:0:
309,112,51945,1,0,0:0:0:0:
139,181,52153,2,0,L|149:244,1,64,8|0,0:0|0:0,0:0:0:0:
28,69,52570,5,2,0:0:0:0:
41,169,52778,2,0,L|47:204,2,32,0|0|8,0:0|0:0|0:0,0:0:0:0:
380,359,53403,6,0,L|360:233,1,128,4|8,0:0|0:0,0:0:0:0:
347,157,54028,1,2,0:0:0:0:
296,345,54236,2,0,L|276:219,1,128,2|8,0:0|0:0,0:0:0:0:
425,181,54861,1,0,0:0:0:0:
336,93,55070,2,0,L|346:156,1,64,2|0,0:0|0:0,0:0:0:0:
275,218,55486,2,0,L|265:155,1,64,8|0,0:0|0:0,0:0:0:0:
186,130,55903,1,2,0:0:0:0:
72,347,56320,6,0,L|62:284,1,64,8|0,0:0|0:0,0:0:0:0:
141,234,56736,2,0,L|161:360,1,128,2|8,0:0|0:0,0:0:0:0:
141,234,57361,1,0,0:0:0:0:
228,190,57570,2,0,L|248:316,1,128,2|8,0:0|0:0,0:0:0:0:
433,127,58403,5,2,0:1:0:0:
424,203,58820,1,2,0:1:0:0:
415,279,59236,1,2,0:1:0:0:
406,355,59653,1,2,0:1:0:0:
392,360,60070,5,2,0:1:0:0:
401,284,60278,1,2,0:1:0:0:
410,208,60486,1,2,0:1:0:0:
419,132,60695,1,2,0:1:0:0:
427,55,60903,1,2,0:1:0:0:
291,165,61111,5,8,0:1:0:0:
502,104,61320,1,8,0:3:0:0:
502,104,61736,6,0,L|474:261,1,160,4|8,0:2|0:0,0:0:0:0:
370,213,62361,1,2,0:0:0:0:
356,291,62570,2,0,L|369:213,1,80,2|2,0:0|0:0,0:0:0:0:
374,193,62882,1,2,0:0:0:0:
378,173,62986,5,2,0:0:0:0:
473,261,63195,1,2,0:0:0:0:
264,232,63403,2,0,L|251:310,1,80,2|0,0:0|0:0,0:0:0:0:
459,339,63820,6,0,L|472:261,1,80,8|0,0:0|0:0,0:0:0:0:
338,112,64236,1,2,0:0:0:0:
356,291,64445,1,2,0:0:0:0:
356,291,64549,1,0,0:0:0:0:
356,291,64653,2,0,L|369:213,1,80,8|0,0:0|0:0,0:0:0:0:
407,49,65070,5,2,0:0:0:0:
112,93,65382,1,0,0:0:0:0:
112,93,65486,1,10,0:0:0:0:
225,49,65695,1,2,0:0:0:0:
132,206,65903,1,2,0:0:0:0:
225,49,66320,1,8,0:0:0:0:
132,206,66736,6,0,L|119:284,1,80,2|0,0:0|0:0,0:0:0:0:
377,342,67153,2,0,L|390:264,1,80,10|0,0:0|0:0,0:0:0:0:
278,167,67570,1,2,0:0:0:0:
246,350,67778,2,0,L|259:272,2,80,0|8|0,0:0|0:0|0:0,0:0:0:0:
157,137,68403,6,0,L|129:294,1,160,4|10,0:2|0:0,0:0:0:0:
48,212,69028,1,2,0:0:0:0:
248,184,69236,2,0,L|261:106,1,80,0|2,0:0|0:0,0:0:0:0:
266,85,69549,1,2,0:0:0:0:
271,65,69653,5,10,0:0:0:0:
157,137,69861,1,2,0:0:0:0:
353,183,70070,2,0,L|340:261,1,80,2|0,0:0|0:0,0:0:0:0:
184,370,70486,6,0,L|197:292,1,80,10|0,0:0|0:0,0:0:0:0:
408,354,70903,1,2,0:0:0:0:
408,354,71111,2,0,L|421:276,1,80,2|0,0:0|0:0,0:0:0:0:
296,178,71528,1,0,0:0:0:0:
296,178,71736,6,0,L|283:256,1,80,2|2,0:0|0:0,0:0:0:0:
269,332,72153,1,10,0:0:0:0:
190,193,72361,2,0,L|203:115,1,80,2|0,0:0|0:0,0:0:0:0:
217,39,72778,1,2,0:0:0:0:
285,89,72986,1,10,0:0:0:0:
118,123,73195,1,2,0:0:0:0:
217,39,73403,5,2,0:0:0:0:
151,209,73611,1,2,0:0:0:0:
217,39,73820,1,10,0:0:0:0:
151,209,74028,1,2,0:0:0:0:
57,78,74236,1,2,0:0:0:0:
35,240,74445,2,0,L|43:195,2,40,2|2|10,0:0|0:0|0:0,0:0:0:0:
262,171,74861,1,2,0:0:0:0:
233,328,75070,6,0,L|261:171,1,160,4|10,0:2|0:0,0:0:0:0:
276,93,75695,1,2,0:0:0:0:
336,236,75903,2,0,L|323:314,1,80,0|2,0:0|0:0,0:0:0:0:
320,334,76215,1,0,0:0:0:0:
317,354,76320,5,10,0:0:0:0:
197,256,76528,1,2,0:0:0:0:
437,293,76736,2,0,L|424:371,1,80,2|0,0:0|0:0,0:0:0:0:
349,157,77153,6,0,L|336:235,1,80,8|0,0:0|0:0,0:0:0:0:
261,21,77570,2,0,L|248:99,1,80,2|0,0:0|0:0,0:0:0:0:
127,280,77986,2,0,L|147:161,1,120,10|0,0:0|0:0,0:0:0:0:
151,142,78403,5,2,0:0:0:0:
151,142,78820,1,10,0:0:0:0:
54,219,79028,1,2,0:0:0:0:
218,326,79236,2,0,L|231:248,1,80,0|0,0:0|0:0,0:0:0:0:
54,219,79653,1,10,0:0:0:0:
54,219,79861,1,0,0:0:0:0:
105,384,80070,6,0,L|118:306,1,80,2|2,0:0|0:0,0:0:0:0:
379,207,80486,2,0,L|366:285,1,80,8|2,0:0|0:0,0:0:0:0:
213,205,80903,1,2,0:0:0:0:
245,345,81111,1,0,0:0:0:0:
453,273,81320,1,8,0:0:0:0:
449,292,81424,1,0,0:0:0:0:
446,312,81528,1,0,0:0:0:0:
443,332,81632,1,0,0:0:0:0:
352,364,81736,6,0,L|365:286,1,80,2|0,0:0|0:0,0:0:0:0:
186,233,82153,2,0,L|173:311,1,80,10|2,0:0|0:0,0:0:0:0:
263,342,82570,6,0,L|276:264,1,80,2|0,0:0|0:0,0:0:0:0:
97,211,82986,1,10,0:0:0:0:
117,369,83195,1,2,0:0:0:0:
253,173,83403,6,0,L|266:95,1,80,2|0,0:0|0:0,0:0:0:0:
133,40,83820,1,10,0:0:0:0:
404,149,84028,1,2,0:0:0:0:
63,158,84236,5,2,0:0:0:0:
468,49,84653,1,10,0:0:0:0:
263,342,85070,5,2,0:0:0:0:
229,218,85279,1,2,0:0:0:0:
353,185,85487,1,10,0:0:0:0:
386,308,85695,1,2,0:0:0:0:
201,292,85903,5,2,0:0:0:0:
413,234,86112,1,2,0:0:0:0:
336,368,86320,1,10,0:0:0:0:
279,156,86528,1,2,0:0:0:0:
309,264,86736,5,2,0:0:0:0:
158,163,86945,2,0,L|163:124,2,40,2|2|10,0:0|0:0|0:0,0:0:0:0:
77,339,87361,2,0,L|72:378,2,40,2|2|2,0:0|0:0|0:0,0:0:0:0:
24,237,87778,1,2,0:0:0:0:
186,338,87986,1,10,0:0:0:0:
158,163,88195,1,2,0:0:0:0:
158,163,88299,1,0,0:0:0:0:
158,163,88403,6,0,L|145:85,1,80,4|2,0:2|0:0,0:0:0:0:
284,190,88820,1,10,0:0:0:0:
74,225,89028,2,0,L|46:68,1,160,2|2,0:0|0:0,0:0:0:0:
45,67,89653,1,0,0:0:0:0:
230,33,89861,2,0,L|243:111,1,80,2|0,0:0|0:0,0:0:0:0:
133,22,90278,1,2,0:0:0:0:
329,44,90486,1,10,0:0:0:0:
158,163,90695,6,0,L|171:241,1,80,2|0,0:0|0:0,0:0:0:0:
187,328,91111,1,2,0:0:0:0:
187,328,91320,1,10,0:0:0:0:
187,328,91528,1,2,0:0:0:0:
346,255,91736,6,0,L|359:333,1,80,2|2,0:0|0:0,0:0:0:0:
419,199,92153,1,10,0:0:0:0:
255,217,92361,2,0,L|283:374,1,160,2|2,0:0|0:0,0:0:0:0:
283,374,92986,1,10,0:0:0:0:
74,371,93195,2,0,L|61:293,1,80,2|0,0:0|0:0,0:0:0:0:
176,327,93611,1,2,0:0:0:0:
45,216,93820,1,10,0:0:0:0:
145,155,94028,6,0,L|158:233,1,80,2|0,0:0|0:0,0:0:0:0:
29,130,94445,1,2,0:0:0:0:
29,130,94549,1,0,0:0:0:0:
29,130,94653,1,10,0:0:0:0:
263,173,94861,1,2,0:0:0:0:
263,173,94965,1,0,0:0:0:0:
263,173,95070,6,0,L|276:251,1,80,2|2,0:0|0:0,0:0:0:0:
293,329,95486,1,10,0:0:0:0:
157,272,95695,2,0,L|170:350,1,80,2|0,0:0|0:0,0:0:0:0:
362,220,96111,2,0,L|349:142,1,80,2|8,0:0|0:0,0:0:0:0:
152,91,96528,2,0,L|165:169,1,80,2|0,0:0|0:0,0:0:0:0:
264,97,96945,5,2,0:0:0:0:
44,74,97153,1,10,0:0:0:0:
165,169,97361,2,0,L|178:247,1,80,2|0,0:0|0:0,0:0:0:0:
201,367,97778,2,0,L|194:327,1,40,2|0,0:0|0:0,0:0:0:0:
119,347,97986,2,0,L|112:307,1,40,10|0,0:0|0:0,0:0:0:0:
35,330,98195,2,0,L|28:290,1,40,2|0,0:0|0:0,0:0:0:0:
13,208,98403,5,2,0:0:0:0:
89,141,98611,1,2,0:0:0:0:
173,198,98820,1,10,0:0:0:0:
249,131,99028,1,2,0:0:0:0:
339,184,99236,5,8,0:0:0:0:
342,203,99340,1,8,0:0:0:0:
346,223,99444,1,8,0:0:0:0:
349,243,99548,1,8,0:0:0:0:
353,262,99652,1,8,0:0:0:0:
356,282,99756,1,8,0:0:0:0:
360,302,99861,1,8,0:0:0:0:
448,282,100278,5,2,0:0:0:0:
262,281,100486,2,0,L|275:359,1,80,0|0,0:0|0:0,0:0:0:0:
360,302,100903,5,2,0:0:0:0:
174,301,101111,2,0,L|187:379,1,80,0|0,0:0|0:0,0:0:0:0:
275,163,101528,6,0,L|253:38,1,120,4|0,0:2|0:0,0:0:0:0:
250,23,101945,1,2,0:0:0:0:
138,201,102153,1,2,0:0:0:0:
428,175,102361,1,2,0:0:0:0:
