osu file format v14

[General]
AudioFilename: audio.mp3
AudioLeadIn: 0
PreviewTime: 60903
Countdown: 0
SampleSet: Normal
StackLeniency: 0.7
Mode: 0
LetterboxInBreaks: 0
WidescreenStoryboard: 1

[Editor]
DistanceSpacing: 0.65
BeatDivisor: 6
GridSize: 4
TimelineZoom: 1

[Metadata]
Title:Koi Kou Enishi
TitleUnicode:恋ひ恋ふ縁
Artist:KOTOKO
ArtistUnicode:KOTOKO
Creator:Crystal
Version:Murasame Extra
Source:千恋*万花
Tags:Senren Banka yuzusoft opening sahuang [Crz]Sword ak74 yf_bmp Sword
BeatmapID:1355245
BeatmapSetID:622780

[Difficulty]
HPDrainRate:6
CircleSize:5
OverallDifficulty:7.7
ApproachRate:9
SliderMultiplier:1.6
SliderTickRate:1

[Events]
//Background and Video events
0,0,"bg.jpg",0,0
//Break Periods
//Storyboard Layer 0 (Background)
//Storyboard Layer 1 (Fail)
//Storyboard Layer 2 (Pass)
//Storyboard Layer 3 (Foreground)
//Storyboard Sound Samples

[TimingPoints]
70,416.666666666667,4,1,10,40,1,0
1736,-133.333333333333,4,1,10,40,0,0
6320,-100,4,1,10,50,0,0
6528,-133.333333333333,4,1,10,50,0,0
6736,-100,4,1,10,60,0,0
9028,-66.6666666666667,4,1,10,60,0,0
9445,-100,4,1,10,60,0,0
12361,-66.6666666666667,4,1,10,60,0,0
13403,-100,4,1,10,60,0,0
15695,-66.6666666666667,4,1,10,60,0,0
16736,-100,4,1,10,60,0,0
19028,-66.6666666666667,4,1,10,60,0,0
20070,-100,4,1,10,60,0,0
32986,-66.6666666666667,4,1,10,60,0,0
33403,-100,4,1,10,60,0,0
41111,-200,4,1,10,60,0,0
41528,-66.6666666666667,4,1,10,60,0,0
41945,-133.333333333333,4,1,10,60,0,0
42361,-200,4,1,10,60,0,0
42778,-100,4,1,10,60,0,0
46111,-133.333333333333,4,1,10,60,0,0
46632,-133.333333333333,4,2,10,10,0,0
46736,-125,4,2,10,50,0,0
49653,-66.6666666666667,4,2,10,50,0,0
50070,-125,4,2,10,50,0,0
52986,-66.6666666666667,4,2,10,50,0,0
53403,-125,4,2,10,50,0,0
56320,-66.6666666666667,4,2,10,40,0,0
56736,-133.333333333333,4,2,10,50,0,0
57153,-111.111111111111,4,2,10,50,0,0
57570,-95.2380952380952,4,2,10,50,0,0
57986,-83.3333333333333,4,2,10,50,0,0
59653,-200,4,2,10,50,0,0
60070,-100,4,2,10,45,0,0
61111,-50,4,1,10,50,0,0
61320,-149.253731343284,4,1,10,50,0,0
61736,-66.6666666666667,4,1,10,80,0,1
68403,-80,4,1,10,80,0,1
75070,-66.6666666666667,4,1,10,80,0,1
81736,-100,4,1,10,80,0,1
82570,-86.9565217391304,4,1,10,80,0,1
83403,-76.9230769230769,4,1,10,80,0,1
84236,-58.8235294117647,4,1,10,80,0,1
88403,-100,4,1,10,70,0,0
90695,-66.6666666666667,4,1,10,70,0,0
91111,-100,4,1,10,70,0,0
94028,-66.6666666666667,4,1,10,70,0,0
95070,-100,4,1,10,70,0,0
97361,-66.6666666666667,4,1,10,70,0,0
98403,-100,4,1,10,70,0,0
99861,-66.6666666666667,4,1,10,70,0,0
100278,-133.333333333333,4,1,10,30,0,0
101528,-66.6666666666667,4,1,10,60,0,0

[Colours]
Combo1 : 255,128,255
Combo2 : 128,255,128
Combo3 : 255,128,0
Combo4 : 128,0,255

[HitObjects]
48,28,1736,5,0,0:0:0:0:
36,92,1945,1,2,0:2:0:0:
88,132,2153,1,0,0:0:0:0:
100,68,2362,1,2,0:2:0:0:
424,248,2778,5,0,0:0:0:0:
412,312,2987,1,2,0:2:0:0:
464,352,3195,1,0,0:0:0:0:
476,288,3403,5,4,0:2:0:0:
348,332,3611,1,2,0:2:0:0:
164,332,3820,1,2,0:2:0:0:
36,288,4028,1,2,0:2:0:0:
100,312,4445,5,2,0:2:0:0:
104,300,4514,1,0,0:0:0:0:
80,236,4653,1,0,0:0:0:0:
36,288,4861,1,0,0:0:0:0:
164,332,5070,6,0,P|200:332|224:312,1,60.0000022888184,0|0,3:0|3:0,0:0:0:0:
270,274,5382,2,0,L|276:288,1,15.0000005722046
264,260,5486,2,0,L|228:244,1,30.0000011444092,0|0,0:0|2:0,0:0:0:0:
188,196,5695,2,0,L|192:156,1,30.0000011444092,0|8,0:0|2:1,0:0:0:0:
206,17,5903,5,8,0:1:0:0:
206,17,6007,1,8,0:1:0:0:
198,100,6111,2,0,L|200:72,2,15.0000005722046,2|2|2,0:3|2:3|0:3,0:0:0:0:
130,92,6320,5,8,0:2:0:0:
266,108,6424,1,8,0:2:0:0:
191,166,6528,6,0,P|168:184|144:184,1,45.0000017166138,0|0,0:0|2:0,0:0:0:0:
136,180,6736,5,6,0:0:0:0:
136,24,6945,1,0,0:0:0:0:
264,108,7153,1,8,2:2:0:0:
136,180,7361,2,0,B|105:164|77:184|81:196|53:216|25:202,1,120,2|0,0:0|2:0,0:0:0:0:
12,192,7778,5,2,0:3:0:0:
136,180,7986,1,8,2:2:0:0:
111,308,8195,2,0,P|70:349|11:352,1,120,2|0,0:2|2:0,0:0:0:0:
0,340,8611,5,2,1:1:0:0:
152,248,8820,1,8,2:0:0:0:
284,352,9028,2,0,P|188:368|116:320,1,180.000006866455,2|0,0:0|2:0,0:0:0:0:
111,308,9445,5,2,0:0:0:0:
308,288,9653,1,8,2:2:0:0:
504,268,9861,2,0,L|512:228,1,40,0|0,0:0|2:0,0:0:0:0:
376,180,10070,5,6,0:0:0:0:
376,24,10279,1,0,0:0:0:0:
248,108,10487,1,8,2:2:0:0:
376,180,10695,2,0,B|406:164|434:184|430:196|458:216|486:202,1,120,2|0,0:0|2:0,0:0:0:0:
500,192,11112,5,2,0:3:0:0:
376,180,11320,1,8,2:2:0:0:
400,308,11529,2,0,P|441:349|500:352,1,120,2|0,0:3|2:0,0:0:0:0:
512,340,11945,5,2,1:1:0:0:
360,248,12154,1,8,2:0:0:0:
228,352,12362,2,0,P|324:368|396:320,1,180.000006866455,2|0,0:0|2:0,0:0:0:0:
400,307,12778,6,0,P|374:293|345:293,1,60.0000022888184
80,344,12986,1,10,2:0:0:0:
110,371,13090,1,8,0:1:0:0:
154,383,13195,1,2,0:2:0:0:
195,378,13299,1,8,2:1:0:0:
228,352,13403,5,4,2:0:0:0:
110,371,13611,1,2,0:3:0:0:
16,296,13820,1,8,0:2:0:0:
0,176,14028,6,0,L|12:48,1,120,2|0,0:0|2:0,0:0:0:0:
13,39,14445,5,2,0:3:0:0:
0,176,14653,1,8,2:2:0:0:
132,148,14862,2,0,P|173:107|176:48,1,120,2|0,0:3|2:0,0:0:0:0:
164,36,15278,5,2,1:1:0:0:
72,188,15487,1,8,2:0:0:0:
176,320,15695,2,0,P|192:224|144:152,1,180.000006866455,2|0,0:0|2:0,0:0:0:0:
132,148,16111,5,2,0:0:0:0:
120,368,16320,1,8,0:2:0:0:
268,288,16528,1,8,2:1:0:0:
276,320,16632,1,8,2:1:0:0:
284,352,16736,5,2,2:1:0:0:
402,371,16944,1,2,0:3:0:0:
496,296,17153,1,8,0:2:0:0:
512,176,17361,6,0,L|500:48,1,120,2|0,0:0|2:0,0:0:0:0:
499,39,17778,5,2,0:3:0:0:
512,176,17986,1,8,2:2:0:0:
380,148,18195,2,0,P|339:107|336:48,1,120,2|0,0:3|2:0,0:0:0:0:
348,36,18611,5,2,1:1:0:0:
440,188,18820,1,8,2:0:0:0:
336,320,19028,6,0,P|320:224|368:152,1,180.000006866455,2|0,0:2|2:0,0:0:0:0:
380,148,19444,5,2,0:2:0:0:
276,364,19653,1,8,0:2:0:0:
236,364,19757,1,8,2:0:0:0:
256,296,19861,5,8,2:0:0:0:
256,280,19965,1,8,2:0:0:0:
256,264,20069,5,12,3:1:0:0:
256,192,20278,1,8,2:1:0:0:
168,336,20486,1,8,2:0:0:0:
112,292,20695,2,0,L|8:276,1,80,8|0,2:1|3:0,0:0:0:0:
104,360,21112,5,2,2:3:0:0:
192,228,21320,1,8,2:0:0:0:
116,108,21528,1,8,2:1:0:0:
96,108,21632,1,8,2:1:0:0:
80,120,21736,5,0,3:0:0:0:
120,180,21945,1,8,2:1:0:0:
256,136,22153,2,0,L|276:36,1,80,8|8,2:0|2:1,0:0:0:0:
108,40,22570,5,0,3:0:0:0:
120,180,22778,1,8,2:1:0:0:
256,136,22986,5,8,2:0:0:0:
271,57,23195,1,8,2:1:0:0:
320,228,23403,6,0,L|332:272,2,40,0|8|8,3:0|2:1|2:1,2:0:0:0:
364,380,23820,2,0,L|390:304,1,80,8|8,2:2|2:1,0:0:0:0:
402,268,24132,1,8,2:1:0:0:
414,232,24236,5,0,3:1:0:0:
98,152,24445,5,2,0:3:0:0:
120,216,24549,1,2,0:3:0:0:
140,280,24653,1,8,2:0:0:0:
140,280,24861,6,0,L|152:242,1,40,8|8,2:1|2:1,0:0:0:0:
228,120,25070,5,2,3:2:0:0:
164,136,25174,1,2,0:3:0:0:
120,84,25278,1,2,0:3:0:0:
56,100,25382,1,2,0:3:0:0:
98,152,25486,1,8,2:2:0:0:
98,152,25695,6,0,L|85:189,1,40,0|0,0:1|2:1,0:0:0:0:
60,256,25903,5,0,0:0:0:0:
176,384,26111,1,2,0:3:0:0:
336,384,26320,1,8,2:0:0:0:
452,256,26528,1,8,2:0:0:0:
256,120,26736,5,12,3:1:0:0:
256,192,26945,1,8,2:1:0:0:
344,48,27153,1,8,2:0:0:0:
400,92,27362,2,0,L|504:108,1,80,8|0,2:1|3:0,0:0:0:0:
408,24,27779,5,2,2:3:0:0:
320,156,27987,1,8,2:0:0:0:
396,276,28195,1,8,2:1:0:0:
416,276,28299,1,8,2:1:0:0:
432,264,28403,5,0,3:0:0:0:
392,204,28612,1,8,2:1:0:0:
256,248,28820,2,0,L|236:348,1,80,8|8,2:0|2:1,0:0:0:0:
404,344,29237,5,0,3:0:0:0:
392,204,29445,1,8,2:1:0:0:
256,248,29653,5,8,2:0:0:0:
241,327,29862,1,8,2:1:0:0:
28,320,30070,6,0,B|95:321|95:321|183:277,1,160,0|8,3:0|2:0,0:0:0:0:
104,192,30695,5,8,0:0:0:0:
136,172,30799,1,2,0:3:0:0:
172,188,30903,1,2,3:3:0:0:
204,168,31007,1,2,0:3:0:0:
240,184,31111,1,8,0:0:0:0:
104,192,31320,5,8,2:2:0:0:
172,188,31424,1,2,0:3:0:0:
240,184,31528,1,8,2:1:0:0:
264,216,31632,1,8,2:1:0:0:
256,256,31736,5,0,3:1:0:0:
176,316,31945,1,8,1:1:0:0:
64,276,32153,1,8,1:2:0:0:
28,144,32361,1,8,1:1:0:0:
140,48,32570,1,8,0:1:0:0:
232,80,32778,1,2,0:3:0:0:
276,160,32986,6,0,P|325:191|382:178,1,120.000004577637,4|8,0:2|2:2,0:0:0:0:
448,192,33299,1,8,2:0:0:0:
404,244,33403,5,4,0:0:0:0:
328,354,33611,1,2,0:3:0:0:
472,268,33820,5,8,2:0:0:0:
347,287,34028,1,2,0:3:0:0:
510,326,34236,5,0,0:0:0:0:
404,244,34445,1,2,0:3:0:0:
256,384,34653,1,8,2:0:0:0:
196,344,34861,1,8,2:1:0:0:
160,348,34965,1,8,2:1:0:0:
124,352,35070,5,0,3:0:0:0:
20,384,35278,1,0,0:0:0:0:
156,208,35486,5,8,2:0:0:0:
316,344,35695,1,2,0:3:0:0:
196,344,35903,5,2,0:3:0:0:
356,208,36112,1,8,2:1:0:0:
492,384,36320,5,8,2:0:0:0:
256,384,36528,1,8,2:1:0:0:
108,140,36736,5,4,0:0:0:0:
184,30,36944,1,2,0:3:0:0:
40,116,37153,5,8,2:0:0:0:
165,97,37361,1,2,0:3:0:0:
2,58,37569,5,0,0:0:0:0:
108,140,37778,1,2,0:3:0:0:
256,0,37986,1,8,2:0:0:0:
316,40,38194,1,8,2:1:0:0:
352,36,38298,1,8,2:1:0:0:
388,32,38403,5,0,3:0:0:0:
168,176,38611,1,2,2:3:0:0:
316,40,38819,5,8,2:0:0:0:
344,176,39028,1,8,2:1:0:0:
124,32,39236,5,0,3:0:0:0:
256,0,39445,1,2,0:3:0:0:
256,216,39653,5,4,2:0:0:0:
256,288,39861,1,8,3:1:0:0:
256,324,39965,1,8,2:2:0:0:
256,360,40070,5,4,0:0:0:0:
104,212,40278,1,8,2:1:0:0:
256,360,40486,5,8,2:2:0:0:
408,128,40694,1,4,2:0:0:0:
408,128,41111,2,0,P|376:140|352:132,1,60,4|0,2:0|2:0,0:0:0:0:
296,88,41528,6,0,P|379:114|460:79,1,180.000006866455,4|0,2:0|2:0,0:0:0:0:
508,24,41945,1,2,1:2:0:0:
408,128,42153,1,8,2:0:0:0:
269,16,42361,6,0,P|273:55|296:88,1,80,4|0,2:2|3:0,0:0:0:0:
276,236,42986,5,8,2:2:0:0:
236,148,43195,1,0,0:3:0:0:
308,168,43403,5,4,0:2:0:0:
204,216,43611,1,8,0:1:0:0:
352,232,43820,5,0,3:0:0:0:
160,152,44028,1,8,0:1:0:0:
384,164,44236,5,0,3:0:0:0:
128,220,44445,1,8,0:1:0:0:
276,236,44653,5,0,3:0:0:0:
236,148,44861,1,8,1:1:0:0:
256,192,44965,1,8,2:1:0:0:
276,236,45070,5,0,3:0:0:0:
388,68,45278,1,2,0:3:0:0:
192,36,45486,1,8,3:2:0:0:
60,188,45695,1,0,3:0:0:0:
52,224,45799,1,0,3:0:0:0:
64,260,45903,1,0,3:0:0:0:
239,371,46111,6,0,P|312:383|376:347,1,150.000005722046,4|0,2:0|0:0,0:0:0:0:
388,328,46736,6,0,B|392:288|392:288|424:264|424:264|428:216,1,128,6|8,3:2|0:1,0:0:0:0:
432,144,47361,1,0,3:0:0:0:
492,184,47570,1,0,3:0:0:0:
20,200,47986,1,8,2:0:0:0:
20,200,48403,5,2,3:2:0:0:
88,208,48611,1,0,0:0:0:0:
64,140,48820,1,8,2:1:0:0:
132,148,49028,1,0,3:0:0:0:
108,80,49236,5,0,3:0:0:0:
120,12,49445,1,8,0:1:0:0:
256,68,49653,6,0,L|327:61,3,60.0000022888184,8|8|0|0,0:2|0:1|0:1|0:1,0:0:0:0:
388,56,50070,6,0,B|392:96|392:96|424:120|424:120|428:168,1,128,2|8,3:2|0:1,0:0:0:0:
432,240,50695,1,0,3:0:0:0:
368,212,50903,2,0,L|300:212,1,64,2|0,3:2|0:0,0:0:0:0:
48,116,51320,1,8,2:0:0:0:
48,116,51528,1,0,0:0:0:0:
20,184,51737,5,2,3:2:0:0:
88,176,51945,1,0,0:0:0:0:
64,244,52154,1,8,2:1:0:0:
132,236,52362,1,2,3:2:0:0:
120,372,52570,5,2,3:2:0:0:
108,304,52779,1,8,2:1:0:0:
256,316,52986,6,0,L|327:323,3,60.0000022888184,8|8|0|0,0:2|0:1|0:1|0:1,0:0:0:0:
296,248,53403,6,0,B|256:252|256:252|232:284|232:284|184:288,1,128,6|8,3:2|0:1,0:0:0:0:
132,236,54028,1,0,3:0:0:0:
368,268,54236,2,0,L|452:276,1,64,0|0,3:0|0:0,0:0:0:0:
492,232,54653,1,8,0:0:0:0:
368,268,54861,1,2,0:0:0:0:
424,156,55070,5,2,3:2:0:0:
458,91,55278,1,0,0:0:0:0:
407,39,55486,1,8,0:1:0:0:
341,72,55695,1,0,3:0:0:0:
351,143,55903,5,0,3:0:0:0:
458,91,56111,1,8,2:1:0:0:
344,0,56320,6,0,B|288:5|288:5|254:50|254:50|187:55,1,180.000006866455,6|0,3:2|0:0,0:0:0:0:
132,104,56736,6,0,P|151:123|220:124,1,90.0000034332277,0|0,3:0|0:0,0:0:0:0:
228,120,57153,6,0,P|201:128|161:194,1,107.999996704102,4|0,2:2|0:0,0:0:0:0:
164,212,57570,6,0,P|187:235|274:237,1,125.999996154785,0|0,3:0|0:0,0:0:0:0:
292,224,57986,6,0,P|254:233|203:319,1,143.999995605469,4|0,2:2|0:0,0:0:0:0:
220,384,58403,5,2,3:2:0:0:
292,384,58820,5,10,0:0:0:0:
220,384,59028,1,0,3:1:0:0:
256,276,59236,5,2,3:2:0:0:
256,204,59653,6,0,B|248:172|264:180|256:140,1,60,8|0,0:2|2:0,0:0:0:0:
256,128,60070,5,8,1:1:0:0:
336,68,60279,1,2,1:3:0:0:
448,108,60487,1,0,1:2:0:0:
484,240,60695,1,2,1:2:0:0:
372,336,60904,1,2,1:2:0:0:
216,288,61111,6,0,P|184:264|128:276,1,80,4|0,2:0|2:0,2:0:0:0:
108,332,61320,6,0,P|76:356|20:344,1,80.3999961968996,4|0,2:0|2:0,2:0:0:0:
0,288,61737,6,0,L|8:116,1,120.000004577637,4|0,3:1|0:0,0:0:0:0:
80,8,62153,1,8,2:2:0:0:
88,72,62257,1,8,2:1:0:0:
84,4,62362,1,8,2:1:0:0:
8,164,62570,5,0,3:0:0:0:
168,40,62778,1,2,1:3:0:0:
160,120,62882,1,2,1:3:0:0:
172,36,62987,1,8,2:2:0:0:
104,216,63195,5,8,2:1:0:0:
112,280,63299,1,8,2:1:0:0:
120,344,63403,2,0,P|152:358|188:348,1,60.0000022888184,0|0,3:0|2:3,0:0:0:0:
216,300,63611,6,0,P|266:269|311:280,1,90.0000034332277,8|0,1:0|2:3,0:0:0:0:
300,284,63820,6,0,P|350:314|396:304,1,90.0000034332277,8|0,3:2|2:3,0:0:0:0:
392,304,64028,6,0,P|422:254|412:208,1,90.0000034332277,2|0,1:3|2:3,0:0:0:0:
412,216,64236,6,0,P|382:166|392:120,1,90.0000034332277,0|0,3:3|2:3,0:0:0:0:
392,124,64445,5,8,1:1:0:0:
512,233,64653,2,0,P|465:306|379:310,1,180.000006866455,8|0,2:2|2:0,0:0:0:0:
316,276,65070,1,4,0:2:0:0:
256,160,65278,5,8,1:1:0:0:
256,172,65382,1,8,2:1:0:0:
256,184,65486,1,8,2:2:0:0:
120,124,65695,5,8,1:0:0:0:
0,233,65903,2,0,P|46:306|132:310,1,180.000006866455,2|0,1:2|2:0,0:0:0:0:
196,276,66320,1,8,2:0:0:0:
256,376,66528,1,8,1:0:0:0:
256,160,66736,5,0,0:0:0:0:
192,348,66945,1,8,0:0:0:0:
0,308,67153,5,12,2:0:0:0:
36,300,67257,1,8,2:1:0:0:
72,316,67361,1,0,1:0:0:0:
116,376,67570,1,4,0:2:0:0:
288,380,67778,6,0,L|300:252,1,120.000004577637,8|6,1:2|2:2,0:0:0:0:
220,8,68195,1,8,3:1:0:0:
264,60,68299,1,8,3:1:0:0:
330,79,68403,6,0,P|401:63|442:2,1,150,4|0,0:0|2:0,0:0:0:0:
456,104,68820,2,0,L|464:224,1,100,8|8,2:0|0:1,0:0:0:0:
477,383,69236,1,0,0:0:0:0:
468,268,69444,5,8,0:1:0:0:
440,328,69548,1,2,0:3:0:0:
504,323,69653,1,8,2:2:0:0:
348,316,69861,5,8,0:1:0:0:
376,336,69965,1,8,2:1:0:0:
380,300,70069,1,4,3:2:0:0:
296,264,70277,5,0,2:0:0:0:
208,352,70486,1,8,2:0:0:0:
324,384,70694,1,8,0:0:0:0:
160,296,70903,6,0,P|143:314|135:337,1,50,2|0,1:2|2:0,0:0:0:0:
276,332,71111,1,0,0:2:0:0:
252,200,71319,2,0,B|252:116|194:159|194:70,1,150,8|0,2:2|2:0,0:0:0:0:
200,52,71736,5,4,1:1:0:0:
101,66,71945,1,2,1:3:0:0:
44,184,72153,1,8,3:2:0:0:
117,292,72361,1,8,1:0:0:0:
265,281,72570,1,2,3:2:0:0:
341,136,72778,6,0,P|331:100|304:60,1,50,0|8,0:0|2:1,0:0:0:0:
408,96,72986,2,0,L|420:32,1,50,8|8,3:2|2:1,0:0:0:0:
448,164,73195,2,0,P|470:134|511:108,1,50,0|0,0:0|2:1,0:0:0:0:
484,268,73403,5,2,0:3:0:0:
468,280,73507,1,8,2:1:0:0:
480,312,73611,5,2,0:3:0:0:
456,316,73715,1,8,0:1:0:0:
464,352,73820,5,8,1:2:0:0:
436,340,73924,1,8,0:1:0:0:
432,376,74028,5,2,0:3:0:0:
404,352,74132,1,0,0:1:0:0:
368,360,74236,6,0,L|312:368,1,50,2|0,0:3|2:0,0:0:0:0:
252,264,74445,5,0,0:0:0:0:
247,199,74549,1,2,0:3:0:0:
291,146,74653,5,4,3:2:0:0:
357,150,74757,1,2,3:3:0:0:
423,155,74861,5,8,2:2:0:0:
445,93,74965,1,8,2:2:0:0:
512,96,75070,6,0,L|504:268,1,120.000004577637,4|8,3:1|2:1,0:0:0:0:
432,376,75486,5,8,2:2:0:0:
424,312,75590,1,8,2:1:0:0:
428,380,75695,1,8,2:1:0:0:
504,220,75903,5,0,3:0:0:0:
344,344,76111,1,2,1:3:0:0:
352,264,76215,1,2,1:3:0:0:
340,348,76320,2,0,P|328:328|331:287,1,60.0000022888184,8|8,1:2|2:1,0:0:0:0:
408,164,76528,5,8,2:1:0:0:
420,100,76632,1,8,2:1:0:0:
392,40,76736,2,0,P|360:26|324:36,1,60.0000022888184,0|0,3:0|2:3,0:0:0:0:
296,84,76944,6,0,P|246:115|201:104,1,90.0000034332277,8|0,1:0|2:3,0:0:0:0:
212,100,77153,6,0,P|162:70|116:80,1,90.0000034332277,8|0,3:2|2:3,0:0:0:0:
120,80,77361,6,0,P|90:130|100:176,1,90.0000034332277,2|0,1:3|2:3,0:0:0:0:
100,168,77569,6,0,P|130:218|120:264,1,90.0000034332277,0|0,3:3|2:3,0:0:0:0:
120,260,77778,6,0,P|80:268|56:248,1,60.0000022888184,0|8,0:0|2:1,0:0:0:0:
0,150,77986,2,0,B|44:137|44:89|44:89|80:45|133:73,1,180.000006866455,8|0,2:2|2:0,0:0:0:0:
196,108,78403,1,4,0:2:0:0:
256,224,78611,5,8,1:1:0:0:
256,212,78715,1,8,2:1:0:0:
256,200,78819,1,8,2:2:0:0:
392,260,79028,5,8,1:0:0:0:
512,150,79236,2,0,B|468:137|468:89|468:89|432:45|379:73,1,180.000006866455,2|0,1:2|2:0,0:0:0:0:
316,108,79653,1,8,2:0:0:0:
256,0,79861,1,8,1:0:0:0:
256,224,80070,5,0,0:0:0:0:
192,40,80279,1,8,0:0:0:0:
4,76,80486,6,0,L|12:8,2,60.0000022888184,12|8|8,2:0|2:1|2:1,0:0:0:0:
48,132,80799,1,8,2:1:0:0:
112,232,80903,6,0,L|104:164,1,60.0000022888184,12|8,2:0|2:1,0:0:0:0:
184,228,81111,2,0,L|176:160,1,60.0000022888184,8|8,0:2|2:1,0:0:0:0:
256,224,81320,5,8,2:2:0:0:
317,194,81424,1,2,2:2:0:0:
382,207,81528,1,2,2:2:0:0:
428,255,81632,1,2,2:0:0:0:
439,319,81736,6,0,B|390:324|390:324|360:364|360:364|301:368,1,160,4|8,3:1|1:2,0:0:0:0:
320,292,82361,1,8,1:1:0:0:
84,256,82570,6,0,B|141:261|141:261|175:306|175:306|243:312,1,184.000003509522,0|8,3:2|1:2,0:0:0:0:
228,220,83195,1,8,1:1:0:0:
496,188,83403,6,0,B|431:193|431:193|392:245|392:245|314:251,1,207.999990478516,0|8,3:2|1:2,0:0:0:0:
332,147,84028,1,8,1:1:0:0:
60,124,84236,6,0,B|123:129|123:129|161:180|161:180|237:186,1,204.000003890991,0|0,3:2|2:2,0:0:0:0:
332,147,84653,1,8,0:2:0:0:
124,32,84861,1,8,2:1:0:0:
124,32,84965,1,8,2:1:0:0:
124,32,85070,5,4,3:2:0:0:
20,0,85278,1,8,0:1:0:0:
156,176,85486,5,8,0:2:0:0:
316,40,85695,1,8,1:1:0:0:
196,40,85903,5,0,3:3:0:0:
356,176,86112,1,8,1:1:0:0:
492,0,86320,5,8,1:2:0:0:
256,0,86528,1,8,1:1:0:0:
256,296,86736,5,4,1:2:0:0:
320,236,86945,5,4,0:2:0:0:
256,212,87049,1,2,0:3:0:0:
192,236,87153,1,0,3:0:0:0:
212,148,87361,5,8,0:0:0:0:
256,136,87465,1,2,0:3:0:0:
300,148,87570,1,0,3:0:0:0:
288,80,87778,5,8,0:0:0:0:
224,80,87882,1,2,0:3:0:0:
256,64,87986,5,0,3:0:0:0:
256,136,88090,1,2,0:3:0:0:
256,212,88195,1,2,0:3:0:0:
256,296,88299,1,2,0:3:0:0:
256,384,88403,6,0,L|308:384,1,40,6|0,3:1|2:0,0:0:0:0:
360,360,88611,2,0,L|412:360,1,40,8|8,2:1|2:1,0:0:0:0:
464,332,88820,1,8,2:2:0:0:
376,204,89028,6,0,B|407:220|435:200|431:188|459:168|487:182,1,120,2|0,0:0|2:0,0:0:0:0:
500,192,89445,2,0,P|512:216|512:236,1,40,2|8,1:3|2:1,0:0:0:0:
376,204,89653,1,8,2:2:0:0:
401,76,89862,6,0,P|442:35|501:32,1,120,2|0,0:2|2:0,0:0:0:0:
512,44,90278,2,0,L|504:92,1,40,2|8,0:3|2:1,0:0:0:0:
360,136,90487,1,8,2:0:0:0:
228,32,90695,6,0,P|324:16|396:64,1,180.000006866455,2|0,0:0|2:0,0:0:0:0:
401,76,91111,6,0,L|393:116,1,40,2|8,0:1|2:1,0:0:0:0:
204,96,91320,2,0,L|144:104,1,40,8|8,2:0|2:1,0:0:0:0:
8,116,91528,2,0,L|0:76,1,40,0|8,0:0|2:1,0:0:0:0:
136,204,91736,6,0,L|136:260,1,40,6|0,0:1|2:0,0:0:0:0:
136,360,91945,2,0,L|184:328,1,40,2|0,0:3|2:0,0:0:0:0:
264,276,92154,1,8,2:2:0:0:
136,204,92362,6,0,B|106:220|78:200|82:188|54:168|26:182,1,120,2|0,0:0|2:0,0:0:0:0:
12,192,92778,2,0,P|0:216|0:236,1,40,2|8,1:3|2:1,0:0:0:0:
136,204,92987,1,8,2:2:0:0:
112,76,93196,6,0,P|71:35|12:32,1,120,2|0,0:3|2:0,0:0:0:0:
0,44,93611,2,0,L|8:92,1,40,2|8,0:1|2:1,0:0:0:0:
152,136,93821,1,8,2:0:0:0:
284,32,94029,6,0,P|188:16|116:64,1,180.000006866455,2|0,0:0|2:0,0:0:0:0:
112,77,94445,6,0,P|138:91|167:91,1,60.0000022888184,2|0,0:3|2:0,0:0:0:0:
432,40,94653,1,10,2:0:0:0:
402,13,94757,1,8,0:1:0:0:
358,1,94861,1,2,2:0:0:0:
317,6,94966,1,8,2:1:0:0:
284,32,95070,6,0,L|240:36,1,40,4|0,2:0|2:0,0:0:0:0:
402,13,95278,2,0,L|392:60,1,40,2|0,0:3|2:0,0:0:0:0:
496,88,95487,1,8,0:2:0:0:
512,208,95695,6,0,L|500:336,1,120,2|0,0:0|2:0,0:0:0:0:
499,345,96111,2,0,L|508:384,1,40,2|8,0:3|2:1,0:0:0:0:
512,208,96320,1,8,2:2:0:0:
380,236,96529,6,0,P|339:277|336:336,1,120,2|0,0:3|2:0,0:0:0:0:
348,348,96945,2,0,P|363:361|396:364,1,40,2|8,0:0|2:1,0:0:0:0:
440,196,97154,1,8,2:0:0:0:
336,64,97362,6,0,P|320:160|368:232,1,180.000006866455,2|0,0:0|2:0,0:0:0:0:
380,236,97778,2,0,P|396:208|396:172,1,60.0000022888184,2|8,0:1|2:1,0:0:0:0:
392,16,97987,1,8,0:2:0:0:
244,96,98195,1,8,2:1:0:0:
236,64,98299,1,8,2:1:0:0:
228,32,98403,6,0,L|272:36,1,40,4|0,2:0|2:0,0:0:0:0:
110,13,98611,2,0,L|120:60,1,40,2|0,0:3|2:0,0:0:0:0:
16,88,98820,1,8,0:2:0:0:
0,208,99028,1,2,0:0:0:0:
56,320,99236,5,8,3:0:0:0:
168,312,99340,1,8,3:3:0:0:
80,332,99444,5,8,3:0:0:0:
140,296,99548,1,4,3:0:0:0:
109,335,99652,5,4,3:0:0:0:
112,292,99756,1,0,3:0:0:0:
160,376,99861,6,0,L|200:384,1,30.0000011444092,2|0,3:2|2:0,0:0:0:0:
189,381,100278,6,0,L|209:341,1,30.0000011444092,0|0,3:0|2:0,0:0:0:0:
323,381,100486,2,0,L|303:341,1,30.0000011444092,0|0,1:0|2:0,0:0:0:0:
180,284,100695,6,0,P|204:284|228:268,1,30.0000011444092,0|0,0:0|2:0,0:0:0:0:
332,284,100903,2,0,P|308:284|284:268,1,30.0000011444092,0|0,0:0|2:0,0:0:0:0:
164,200,101111,6,0,P|177:213|192:216,1,30.0000011444092,0|0,0:0|2:0,0:0:0:0:
348,200,101320,2,0,P|334:213|320:216,1,30.0000011444092,2|0,0:2|2:0,0:0:0:0:
196,112,101528,6,0,B|204:152|240:164|240:164|256:180|272:164|272:164|308:152|316:112,1,180.000006866455,4|0,2:2|2:0,0:0:0:0:
356,56,101945,1,4,2:0:0:0:
156,56,102153,1,4,2:0:0:0:
256,236,102361,5,6,2:0:0:0:
