osu file format v14

[General]
AudioFilename: audio.mp3
AudioLeadIn: 0
PreviewTime: 60903
Countdown: 0
SampleSet: Normal
StackLeniency: 0.7
Mode: 0
LetterboxInBreaks: 0
WidescreenStoryboard: 1

[Editor]
DistanceSpacing: 0.4
BeatDivisor: 6
GridSize: 16
TimelineZoom: 1

[Metadata]
Title:Koi Kou Enishi
TitleUnicode:恋ひ恋ふ縁
Artist:KOTOKO
ArtistUnicode:KOTOKO
Creator:Crystal
Version:Insane
Source:千恋*万花
Tags:Senren Banka yuzusoft opening sahuang [Crz]Sword ak74 yf_bmp Sword
BeatmapID:1315459
BeatmapSetID:622780

[Difficulty]
HPDrainRate:6
CircleSize:3.8
OverallDifficulty:7.5
ApproachRate:8.4
SliderMultiplier:1.6
SliderTickRate:1

[Events]
//Background and Video events
0,0,"bg.jpg",0,0
//Break Periods
//Storyboard Layer 0 (Background)
//Storyboard Layer 1 (Fail)
//Storyboard Layer 2 (Pass)
//Storyboard Layer 3 (Foreground)
//Storyboard Sound Samples

[TimingPoints]
70,416.666666666667,4,1,1,40,1,0
1736,-133.333333333333,4,1,1,40,0,0
6320,-100,4,1,1,50,0,0
6736,-100,4,1,1,60,0,0
46111,-133.333333333333,4,1,1,60,0,0
46632,-133.333333333333,4,2,1,10,0,0
46736,-125,4,2,1,40,0,0
60070,-100,4,2,1,45,0,0
61111,-100,4,1,1,50,0,0
61736,-80,4,1,1,80,0,1
88403,-100,4,1,1,70,0,0
100278,-200,4,1,1,30,0,0
101528,-100,4,1,1,60,0,0

[Colours]
Combo1 : 255,128,255
Combo2 : 128,255,128
Combo3 : 255,128,0
Combo4 : 128,0,255

[HitObjects]
117,72,1736,6,0,P|101:108|103:150,1,60.0000022888184,2|0,0:3|0:0,0:0:0:0:
127,208,2153,1,0,0:0:0:0:
192,127,2361,2,0,P|199:166|250:231,1,120.000004577637
330,255,2986,1,0,0:0:0:0:
330,255,3195,1,0,0:0:0:0:
421,212,3403,5,2,0:3:0:0:
246,298,3611,1,0,0:0:0:0:
413,310,3820,1,0,0:0:0:0:
264,187,4028,1,0,0:0:0:0:
413,310,4445,6,0,P|432:309|444:305,1,20.0000007629395
264,187,4653,1,0,0:0:0:0:
289,374,4861,1,0,0:0:0:0:
123,251,5070,6,0,P|111:284|115:315,1,60.0000022888184
118,322,5382,1,0,0:0:0:0:
126,334,5486,1,8,0:3:0:0:
289,374,5695,1,0,0:0:0:0:
264,187,5903,6,0,P|254:209|252:229,1,30.0000011444092
220,302,6111,2,0,P|244:299|262:291,1,30.0000011444092
398,240,6320,1,8,0:3:0:0:
376,234,6424,1,0,0:0:0:0:
354,238,6528,1,0,0:0:0:0:
337,252,6632,1,0,0:0:0:0:
329,273,6736,6,0,B|357:294|357:294|422:304|488:266,1,160,6|10,0:0|0:0,0:0:0:0:
247,192,7361,2,0,P|217:227|174:348,1,160,2|2,0:0|0:0,0:0:0:0:
0,233,7986,1,10,0:0:0:0:
93,138,8195,2,0,P|104:182|103:220,1,80,2|0,0:0|0:0,0:0:0:0:
58,318,8611,5,2,0:0:0:0:
194,121,8820,1,10,0:0:0:0:
93,225,9028,2,0,P|66:187|54:152,1,80,2|0,0:0|0:0,0:0:0:0:
297,66,9445,1,2,0:0:0:0:
269,231,9653,1,10,0:0:0:0:
297,66,9861,1,2,0:0:0:0:
444,183,10070,6,0,P|391:178|343:176,1,80,2|2,0:0|0:0,0:0:0:0:
175,200,10486,1,10,0:0:0:0:
362,332,10695,2,0,B|370:285|370:285|341:225|369:162,1,160,2|2,0:0|0:0,0:0:0:0:
178,63,11320,1,10,0:0:0:0:
60,157,11528,2,0,P|42:199|50:248,1,80,2|0,0:0|0:0,0:0:0:0:
209,307,11945,5,2,0:0:0:0:
58,250,12153,1,10,0:0:0:0:
241,154,12361,2,0,P|195:162|159:195,1,80,2|0,0:0|0:0,0:0:0:0:
382,225,12778,1,2,0:0:0:0:
394,209,12882,1,0,0:0:0:0:
395,189,12986,1,10,0:0:0:0:
280,271,13195,1,2,0:0:0:0:
505,245,13403,6,0,P|469:269|440:311,1,80,2|2,0:0|0:0,0:0:0:0:
279,152,13820,1,10,0:0:0:0:
356,91,14028,2,0,P|377:167|376:247,1,160,2|2,0:0|0:0,0:0:0:0:
151,356,14653,1,10,0:0:0:0:
151,356,14861,2,0,P|193:331|230:320,1,80,2|0,0:0|0:0,0:0:0:0:
398,355,15278,5,2,0:0:0:0:
120,244,15486,1,10,0:0:0:0:
244,308,15695,2,0,P|292:314|330:310,1,80,2|0,0:0|0:0,0:0:0:0:
33,323,16111,5,2,0:0:0:0:
237,207,16320,1,10,0:0:0:0:
25,127,16528,1,2,0:0:0:0:
121,218,16736,6,0,P|122:265|137:320,1,80,2|2,0:0|0:0,0:0:0:0:
205,359,17153,1,10,0:0:0:0:
421,272,17361,2,0,P|378:263|324:264,1,80,2|0,0:0|0:0,0:0:0:0:
488,202,17778,1,2,0:0:0:0:
352,362,17986,1,10,0:0:0:0:
373,77,18195,2,0,P|383:118|385:167,1,80,2|0,0:0|0:0,0:0:0:0:
118,203,18611,5,2,0:0:0:0:
118,203,18715,1,0,0:0:0:0:
118,203,18820,1,10,0:0:0:0:
307,231,19028,2,0,P|260:229|223:233,1,80,2|0,0:0|0:0,0:0:0:0:
38,280,19445,1,0,0:0:0:0:
165,366,19653,1,8,0:0:0:0:
182,343,19757,1,0,0:0:0:0:
195,319,19861,1,0,0:0:0:0:
205,293,19965,1,0,0:0:0:0:
211,266,20069,5,4,0:2:0:0:
172,164,20278,1,0,0:0:0:0:
81,284,20486,1,8,0:0:0:0:
309,321,20695,2,0,P|342:291|365:254,1,80,0|0,0:0|0:0,0:0:0:0:
376,164,21112,1,0,0:0:0:0:
404,361,21320,1,8,0:0:0:0:
258,244,21528,1,0,0:0:0:0:
238,244,21632,1,0,0:0:0:0:
222,256,21736,5,0,0:0:0:0:
439,266,21945,1,0,0:0:0:0:
182,164,22153,2,0,P|136:159|86:164,1,80,8|0,0:0|0:0,0:0:0:0:
305,116,22570,1,0,0:0:0:0:
73,168,22778,1,0,0:0:0:0:
210,52,22986,1,8,0:0:0:0:
282,215,23195,1,0,0:0:0:0:
264,204,23299,1,0,0:0:0:0:
255,185,23403,6,0,B|304:165|304:165|371:166|408:216,1,160,4|8,0:0|0:0,0:0:0:0:
446,290,24028,1,0,0:0:0:0:
186,121,24236,2,0,P|180:77|179:37,1,80,0|2,0:0|0:0,0:0:0:0:
194,29,24549,1,2,0:0:0:0:
213,25,24653,1,10,0:0:0:0:
64,96,24861,1,2,0:0:0:0:
216,220,25070,5,2,0:0:0:0:
196,217,25174,1,2,0:0:0:0:
176,213,25278,1,2,0:0:0:0:
157,206,25382,1,2,0:0:0:0:
139,198,25486,1,10,0:0:0:0:
329,197,25695,1,2,0:0:0:0:
115,316,25903,2,0,P|165:305|203:302,1,80,2|2,0:0|0:0,0:0:0:0:
17,132,26320,1,10,0:0:0:0:
230,145,26528,1,2,0:0:0:0:
115,316,26736,5,4,0:2:0:0:
102,116,26945,1,0,0:0:0:0:
287,223,27153,1,8,0:0:0:0:
204,0,27361,2,0,P|192:38|190:77,1,80,0|0,0:0|0:0,0:0:0:0:
450,197,27778,5,0,0:0:0:0:
282,84,27986,1,8,0:0:0:0:
181,213,28195,1,0,0:0:0:0:
193,228,28299,1,0,0:0:0:0:
210,237,28403,6,0,P|162:241|108:255,1,80,0|0,0:0|0:0,0:0:0:0:
370,351,28820,2,0,P|376:304|376:260,1,80,8|0,0:0|0:0,0:0:0:0:
321,96,29236,1,0,0:0:0:0:
231,248,29445,1,0,0:0:0:0:
451,107,29653,1,8,0:0:0:0:
234,128,29861,1,0,0:0:0:0:
491,237,30070,6,0,B|451:221|451:221|401:217|368:234|344:276,1,160,0|8,0:0|0:0,0:0:0:0:
158,284,30695,1,2,0:0:0:0:
149,301,30799,1,2,0:0:0:0:
152,320,30903,2,0,P|170:336|198:348,1,40,2|2,0:0|0:0,0:0:0:0:
300,355,31111,1,2,0:0:0:0:
84,181,31320,1,10,0:0:0:0:
75,199,31424,1,0,0:0:0:0:
68,217,31528,1,2,0:0:0:0:
66,317,31736,5,2,0:0:0:0:
6,142,31945,1,0,0:0:0:0:
66,317,32153,1,10,0:0:0:0:
6,142,32361,1,2,0:0:0:0:
238,146,32570,1,2,0:0:0:0:
89,208,32778,1,2,0:0:0:0:
332,174,32986,2,0,P|392:165|432:168,1,80,10|0,0:0|0:0,0:0:0:0:
431,168,33299,1,0,0:0:0:0:
449,175,33403,6,0,B|485:204|485:204|502:240|487:306|474:328,1,160,4|8,0:2|0:0,0:0:0:0:
373,83,34028,2,0,P|366:38|364:3,1,80,2|0,0:0|0:0,0:0:0:0:
312,169,34445,2,0,P|276:197|247:216,1,80,2|8,0:0|0:0,0:0:0:0:
420,167,34861,2,0,P|454:179|477:191,2,40,2|0|0,0:0|0:0|0:0,0:0:0:0:
217,214,35278,6,0,P|199:255|191:302,1,80,2|8,0:0|0:0,0:0:0:0:
60,43,35695,2,0,P|87:116|91:202,1,160,2|0,0:0|0:0,0:0:0:0:
47,315,36320,1,10,0:0:0:0:
47,315,36528,1,0,0:0:0:0:
254,301,36736,6,0,B|297:283|311:237|311:237|340:274|396:265,1,160,4|8,0:0|0:0,0:0:0:0:
479,208,37361,2,0,P|486:167|488:121,1,80,2|0,0:0|0:0,0:0:0:0:
139,306,37778,2,0,P|150:345|169:388,1,80,2|8,0:0|0:0,0:0:0:0:
375,183,38195,1,2,0:0:0:0:
375,183,38299,1,0,0:0:0:0:
375,183,38403,5,0,0:0:0:0:
344,336,38611,2,0,P|397:340|436:337,1,80,2|8,0:0|0:0,0:0:0:0:
223,123,39028,2,0,P|187:162|166:195,2,80,2|0|2,0:0|0:0|0:0,0:0:0:0:
331,92,39653,1,10,0:0:0:0:
66,149,39861,1,0,0:0:0:0:
294,201,40070,5,2,0:0:0:0:
244,41,40278,1,0,0:0:0:0:
311,210,40486,1,10,0:0:0:0:
91,158,40695,1,2,0:0:0:0:
436,74,41111,2,0,P|469:112|486:147,1,80,4|8,0:3|0:0,0:0:0:0:
220,255,41528,6,0,P|293:238|396:241,1,160,4|2,0:3|0:0,0:0:0:0:
138,311,42153,1,8,0:0:0:0:
417,248,42361,2,0,P|376:228|343:189,1,80,2|0,0:0|0:0,0:0:0:0:
501,230,42778,1,2,0:0:0:0:
272,160,42986,1,10,0:0:0:0:
272,160,43195,1,2,0:0:0:0:
401,106,43403,5,2,0:0:0:0:
175,136,43611,1,2,0:0:0:0:
325,38,43820,1,10,0:0:0:0:
365,190,44028,2,0,P|339:228|304:252,1,80,2|2,0:0|0:0,0:0:0:0:
476,159,44445,1,2,0:0:0:0:
207,256,44653,1,8,0:0:0:0:
412,314,44861,1,2,0:0:0:0:
392,313,44965,1,0,0:0:0:0:
375,323,45070,5,2,0:0:0:0:
476,159,45278,1,2,0:0:0:0:
492,361,45486,1,10,0:0:0:0:
281,199,45695,1,2,0:0:0:0:
300,201,45799,1,0,0:0:0:0:
315,213,45903,1,0,0:0:0:0:
120,255,46111,6,0,P|159:317|210:280,1,150.000005722046,4|0,0:2|0:0,0:0:0:0:
217,260,46736,6,0,P|208:208|205:132,1,128,4|8,0:0|0:0,0:0:0:0:
204,132,47361,1,2,0:0:0:0:
320,55,47570,2,0,P|321:105|316:139,1,64,2|0,0:0|0:0,0:0:0:0:
319,118,47986,1,8,0:0:0:0:
466,329,48403,6,0,P|422:327|398:325,1,64,2|0,0:0|0:0,0:0:0:0:
366,213,48820,2,0,P|401:213|429:215,1,64,8|2,0:0|0:0,0:0:0:0:
302,343,49236,2,0,B|286:341|272:328|272:328|236:355|159:343,1,128,2|8,0:0|0:0,0:0:0:0:
54,68,50070,6,0,P|41:113|38:215,1,128,2|8,0:0|0:0,0:0:0:0:
186,253,50695,1,2,0:0:0:0:
186,253,50903,2,0,P|181:213|162:178,1,64,2|0,0:0|0:0,0:0:0:0:
20,307,51320,2,0,P|44:339|78:359,1,64,8|0,0:0|0:0,0:0:0:0:
161,353,51736,5,2,0:0:0:0:
161,353,51945,1,0,0:0:0:0:
83,177,52153,2,0,P|82:222|85:256,1,64,8|0,0:0|0:0,0:0:0:0:
340,238,52570,2,0,P|305:265|257:347,1,128,2|8,0:0|0:0,0:0:0:0:
255,355,53403,6,0,P|255:296|230:220,1,128,4|8,0:0|0:0,0:0:0:0:
178,157,54028,1,2,0:0:0:0:
44,296,54236,2,0,B|60:268|75:259|75:259|97:274|122:289|170:273,1,128,2|8,0:0|0:0,0:0:0:0:
149,278,54861,1,0,0:0:0:0:
19,127,55070,6,0,P|18:167|21:197,1,64,2|0,0:0|0:0,0:0:0:0:
168,90,55486,2,0,P|170:61|166:26,1,64,8|2,0:0|0:0,0:0:0:0:
109,151,55903,2,0,P|175:136|255:134,1,128,2|8,0:0|0:0,0:0:0:0:
321,156,56528,1,0,0:0:0:0:
398,203,56736,6,0,P|406:176|406:136,1,64,2|0,0:0|0:0,0:0:0:0:
316,260,57153,1,8,0:0:0:0:
502,146,57361,1,2,0:0:0:0:
261,137,57570,2,0,P|208:149|126:179,1,128,2|8,0:0|0:0,0:0:0:0:
261,137,58403,5,2,0:1:0:0:
243,219,58820,1,2,0:1:0:0:
283,294,59236,1,2,0:1:0:0:
241,368,59653,1,2,0:1:0:0:
241,368,60070,5,2,0:1:0:0:
207,305,60278,1,2,0:1:0:0:
256,255,60486,1,2,0:1:0:0:
320,286,60695,1,2,0:1:0:0:
310,355,60903,1,2,0:1:0:0:
267,313,61111,5,8,0:1:0:0:
470,178,61320,1,8,0:3:0:0:
470,178,61736,6,0,B|416:193|416:193|366:186|325:144|311:83,1,200,4|8,0:2|0:0,0:0:0:0:
330,0,62361,1,2,0:0:0:0:
260,219,62570,2,0,P|219:231|159:240,1,100,2|2,0:0|0:0,0:0:0:0:
140,234,62882,1,2,0:0:0:0:
123,222,62986,1,2,0:0:0:0:
345,281,63195,1,2,0:0:0:0:
110,135,63403,5,2,0:0:0:0:
24,271,63611,1,0,0:0:0:0:
37,50,63820,1,8,0:0:0:0:
226,193,64028,1,0,0:0:0:0:
171,23,64236,1,2,0:0:0:0:
190,21,64340,1,0,0:0:0:0:
208,28,64445,1,2,0:0:0:0:
141,300,64653,2,0,P|124:247|122:189,1,100,8|0,0:0|0:0,0:0:0:0:
388,37,65070,6,0,P|382:113|353:205,1,150,2|0,0:0|0:0,0:0:0:0:
337,205,65486,1,10,0:0:0:0:
484,131,65695,1,2,0:0:0:0:
484,299,65903,2,0,B|395:278|432:358|327:335,1,150,2|0,0:0|0:0,0:0:0:0:
317,322,66320,1,8,0:0:0:0:
170,149,66528,1,0,0:0:0:0:
374,51,66736,6,0,P|399:105|406:156,1,100,2|0,0:0|0:0,0:0:0:0:
80,318,67153,2,0,P|95:260|122:216,1,100,10|0,0:0|0:0,0:0:0:0:
390,257,67570,2,0,B|317:244|302:180|302:180|264:226|202:215,1,200,2|8,0:0|0:0,0:0:0:0:
66,102,68195,2,0,P|41:100|17:96,1,50,0|0,0:0|0:0,0:0:0:0:
165,43,68403,6,0,P|194:98|206:145,1,100,4|0,0:2|0:0,0:0:0:0:
172,345,68820,2,0,P|205:292|240:258,1,100,10|2,0:0|0:0,0:0:0:0:
430,187,69236,2,0,P|368:185|321:172,1,100,0|2,0:0|0:0,0:0:0:0:
319,156,69549,1,2,0:0:0:0:
314,136,69653,1,10,0:0:0:0:
493,259,69861,1,2,0:0:0:0:
248,254,70070,6,0,P|185:260|139:286,1,100,2|0,0:0|0:0,0:0:0:0:
90,352,70486,1,10,0:0:0:0:
174,170,70695,1,0,0:0:0:0:
236,367,70903,1,2,0:0:0:0:
8,134,71111,2,0,B|55:112|87:136|87:136|104:86|158:65|206:87,1,200,2|0,0:0|0:0,0:0:0:0:
326,151,71736,5,2,0:0:0:0:
174,170,71945,1,2,0:0:0:0:
334,161,72153,1,10,0:0:0:0:
182,180,72361,2,0,P|153:220|136:279,1,100,2|0,0:0|0:0,0:0:0:0:
324,335,72778,5,2,0:0:0:0:
252,266,72986,1,10,0:0:0:0:
225,364,73195,1,2,0:0:0:0:
350,237,73403,5,2,0:0:0:0:
119,227,73611,1,2,0:0:0:0:
341,243,73820,1,10,0:0:0:0:
110,233,74028,1,2,0:0:0:0:
276,162,74236,1,2,0:0:0:0:
54,345,74445,1,2,0:0:0:0:
46,326,74549,1,2,0:0:0:0:
46,306,74653,1,10,0:0:0:0:
264,327,74861,1,2,0:0:0:0:
268,346,74965,1,0,0:0:0:0:
255,361,75070,6,0,B|308:346|308:346|388:381|461:343,1,200,4|10,0:2|0:0,0:0:0:0:
503,265,75695,1,2,0:0:0:0:
328,81,75903,2,0,P|311:135|314:193,1,100,0|2,0:0|0:0,0:0:0:0:
227,34,76320,1,10,0:0:0:0:
477,147,76528,1,2,0:0:0:0:
458,154,76632,1,0,0:0:0:0:
438,155,76736,5,2,0:0:0:0:
487,53,76945,1,0,0:0:0:0:
314,125,77153,1,8,0:0:0:0:
508,234,77361,1,0,0:0:0:0:
273,226,77570,2,0,P|332:229|391:204,1,100,2|0,0:0|0:0,0:0:0:0:
172,150,77986,2,0,B|136:134|136:134|92:162|87:212|113:249,1,150,10|0,0:0|0:0,0:0:0:0:
139,251,78403,5,2,0:0:0:0:
11,172,78611,1,0,0:0:0:0:
97,351,78820,2,0,P|160:344|206:345,1,100,10|2,0:0|0:0,0:0:0:0:
456,368,79236,2,0,P|484:318|483:218,1,150
472,202,79653,2,0,P|453:242|486:290,1,100,10|0,0:0|0:0,0:0:0:0:
164,167,80070,5,2,0:0:0:0:
369,129,80278,1,2,0:0:0:0:
238,264,80486,1,8,0:0:0:0:
299,69,80695,1,2,0:0:0:0:
471,238,80903,2,0,P|420:242|376:268,1,100,2|0,0:0|0:0,0:0:0:0:
157,355,81320,2,0,P|126:349|105:330,3,50,8|0|0|0,0:0|0:0|0:0|0:0,0:0:0:0:
86,306,81736,6,0,P|133:285|204:285,1,100,2|0,0:0|0:0,0:0:0:0:
54,217,82153,1,10,0:0:0:0:
274,291,82361,1,2,0:0:0:0:
159,83,82570,6,0,P|138:130|138:201,1,100,2|0,0:0|0:0,0:0:0:0:
95,0,82987,1,10,0:0:0:0:
256,148,83195,1,2,0:0:0:0:
26,89,83403,5,2,0:0:0:0:
26,89,83611,1,0,0:0:0:0:
274,38,83820,1,10,0:0:0:0:
94,173,84028,1,2,0:0:0:0:
371,239,84236,6,0,P|394:184|393:127,1,100,2|0,0:0|0:0,0:0:0:0:
148,292,84653,2,0,P|176:344|222:378,1,100,10|0,0:0|0:0,0:0:0:0:
288,188,85070,5,2,0:0:0:0:
58,244,85278,1,2,0:0:0:0:
251,278,85486,1,10,0:0:0:0:
29,144,85695,1,2,0:0:0:0:
31,353,85903,5,2,0:0:0:0:
134,86,86111,1,2,0:0:0:0:
380,250,86320,1,10,0:0:0:0:
162,232,86528,1,2,0:0:0:0:
328,149,86736,5,2,0:0:0:0:
188,324,86945,1,2,0:0:0:0:
170,334,87049,1,2,0:0:0:0:
150,335,87153,1,10,0:0:0:0:
70,130,87361,1,2,0:0:0:0:
87,139,87465,1,2,0:0:0:0:
97,156,87570,1,2,0:0:0:0:
44,292,87778,5,2,0:0:0:0:
201,137,87986,1,10,0:0:0:0:
352,296,88195,1,2,0:0:0:0:
360,314,88299,1,0,0:0:0:0:
358,333,88403,5,4,0:2:0:0:
461,202,88611,1,2,0:0:0:0:
238,270,88820,1,10,0:0:0:0:
469,360,89028,2,0,P|378:351|294:350,2,160,2|2|2,0:0|0:0|0:0,0:0:0:0:
469,360,90278,5,2,0:0:0:0:
224,334,90486,1,10,0:0:0:0:
372,202,90695,2,0,P|391:252|395:290,1,80,2|0,0:0|0:0,0:0:0:0:
456,162,91111,1,2,0:0:0:0:
322,337,91320,1,10,0:0:0:0:
456,162,91528,1,2,0:0:0:0:
280,90,91736,6,0,P|268:133|266:177,1,80,2|2,0:0|0:0,0:0:0:0:
320,249,92153,1,10,0:0:0:0:
69,243,92361,2,0,B|110:232|110:232|135:263|191:274|231:249,1,160,2|2,0:0|0:0,0:0:0:0:
13,169,92986,1,10,0:0:0:0:
184,166,93195,2,0,P|178:117|159:73,1,80,2|0,0:0|0:0,0:0:0:0:
304,174,93611,5,2,0:0:0:0:
75,66,93820,1,10,0:0:0:0:
275,41,94028,1,2,0:0:0:0:
275,41,94445,1,2,0:0:0:0:
292,49,94549,1,0,0:0:0:0:
305,64,94653,1,10,0:0:0:0:
211,227,94861,2,0,P|199:204|195:180,1,40,2|0,0:0|0:0,0:0:0:0:
318,231,95070,6,0,P|314:284|299:318,1,80,2|2,0:0|0:0,0:0:0:0:
221,367,95486,1,10,0:0:0:0:
0,195,95695,2,0,P|39:190|78:200,1,80,2|0,0:0|0:0,0:0:0:0:
208,263,96111,2,0,P|184:230|173:192,1,80,2|8,0:0|0:0,0:0:0:0:
161,49,96528,2,0,P|144:85|117:114,1,80,2|0,0:0|0:0,0:0:0:0:
264,22,96945,5,2,0:0:0:0:
26,113,97153,1,10,0:0:0:0:
354,93,97361,2,0,P|313:106|271:127,1,80,2|0,0:0|0:0,0:0:0:0:
462,199,97778,1,2,0:0:0:0:
354,93,97986,1,10,0:0:0:0:
363,283,98195,1,2,0:0:0:0:
140,291,98403,6,0,P|185:272|227:270,1,80,2|2,0:0|0:0,0:0:0:0:
62,228,98820,1,10,0:0:0:0:
284,342,99028,1,2,0:0:0:0:
203,65,99236,1,8,0:0:0:0:
179,77,99340,1,8,0:0:0:0:
161,96,99444,1,8,0:0:0:0:
148,120,99548,1,8,0:0:0:0:
143,146,99652,1,8,0:0:0:0:
146,172,99756,1,8,0:0:0:0:
156,197,99861,5,8,0:0:0:0:
353,261,100278,2,0,P|385:258|400:254,2,40,2|0|0,0:0|0:0|0:0,0:0:0:0:
261,183,100903,2,0,P|232:167|218:162,2,40,2|0|0,0:0|0:0|0:0,0:0:0:0:
117,287,101528,6,0,P|91:241|81:154,1,120,4|0,0:2|0:0,0:0:0:0:
85,142,101945,1,2,0:0:0:0:
316,48,102153,1,2,0:0:0:0:
227,256,102361,1,2,0:0:0:0:
