osu file format v14

[General]
AudioFilename: audio.mp3
AudioLeadIn: 0
PreviewTime: 59297
Countdown: 0
SampleSet: Soft
StackLeniency: 0.7
Mode: 2
LetterboxInBreaks: 0
WidescreenStoryboard: 1

[Editor]
DistanceSpacing: 0.65
BeatDivisor: 4
GridSize: 8
TimelineZoom: 1.7

[Metadata]
Title:Koi Kou Enishi
TitleUnicode:恋ひ恋ふ縁
Artist:KOTOKO
ArtistUnicode:KOTOKO
Creator:-Luminate
Version:Rain
Source:千恋*万花
Tags:Senren Banka Senren*Banka A Thousand Colors of Love Yuzusoft eroge visual novel vn op opening japanese
BeatmapID:2266608
BeatmapSetID:1083785

[Difficulty]
HPDrainRate:6
CircleSize:4.5
OverallDifficulty:8.6
ApproachRate:8.6
SliderMultiplier:2.1
SliderTickRate:1

[Events]
//Background and Video events
0,0,"smallergreen.jpg",0,0
//Break Periods
//Storyboard Layer 0 (Background)
//Storyboard Layer 1 (Fail)
//Storyboard Layer 2 (Pass)
//Storyboard Layer 3 (Foreground)
//Storyboard Layer 4 (Overlay)
//Storyboard Sound Samples

[TimingPoints]
27,416.666666666667,4,2,1,45,1,0
5027,-100,4,2,1,55,0,0
18360,-100,4,2,1,40,0,0
45027,-100,4,2,1,30,0,0
56693,-100,4,2,1,35,0,0
59402,-100,4,2,1,50,0,0
59922,-100,4,2,1,5,0,0
60027,-100,4,2,1,70,0,1
86693,-100,4,2,1,55,0,0
98568,-100,4,2,1,40,0,0

[Colours]
Combo1 : 197,215,68
Combo2 : 94,179,119
Combo3 : 36,219,91
Combo4 : 157,255,157

[HitObjects]
88,288,27,5,0,0:0:0:0:
216,224,235,1,0,0:0:0:0:
88,176,443,1,0,0:0:0:0:
216,128,652,1,0,0:0:0:0:
368,128,1068,1,0,0:0:0:0:
216,304,1277,2,0,L|216:168,1,105,0|0,0:0|0:0,0:0:0:0:
448,168,1693,5,0,0:0:0:0:
312,144,1902,1,0,0:0:0:0:
168,120,2110,1,0,0:0:0:0:
312,72,2318,1,0,0:0:0:0:
80,304,2735,2,0,L|80:232,2,52.5,0|0|0,0:0|0:0|0:0,0:0:0:0:
216,312,3152,1,0,0:0:0:0:
424,312,3360,5,8,0:0:0:0:
296,288,3568,2,0,L|288:200,1,52.5,8|0,0:0|0:0,0:0:0:0:
360,200,3777,1,8,0:1:0:0:
480,176,3985,1,8,0:0:0:0:
272,96,4193,2,0,L|128:96,1,105,8|8,0:0|0:0,0:0:0:0:
400,304,4610,1,8,0:1:0:0:
464,256,4714,1,8,0:1:0:0:
400,208,4818,1,8,0:3:0:0:
72,200,5027,5,4,0:0:0:0:
216,160,5235,2,0,L|216:32,1,105,0|8,0:0|0:1,0:0:0:0:
72,272,5652,2,0,L|216:272,1,105,0|8,0:0|0:0,0:0:0:0:
328,336,6068,2,0,L|200:336,1,105,0|8,0:0|0:1,0:0:0:0:
424,256,6485,6,0,L|424:104,1,105,0|0,0:0|0:0,0:0:0:0:
296,112,6902,1,0,0:0:0:0:
424,72,7110,1,8,0:1:0:0:
248,336,7318,2,0,P|184:280|256:208,1,210,0|0,0:0|0:0,0:0:0:0:
328,208,7839,1,0,0:0:0:0:
400,208,7943,1,8,0:1:0:0:
208,120,8152,1,0,0:0:0:0:
480,56,8360,6,0,L|352:56,2,105,8|0|8,0:0|0:0|0:1,0:0:0:0:
296,320,8985,2,0,P|280:208|312:216,1,210,0|0,0:0|0:0,0:0:0:0:
424,208,9610,1,8,0:1:0:0:
240,176,9818,6,0,L|112:176,1,105,8|0,0:0|0:0,0:0:0:0:
264,280,10235,1,0,0:0:0:0:
128,336,10443,1,8,0:1:0:0:
344,352,10652,2,0,P|408:288|336:216,1,210,8|0,0:0|0:0,0:0:0:0:
264,216,11172,1,0,0:0:0:0:
184,216,11277,1,8,0:1:0:0:
352,120,11485,2,0,L|440:120,1,52.5,8|8,0:1|0:1,0:0:0:0:
184,72,11693,6,0,L|32:72,2,105,4|8|8,0:0|0:0|0:1,0:0:0:0:
344,128,12318,2,0,L|352:248,1,105,0|8,0:0|0:0,0:0:0:0:
176,224,12735,2,0,L|168:344,1,105,0|8,0:0|0:1,0:0:0:0:
344,344,13152,6,0,L|464:344,1,105,0|8,0:0|0:0,0:0:0:0:
304,240,13568,1,0,0:0:0:0:
448,192,13777,1,8,0:1:0:0:
264,120,13985,2,0,L|120:120,1,105,0|8,0:0|0:0,0:0:0:0:
296,240,14402,2,0,L|368:240,2,52.5,0|0|8,0:0|0:0|0:1,0:0:0:0:
144,232,14818,1,0,0:0:0:0:
424,320,15027,5,8,0:0:0:0:
304,272,15235,1,0,0:0:0:0:
424,208,15443,1,8,0:1:0:0:
248,192,15652,2,0,L|248:48,1,105,0|8,0:0|0:0,0:0:0:0:
112,48,16068,1,0,0:0:0:0:
248,24,16277,1,8,0:1:0:0:
48,272,16485,6,0,L|176:272,1,105,0|8,0:0|0:0,0:0:0:0:
304,224,16902,1,0,0:0:0:0:
152,168,17110,1,8,0:1:0:0:
440,160,17318,2,0,P|504:80|408:32,1,210,4|0,0:0|0:0,0:0:0:0:
232,24,17943,2,0,L|224:104,1,52.5,8|0,0:1|0:0,0:0:0:0:
392,192,18152,2,0,L|408:272,1,52.5,8|4,0:3|0:3,0:0:0:0:
224,272,18360,5,4,0:0:0:0:
352,232,18568,2,0,L|360:112,1,105,0|8,0:0|0:1,0:0:0:0:
208,104,18985,2,0,L|96:104,1,105,0|8,0:0|0:0,0:0:0:0:
232,216,19402,1,0,0:0:0:0:
104,264,19610,1,8,0:1:0:0:
304,320,19818,6,0,L|376:320,2,52.5,0|0|8,0:0|0:0|0:0,0:0:0:0:
152,264,20235,1,0,0:0:0:0:
304,216,20443,2,0,L|304:88,1,105,8|0,0:1|0:0,0:0:0:0:
160,136,20860,2,0,L|160:24,1,105,8|0,0:0|0:0,0:0:0:0:
272,32,21277,1,8,0:1:0:0:
160,48,21485,1,0,0:0:0:0:
368,240,21693,6,0,P|432:168|360:112,1,210,8|8,0:0|0:1,0:0:0:0:
208,224,22318,2,0,L|432:224,1,210,0|0,0:0|0:0,0:0:0:0:
336,296,22839,2,0,L|280:296,2,52.5,0|8|0,0:0|0:1|0:0,0:0:0:0:
416,328,23152,1,0,0:0:0:0:
248,256,23360,5,8,0:0:0:0:
192,224,23464,1,0,0:0:0:0:
192,152,23568,1,0,0:0:0:0:
248,120,23672,1,0,0:0:0:0:
376,120,23777,1,8,0:1:0:0:
248,320,23985,1,0,0:0:0:0:
440,352,24193,2,0,L|440:208,1,105,8|0,0:0|0:0,0:0:0:0:
280,192,24610,1,8,0:1:0:0:
440,144,24818,1,0,0:0:0:0:
144,136,25027,5,8,0:0:0:0:
288,312,25235,2,0,L|288:176,1,105,0|8,0:0|0:1,0:0:0:0:
144,176,25652,2,0,L|392:176,1,210,0|0,0:0|0:0,0:0:0:0:
232,128,26277,1,8,0:1:0:0:
432,152,26485,5,0,0:0:0:0:
432,99,26589,1,0,0:0:0:0:
432,47,26693,1,0,0:0:0:0:
304,256,26902,1,0,0:0:0:0:
464,296,27110,1,8,0:1:0:0:
304,344,27318,1,0,0:0:0:0:
72,304,27527,1,8,0:0:0:0:
208,248,27735,1,0,0:0:0:0:
344,200,27943,1,8,0:1:0:0:
208,152,28152,1,0,0:0:0:0:
424,144,28360,6,0,P|488:80|392:24,1,210,8|8,0:0|0:1,0:0:0:0:
192,312,28985,2,0,L|184:240,1,52.5,0|0,0:0|0:0,0:0:0:0:
256,216,29193,2,0,L|320:216,2,52.5,8|0|0,0:0|0:0|0:0,0:0:0:0:
64,200,29610,2,0,L|72:120,1,52.5,8|0,0:1|0:0,0:0:0:0:
144,144,29818,1,0,0:0:0:0:
352,144,30027,5,8,0:0:0:0:
256,208,30235,1,0,0:0:0:0:
352,272,30443,1,8,0:1:0:0:
136,320,30652,1,0,0:0:0:0:
352,344,30860,2,0,L|352:208,1,105,8|0,0:0|0:0,0:0:0:0:
192,232,31277,2,0,L|56:232,1,105,8|8,0:1|0:3,0:0:0:0:
360,176,31693,6,0,P|416:128|320:40,1,210,4|8,0:0|0:1,0:0:0:0:
240,96,32318,2,0,L|376:96,1,105,0|8,0:0|0:0,0:0:0:0:
160,184,32735,2,0,L|32:184,1,105,0|8,0:0|0:1,0:0:0:0:
272,312,33152,5,0,0:0:0:0:
272,256,33256,1,0,0:0:0:0:
272,200,33360,1,8,0:0:0:0:
128,368,33568,2,0,L|128:248,1,105,0|8,0:0|0:1,0:0:0:0:
336,176,33985,2,0,L|456:176,2,105,0|8|0,0:0|0:0|0:0,0:0:0:0:
192,296,34610,2,0,L|192:144,1,105,8|0,0:1|0:0,0:0:0:0:
464,40,35027,6,0,L|208:40,1,210,8|8,0:0|0:1,0:0:0:0:
392,104,35652,2,0,L|392:256,1,105,0|8,0:0|0:0,0:0:0:0:
248,296,36068,2,0,L|400:296,1,105,0|8,0:0|0:1,0:0:0:0:
144,192,36485,6,0,L|48:192,2,52.5,0|0|8,0:0|0:0|0:0,0:0:0:0:
280,312,36902,2,0,L|280:176,1,105,0|8,0:0|0:1,0:0:0:0:
104,208,37318,2,0,P|40:152|128:80,1,210,0|0,0:0|0:0,0:0:0:0:
296,72,37943,2,0,L|440:72,1,105,8|0,0:1|0:0,0:0:0:0:
128,288,38360,5,12,0:0:0:0:
248,232,38568,1,0,0:0:0:0:
128,184,38777,1,8,0:1:0:0:
392,224,38985,2,0,L|392:112,1,105,0|8,0:0|0:0,0:0:0:0:
208,128,39402,2,0,L|208:16,1,105,0|8,0:0|0:1,0:0:0:0:
472,288,39818,6,0,L|352:288,1,105,6|8,0:0|0:0,0:0:0:0:
176,296,40235,2,0,L|24:296,1,105,0|8,0:0|0:1,0:0:0:0:
192,216,40652,1,0,0:0:0:0:
24,168,40860,2,0,L|144:168,1,105,8|0,0:0|0:0,0:0:0:0:
304,128,41277,1,8,0:1:0:0:
128,88,41485,1,8,0:0:0:0:
456,288,41693,6,0,L|456:152,1,105,4|0,0:0|0:0,0:0:0:0:
352,144,42110,1,8,0:1:0:0:
456,112,42318,1,0,0:0:0:0:
240,328,42527,2,0,L|240:192,1,105,8|0,0:0|0:0,0:0:0:0:
392,232,42943,1,8,0:1:0:0:
192,200,43152,6,0,P|136:152|216:64,1,210,0|0,0:0|0:0,0:0:0:0:
392,112,43777,1,8,0:1:0:0:
200,216,43985,1,0,0:0:0:0:
272,216,44089,1,0,0:0:0:0:
344,216,44193,1,8,0:0:0:0:
64,336,44402,2,0,P|0:264|96:200,1,210,4|0,0:0|0:0,0:0:0:0:
272,192,45027,6,0,P|336:136|264:56,1,210,6|0,0:0|0:0,0:0:0:0:
144,56,45652,1,0,0:0:0:0:
144,56,45860,1,0,0:0:0:0:
464,248,46277,1,8,0:1:0:0:
72,304,46693,6,0,L|72:160,1,105,0|0,0:0|0:0,0:0:0:0:
208,192,47110,2,0,L|208:40,1,105,0|0,0:0|0:0,0:0:0:0:
72,80,47527,1,8,0:0:0:0:
264,296,47943,2,0,L|112:296,1,105,8|0,0:1|0:0,0:0:0:0:
368,232,48360,6,0,P|432:168|336:96,1,210,8|0,0:0|0:0,0:0:0:0:
272,88,48985,1,0,0:0:0:0:
80,224,49193,2,0,L|208:224,1,105,0|0,0:0|0:0,0:0:0:0:
296,280,49610,2,0,L|192:280,1,105,8|0,0:1|0:0,0:0:0:0:
400,208,50027,5,8,0:0:0:0:
272,144,50235,1,0,0:0:0:0:
432,112,50443,2,0,L|432:0,1,105,0|0,0:0|0:0,0:0:0:0:
248,320,50860,2,0,L|16:320,1,210,8|8,0:0|0:1,0:0:0:0:
448,208,51693,6,0,L|224:208,1,210,4|0,0:0|0:0,0:0:0:0:
384,256,52318,1,8,0:0:0:0:
176,256,52527,2,0,P|120:168|208:120,1,210,8|8,0:0|0:1,0:0:0:0:
288,120,53152,1,0,0:0:0:0:
40,304,53360,6,0,L|176:304,3,105,8|0|0|8,0:0|0:0|0:0|0:0,0:0:0:0:
352,304,54193,1,8,0:0:0:0:
184,256,54610,2,0,L|184:128,1,105,8|0,0:1|0:0,0:0:0:0:
392,120,55027,6,0,L|160:120,2,210,8|2|8,0:0|0:0|0:0,0:0:0:0:
80,248,56277,1,8,0:1:0:0:
440,240,56693,5,10,0:0:0:0:
304,208,57110,1,0,0:0:0:0:
160,176,57527,1,8,0:0:0:0:
368,120,57943,1,8,0:1:0:0:
24,128,58360,6,0,L|144:128,1,105,0|0,0:0|0:0,0:0:0:0:
264,248,58777,2,0,L|152:248,1,105,0|0,0:0|0:0,0:0:0:0:
304,312,59193,1,8,0:0:0:0:
152,336,59402,1,8,0:1:0:0:
456,224,59610,2,0,L|456:104,1,105,8|0,0:1|0:0,0:0:0:0:
184,104,60027,6,0,L|40:104,1,105,4|0,0:0|0:0,0:0:0:0:
208,192,60443,1,8,0:1:0:0:
72,248,60652,1,0,0:0:0:0:
288,344,60860,2,0,L|416:344,1,105,8|0,0:0|0:0,0:0:0:0:
392,272,61172,1,0,0:0:0:0:
320,248,61277,1,8,0:1:0:0:
448,200,61485,1,0,0:0:0:0:
200,176,61693,6,0,L|80:176,1,105,8|0,0:0|0:0,0:0:0:0:
248,272,62110,2,0,L|384:272,1,105,8|0,0:1|0:0,0:0:0:0:
184,176,62527,1,8,0:0:0:0:
352,104,62735,1,0,0:0:0:0:
176,328,62943,2,0,L|176:216,1,105,8|0,0:1|0:0,0:0:0:0:
424,208,63360,6,0,P|480:152|392:64,1,210,8|8,0:0|0:1,0:0:0:0:
288,64,63985,1,0,0:0:0:0:
96,288,64193,2,0,L|248:288,1,105,8|0,0:0|0:0,0:0:0:0:
376,288,64610,2,0,L|520:288,1,105,8|0,0:1|0:0,0:0:0:0:
232,192,65027,6,0,L|80:192,2,105,8|0|8,0:0|0:0|0:1,0:0:0:0:
344,192,65652,1,0,0:0:0:0:
176,328,65860,2,0,L|176:216,1,105,8|8,0:0|0:1,0:0:0:0:
344,216,66277,1,8,0:1:0:0:
176,144,66485,2,0,L|272:144,1,52.5,8|8,0:0|0:0,0:0:0:0:
456,88,66693,6,0,L|232:88,1,210,4|8,0:0|0:1,0:0:0:0:
64,88,67318,1,0,0:0:0:0:
208,288,67527,1,8,0:0:0:0:
56,320,67735,1,0,0:0:0:0:
56,320,67839,1,0,0:0:0:0:
56,320,67943,1,8,0:1:0:0:
208,336,68152,1,0,0:0:0:0:
440,304,68360,5,8,0:0:0:0:
328,256,68568,1,0,0:0:0:0:
208,216,68777,1,8,0:1:0:0:
400,152,68985,1,0,0:0:0:0:
208,112,69193,1,8,0:0:0:0:
312,312,69402,2,0,L|96:312,1,210,0|0,0:0|0:0,0:0:0:0:
352,200,70027,6,0,L|352:80,1,105,8|0,0:0|0:0,0:0:0:0:
184,136,70443,2,0,L|184:16,1,105,8|0,0:1|0:0,0:0:0:0:
344,240,70860,2,0,L|232:240,2,105,8|0|8,0:0|0:0|0:1,0:0:0:0:
176,328,71485,1,0,0:0:0:0:
472,160,71693,6,0,L|336:160,3,105,8|0|8|0,0:0|0:0|0:1|0:0,0:0:0:0:
184,160,72527,2,0,L|64:160,1,105,8|8,0:0|0:1,0:0:0:0:
272,288,72943,2,0,L|400:288,1,105,4|8,0:0|0:3,0:0:0:0:
320,328,73256,1,4,0:3:0:0:
136,344,73360,6,0,P|72:264|152:216,1,210,4|8,0:0|0:1,0:0:0:0:
360,208,73985,1,0,0:0:0:0:
200,192,74193,2,0,L|192:56,1,105,8|0,0:0|0:0,0:0:0:0:
248,64,74506,1,0,0:0:0:0:
304,64,74610,1,8,0:1:0:0:
408,88,74818,1,0,0:0:0:0:
160,288,75027,6,0,L|24:288,1,105,8|0,0:0|0:0,0:0:0:0:
248,208,75443,1,8,0:1:0:0:
376,160,75652,1,0,0:0:0:0:
176,128,75860,2,0,L|176:16,1,105,8|0,0:0|0:0,0:0:0:0:
368,32,76277,2,0,L|496:32,1,105,8|0,0:1|0:0,0:0:0:0:
232,296,76693,6,0,P|168:232|256:176,1,210,8|8,0:0|0:1,0:0:0:0:
344,176,77318,1,0,0:0:0:0:
120,336,77527,2,0,L|248:336,1,105,8|0,0:0|0:0,0:0:0:0:
344,256,77943,2,0,L|208:256,1,105,8|0,0:1|0:0,0:0:0:0:
488,184,78360,6,0,L|488:72,1,105,8|0,0:0|0:0,0:0:0:0:
344,144,78777,2,0,L|224:144,1,105,8|0,0:1|0:0,0:0:0:0:
408,272,79193,2,0,L|176:272,1,210,10|8,0:0|0:1,0:0:0:0:
144,256,79714,1,0,0:0:0:0:
144,192,79818,1,0,0:3:0:0:
200,168,79922,1,0,0:0:0:0:
392,160,80027,6,0,L|528:160,1,105,12|0,0:0|0:0,0:0:0:0:
400,272,80443,1,8,0:1:0:0:
496,296,80652,1,0,0:0:0:0:
256,344,80860,2,0,L|256:224,1,105,8|0,0:0|0:0,0:0:0:0:
408,240,81277,2,0,L|408:96,1,105,8|0,0:1|0:0,0:0:0:0:
128,216,81693,6,0,L|128:80,1,105,8|0,0:0|0:0,0:0:0:0:
288,112,82110,2,0,L|416:112,1,105,8|0,0:1|0:0,0:0:0:0:
120,312,82527,2,0,L|120:192,1,105,8|0,0:0|0:0,0:0:0:0:
392,280,82943,2,0,L|392:160,1,105,8|0,0:1|0:0,0:0:0:0:
72,336,83360,5,4,0:0:0:0:
208,304,83568,1,0,0:0:0:0:
72,256,83777,1,8,0:1:0:0:
192,216,83985,1,0,0:0:0:0:
400,192,84193,1,8,0:0:0:0:
224,152,84402,1,0,0:0:0:0:
352,112,84610,1,8,0:1:0:0:
480,80,84818,1,0,0:0:0:0:
200,288,85027,6,0,L|64:288,1,105,2|8,0:0|0:1,0:0:0:0:
96,224,85339,1,0,0:0:0:0:
152,200,85443,1,8,0:0:0:0:
408,200,85652,2,0,L|472:200,2,52.5,8|0|8,0:1|0:0|0:0,0:0:0:0:
208,160,86068,2,0,L|208:80,1,52.5,8|0,0:1|0:0,0:0:0:0:
280,96,86277,1,8,0:0:0:0:
400,48,86485,2,0,L|312:48,1,52.5,8|4,0:3|0:3,0:0:0:0:
136,248,86693,6,0,L|0:248,2,105,4|0|8,0:0|0:0|0:1,0:0:0:0:
304,240,87318,2,0,L|304:104,1,105,0|8,0:0|0:0,0:0:0:0:
136,152,87735,2,0,L|136:32,1,105,0|8,0:0|0:1,0:0:0:0:
312,48,88152,6,0,L|440:48,1,105,0|8,0:0|0:0,0:0:0:0:
296,152,88568,1,0,0:0:0:0:
416,192,88777,1,8,0:1:0:0:
208,352,88985,2,0,P|96:312|88:208,1,210,0|0,0:0|0:0,0:0:0:0:
152,216,89506,1,0,0:0:0:0:
224,208,89610,1,8,0:1:0:0:
40,144,89818,1,0,0:0:0:0:
320,128,90027,6,0,L|448:128,2,105,8|0|8,0:0|0:0|0:1,0:0:0:0:
512,200,90652,2,0,L|288:200,1,210,0|0,0:0|0:0,0:0:0:0:
184,176,91277,1,8,0:1:0:0:
416,304,91485,6,0,L|416:184,1,105,0|0,0:0|0:0,0:0:0:0:
288,128,91902,1,0,0:0:0:0:
416,64,92110,1,8,0:1:0:0:
208,264,92318,2,0,L|432:272,1,210,0|0,0:0|0:0,0:0:0:0:
368,224,92839,1,0,0:0:0:0:
296,208,92943,1,8,0:1:0:0:
416,120,93152,2,0,L|344:120,1,52.5,8|8,0:1|0:1,0:0:0:0:
168,120,93360,6,0,L|40:120,2,105,4|0|8,0:0|0:0|0:1,0:0:0:0:
328,184,93985,2,0,L|336:312,1,105,0|8,0:0|0:0,0:0:0:0:
168,328,94402,2,0,L|296:328,1,105,0|8,0:0|0:1,0:0:0:0:
472,264,94818,6,0,L|232:264,1,210,0|0,0:0|0:0,0:0:0:0:
120,232,95443,1,8,0:1:0:0:
320,200,95652,2,0,P|384:128|296:64,1,210,0|0,0:0|0:0,0:0:0:0:
248,56,96172,1,0,0:0:0:0:
320,24,96276,1,8,0:1:0:0:
496,32,96485,1,0,0:0:0:0:
208,208,96693,6,0,L|56:208,2,105,8|0|8,0:0|0:0|0:1,0:0:0:0:
392,208,97318,1,0,0:0:0:0:
208,344,97527,2,0,L|144:344,1,52.5,8|0,0:0|0:0,0:0:0:0:
352,264,97735,2,0,L|424:264,1,52.5,8|0,0:3|0:0,0:0:0:0:
336,192,97943,2,0,L|256:192,1,52.5,8|0,0:1|0:0,0:0:0:0:
456,112,98152,1,2,0:0:0:0:
240,296,98568,5,0,0:0:0:0:
112,256,98777,1,0,0:0:0:0:
112,168,98985,1,0,0:0:0:0:
328,152,99193,1,0,0:0:0:0:
216,120,99402,1,0,0:0:0:0:
112,80,99610,1,0,0:0:0:0:
376,200,99818,6,0,L|488:200,1,105,14|0,0:0|0:0,0:0:0:0:
192,112,100235,1,2,0:0:0:0:
336,72,100443,1,8,0:0:0:0:
64,304,100652,1,12,0:1:0:0:
