osu file format v14

[General]
AudioFilename: audio.mp3
AudioLeadIn: 0
PreviewTime: 59297
Countdown: 0
SampleSet: Soft
StackLeniency: 0.7
Mode: 2
LetterboxInBreaks: 0
WidescreenStoryboard: 1

[Editor]
DistanceSpacing: 0.65
BeatDivisor: 4
GridSize: 8
TimelineZoom: 1.7

[Metadata]
Title:Koi Kou Enishi
TitleUnicode:恋ひ恋ふ縁
Artist:KOTOKO
ArtistUnicode:KOTOKO
Creator:-Luminate
Version:Cup
Source:千恋*万花
Tags:Senren Banka Senren*Banka A Thousand Colors of Love Yuzusoft eroge visual novel vn op opening japanese
BeatmapID:2300725
BeatmapSetID:1083785

[Difficulty]
HPDrainRate:3
CircleSize:3
OverallDifficulty:6
ApproachRate:6
SliderMultiplier:1.5
SliderTickRate:1

[Events]
//Background and Video events
0,0,"smallergreen.jpg",0,0
//Break Periods
//Storyboard Layer 0 (Background)
//Storyboard Layer 1 (Fail)
//Storyboard Layer 2 (Pass)
//Storyboard Layer 3 (Foreground)
//Storyboard Layer 4 (Overlay)
//Storyboard Sound Samples

[TimingPoints]
27,416.666666666667,4,2,1,45,1,0
5027,-100,4,2,1,55,0,0
18360,-100,4,2,1,40,0,0
45027,-100,4,2,1,30,0,0
56693,-100,4,2,1,35,0,0
59402,-100,4,2,1,50,0,0
59922,-100,4,2,1,5,0,0
60027,-100,4,2,1,70,0,1
86693,-100,4,2,1,55,0,0
98568,-100,4,2,1,40,0,0

[Colours]
Combo1 : 197,215,68
Combo2 : 94,179,119
Combo3 : 36,219,91
Combo4 : 157,255,157

[HitObjects]
176,280,27,6,0,P|136:200|192:168,1,150,0|0,0:0|0:0,0:0:0:0:
264,168,652,1,0,0:0:0:0:
144,96,1068,2,0,L|56:96,2,75,0|0|0,0:0|0:0|0:0,0:0:0:0:
256,96,1693,5,0,0:0:0:0:
256,192,1902,1,0,0:0:0:0:
160,232,2110,1,0,0:0:0:0:
160,232,2318,1,0,0:0:0:0:
336,312,2735,2,0,L|424:312,2,75,0|0|0,0:0|0:0|0:0,0:0:0:0:
232,312,3360,6,0,L|56:312,2,150,8|8|8,0:0|0:1|0:0,0:0:0:0:
328,256,4402,1,8,0:0:0:0:
232,208,4610,1,8,0:1:0:0:
432,184,5027,6,0,P|472:136|408:64,1,150,4|8,0:0|0:1,0:0:0:0:
344,272,5652,2,0,L|496:272,1,150,0|0,0:0|0:0,0:0:0:0:
304,207,6485,1,0,0:0:0:0:
440,248,6902,5,0,0:0:0:0:
440,248,7110,1,8,0:1:0:0:
344,248,7318,2,0,L|168:248,1,150
104,248,7943,1,8,0:1:0:0:
296,152,8360,6,0,L|368:96,2,75,8|0|8,0:0|0:0|0:1,0:0:0:0:
192,152,8985,2,0,P|152:88|208:40,1,150,0|0,0:0|0:0,0:0:0:0:
288,40,9610,1,8,0:1:0:0:
288,40,9818,1,8,0:0:0:0:
136,296,10235,5,0,0:0:0:0:
136,296,10443,1,8,0:1:0:0:
232,296,10652,2,0,L|392:296,1,150,8|0,0:0|0:0,0:0:0:0:
472,296,11277,1,8,0:1:0:0:
279,213,11693,6,0,P|247:133|295:93,1,150,4|8,0:0|0:1,0:0:0:0:
368,72,12318,2,0,L|184:72,1,150,0|0,0:0|0:0,0:0:0:0:
64,64,13152,1,0,0:0:0:0:
264,216,13568,5,0,0:0:0:0:
264,216,13777,1,8,0:1:0:0:
168,216,13985,2,0,P|72:168|56:104,1,150,0|0,0:0|0:0,0:0:0:0:
64,48,14610,1,8,0:1:0:0:
264,320,15027,6,0,L|448:320,1,150,8|8,0:0|0:1,0:0:0:0:
336,272,15652,1,0,0:0:0:0:
160,216,16068,1,0,0:0:0:0:
160,216,16277,1,8,0:1:0:0:
264,192,16485,6,0,P|304:152|248:80,1,150,0|0,0:0|0:0,0:0:0:0:
176,80,17110,1,8,0:1:0:0:
88,80,17318,1,4,0:0:0:0:
264,312,17735,2,0,L|368:312,2,75,0|8|8,0:0|0:1|0:3,0:0:0:0:
168,296,18360,5,4,0:0:0:0:
352,232,18777,2,0,P|384:176|344:88,1,150,8|8,0:1|0:0,0:0:0:0:
192,112,19610,2,0,L|192:32,1,75,8|0,0:1|0:0,0:0:0:0:
280,32,20027,5,8,0:0:0:0:
96,288,20443,2,0,P|64:208|112:152,1,150,8|8,0:1|0:0,0:0:0:0:
296,240,21277,2,0,L|296:144,1,75,8|0,0:1|0:0,0:0:0:0:
200,120,21693,6,0,L|376:120,1,150,8|8,0:0|0:1,0:0:0:0:
432,232,22318,2,0,L|256:232,1,150,0|0,0:0|0:0,0:0:0:0:
192,192,22943,1,8,0:1:0:0:
192,192,23152,1,0,0:0:0:0:
304,176,23360,6,0,P|344:128|296:64,1,150,8|8,0:0|0:1,0:0:0:0:
120,96,24193,1,8,0:0:0:0:
40,160,24402,1,0,0:0:0:0:
112,224,24610,1,8,0:1:0:0:
304,224,25027,5,8,0:0:0:0:
112,224,25443,2,0,P|184:144|256:144,1,150,8|8,0:1|0:0,0:0:0:0:
400,144,26277,2,0,L|400:48,1,75,8|0,0:1|0:0,0:0:0:0:
312,64,26693,5,0,0:0:0:0:
472,256,27110,2,0,L|320:256,1,150,8|8,0:1|0:0,0:0:0:0:
120,224,27943,2,0,L|112:128,1,75,8|0,0:1|0:0,0:0:0:0:
216,192,28360,6,0,P|256:144|200:80,1,150,8|8,0:0|0:1,0:0:0:0:
112,72,28985,2,0,L|296:72,1,150,0|0,0:0|0:0,0:0:0:0:
352,72,29610,1,8,0:1:0:0:
168,304,30027,6,0,P|136:224|184:176,1,150,8|8,0:0|0:1,0:0:0:0:
264,184,30652,1,0,0:0:0:0:
360,184,30860,2,0,P|392:120|344:48,1,150,8|8,0:0|0:1,0:0:0:0:
144,224,31693,5,4,0:0:0:0:
312,280,32110,1,8,0:1:0:0:
312,280,32318,1,0,0:0:0:0:
144,328,32735,1,0,0:0:0:0:
352,328,33152,6,0,P|432:296|456:224,1,150,0|0,0:0|0:0,0:0:0:0:
360,240,33777,1,8,0:1:0:0:
272,216,33985,2,0,P|240:136|296:88,1,150,0|0,0:0|0:0,0:0:0:0:
368,96,34610,1,8,0:1:0:0:
160,328,35027,5,8,0:0:0:0:
312,256,35443,1,8,0:1:0:0:
312,256,35652,1,0,0:0:0:0:
152,200,36068,1,0,0:0:0:0:
328,136,36485,6,0,L|144:112,1,150,0|0,0:0|0:0,0:0:0:0:
96,72,37110,1,8,0:1:0:0:
96,72,37318,2,0,L|272:64,1,150,0|0,0:0|0:0,0:0:0:0:
336,64,37943,1,8,0:1:0:0:
136,304,38360,6,0,P|96:224|144:184,1,150,12|8,0:0|0:1,0:0:0:0:
224,184,38985,2,0,L|392:184,2,150,0|0|6,0:0|0:0|0:0,0:0:0:0:
416,296,40235,5,0,0:0:0:0:
272,296,40652,1,0,0:0:0:0:
184,272,40860,2,0,P|152:208|208:152,1,150,8|8,0:0|0:1,0:0:0:0:
288,152,41485,1,8,0:0:0:0:
384,112,41693,6,0,L|224:104,2,150,4|8|8,0:0|0:1|0:0,0:0:0:0:
224,232,42943,1,8,0:1:0:0:
224,232,43152,1,0,0:0:0:0:
432,232,43568,5,0,0:0:0:0:
480,152,43777,1,8,0:1:0:0:
456,72,43985,1,0,0:0:0:0:
376,64,44193,1,8,0:0:0:0:
296,256,44402,2,0,L|464:256,1,150,4|0,0:0|0:0,0:0:0:0:
352,312,45027,5,6,0:0:0:0:
176,288,45443,2,0,L|72:288,2,75,0|0|0,0:0|0:0|0:0,0:0:0:0:
352,288,46277,1,8,0:1:0:0:
176,232,46693,6,0,L|352:232,2,150,0|0|8,0:0|0:0|0:0,0:0:0:0:
16,240,47943,1,8,0:1:0:0:
216,192,48360,6,0,P|256:144|208:64,1,150,8|0,0:0|0:0,0:0:0:0:
144,48,48985,1,0,0:0:0:0:
224,32,49193,1,0,0:0:0:0:
384,40,49610,1,8,0:1:0:0:
192,256,50027,5,8,0:0:0:0:
192,256,50235,1,0,0:0:0:0:
288,256,50443,2,0,L|448:256,1,150,0|8,0:0|0:0,0:0:0:0:
256,128,51277,1,8,0:1:0:0:
456,80,51693,5,4,0:0:0:0:
296,240,52110,1,0,0:0:0:0:
296,240,52318,1,8,0:0:0:0:
296,240,52527,1,8,0:0:0:0:
464,320,52943,2,0,L|368:320,1,75,8|0,0:1|0:0,0:0:0:0:
304,256,53360,6,0,L|456:256,2,150,8|0|8,0:0|0:0|0:0,0:0:0:0:
136,232,54610,1,8,0:1:0:0:
136,232,54818,1,0,0:0:0:0:
224,184,55027,6,0,L|64:184,2,150,8|2|8,0:0|0:0|0:0,0:0:0:0:
384,184,56277,1,8,0:1:0:0:
176,328,56693,6,0,P|144:264|192:200,1,150,10|0,0:0|0:0,0:0:0:0:
376,200,57527,2,0,P|416:152|344:80,1,150,8|8,0:0|0:1,0:0:0:0:
152,88,58360,5,0,0:0:0:0:
432,256,59402,1,8,0:1:0:0:
432,256,59610,1,8,0:1:0:0:
208,272,60027,6,0,P|168:192|232:152,1,150,4|8,0:0|0:1,0:0:0:0:
288,152,60652,1,0,0:0:0:0:
368,96,60860,2,0,L|208:96,1,150,8|8,0:0|0:1,0:0:0:0:
424,296,61693,6,0,L|424:200,1,75,8|0,0:0|0:0,0:0:0:0:
328,216,62110,2,0,L|496:216,1,150,8|8,0:1|0:0,0:0:0:0:
480,128,62735,1,0,0:0:0:0:
400,80,62943,1,8,0:1:0:0:
200,288,63360,6,0,L|368:288,1,150,8|8,0:0|0:1,0:0:0:0:
440,232,63985,1,0,0:0:0:0:
344,200,64193,2,0,L|176:200,1,150,8|8,0:0|0:1,0:0:0:0:
392,336,65027,6,0,P|424:296|368:216,1,150,8|8,0:0|0:1,0:0:0:0:
296,216,65652,1,0,0:0:0:0:
208,200,65860,2,0,P|168:128|224:88,1,150,8|8,0:0|0:1,0:0:0:0:
416,88,66693,5,4,0:0:0:0:
240,320,67110,2,0,L|240:216,1,75,8|0,0:1|0:0,0:0:0:0:
328,224,67527,2,0,L|496:224,1,150,8|8,0:0|0:1,0:0:0:0:
272,112,68360,5,8,0:0:0:0:
112,160,68777,1,8,0:1:0:0:
104,80,68985,1,0,0:0:0:0:
104,240,69193,1,8,0:0:0:0:
192,296,69402,2,0,L|32:296,1,150,0|0,0:0|0:0,0:0:0:0:
128,240,70027,6,0,L|312:240,2,150,8|8|8,0:0|0:1|0:0,0:0:0:0:
312,304,71277,1,8,0:1:0:0:
96,256,71693,6,0,P|64:192|128:136,1,150,8|8,0:0|0:1,0:0:0:0:
200,136,72318,1,0,0:0:0:0:
288,88,72527,2,0,L|136:88,1,150,8|4,0:0|0:0,0:0:0:0:
360,208,73360,5,4,0:0:0:0:
200,304,73777,1,8,0:1:0:0:
200,304,73985,1,0,0:0:0:0:
120,256,74193,2,0,L|272:256,1,150,8|8,0:0|0:1,0:0:0:0:
480,216,75027,5,8,0:0:0:0:
480,216,75235,1,0,0:0:0:0:
392,216,75443,2,0,P|352:144|408:88,1,150,8|8,0:1|0:0,0:0:0:0:
472,96,76068,1,0,0:0:0:0:
384,64,76277,1,8,0:1:0:0:
176,224,76693,6,0,L|344:224,1,150,8|8,0:0|0:1,0:0:0:0:
248,184,77318,1,0,0:0:0:0:
160,160,77527,2,0,P|120:80|168:40,1,150,8|8,0:0|0:1,0:0:0:0:
360,320,78360,6,0,P|392:240|344:200,1,150,8|8,0:0|0:1,0:0:0:0:
264,208,78985,1,0,0:0:0:0:
192,152,79193,2,0,L|360:152,1,150,10|8,0:0|0:1,0:0:0:0:
120,312,80027,5,12,0:0:0:0:
288,240,80443,1,8,0:1:0:0:
288,240,80652,1,0,0:0:0:0:
288,240,80860,1,8,0:0:0:0:
104,216,81277,1,8,0:1:0:0:
104,216,81485,1,0,0:0:0:0:
192,216,81693,6,0,L|8:216,1,150,8|8,0:0|0:1,0:0:0:0:
120,176,82318,1,0,0:0:0:0:
200,120,82527,2,0,L|48:120,1,150,8|8,0:0|0:1,0:0:0:0:
272,272,83360,6,0,L|440:272,2,150,4|8|8,0:0|0:1|0:0,0:0:0:0:
192,224,84402,1,0,0:0:0:0:
192,224,84610,1,8,0:1:0:0:
416,208,85027,6,0,P|456:144|400:80,1,150,2|8,0:0|0:0,0:0:0:0:
336,72,85652,1,8,0:1:0:0:
424,40,85860,1,8,0:0:0:0:
248,224,86277,1,8,0:0:0:0:
248,144,86485,1,8,0:3:0:0:
336,96,86693,6,0,L|184:96,1,150,4|8,0:0|0:1,0:0:0:0:
96,272,87318,2,0,L|264:272,1,150,0|0,0:0|0:0,0:0:0:0:
432,272,88151,1,0,0:0:0:0:
248,184,88568,5,0,0:0:0:0:
248,184,88776,1,8,0:1:0:0:
176,248,88985,2,0,L|352:248,1,150
416,240,89609,1,8,0:1:0:0:
216,152,90026,6,0,L|144:96,2,75,8|0|8,0:0|0:0|0:1,0:0:0:0:
320,152,90651,2,0,P|360:88|304:40,1,150,0|0,0:0|0:0,0:0:0:0:
224,40,91276,1,8,0:1:0:0:
224,40,91484,1,0,0:0:0:0:
376,296,91901,5,0,0:0:0:0:
376,296,92109,1,8,0:1:0:0:
280,296,92318,2,0,L|120:296,1,150,0|0,0:0|0:0,0:0:0:0:
40,296,92943,1,8,0:1:0:0:
240,216,93360,6,0,P|272:136|224:96,1,150,4|8,0:0|0:1,0:0:0:0:
144,64,93985,2,0,L|328:64,1,150
448,64,94818,1,0,0:0:0:0:
248,216,95234,5,0,0:0:0:0:
248,216,95443,1,8,0:1:0:0:
344,216,95651,2,0,P|440:168|456:104,1,150,0|0,0:0|0:0,0:0:0:0:
448,48,96276,1,8,0:1:0:0:
248,320,96693,6,0,L|64:320,1,150,8|8,0:0|0:1,0:0:0:0:
176,272,97318,1,0,0:0:0:0:
352,216,97734,1,8,0:3:0:0:
352,216,97943,1,8,0:1:0:0:
264,216,98152,1,2,0:0:0:0:
64,168,98777,6,0,L|240:168,2,150,0|0|0,0:0|0:0|0:0,0:0:0:0:
136,224,99818,1,14,0:0:0:0:
336,312,100235,2,0,L|240:312,2,75,2|2|12,0:0|0:0|0:1,0:0:0:0:
