osu file format v14

[General]
AudioFilename: audio.mp3
AudioLeadIn: 0
PreviewTime: 60980
Countdown: 0
SampleSet: Soft
StackLeniency: 0.7
Mode: 3
LetterboxInBreaks: 0
SpecialStyle: 0
WidescreenStoryboard: 1

[Editor]
DistanceSpacing: 1.2
BeatDivisor: 4
GridSize: 8
TimelineZoom: 1

[Metadata]
Title:Koi Kou Enishi
TitleUnicode:Koi Kou Enishi
Artist:KOTOKO
ArtistUnicode:KOTOKO
Creator:- Ly0572 -
Version:5K EZ
Source:千恋*万花
Tags:Senren Banka OP Opening Yuzu Soft Visual Novel Eroge [_Numlock_] Aikawa Virtue- Kyousuke- Damaree AlisceaSparku
BeatmapID:1307494
BeatmapSetID:617281

[Difficulty]
HPDrainRate:7
CircleSize:5
OverallDifficulty:7
ApproachRate:5
SliderMultiplier:1.4
SliderTickRate:1

[Events]
//Background and Video events
0,0,"EZ.jpg",0,0
//Break Periods
//Storyboard Layer 0 (Background)
//Storyboard Layer 1 (Fail)
//Storyboard Layer 2 (Pass)
//Storyboard Layer 3 (Foreground)
//Storyboard Sound Samples

[TimingPoints]
1710,416.666666666667,4,2,1,50,1,0
61710,-100,4,2,1,50,0,1
74210,-100,4,2,1,50,0,0
75043,-100,4,2,1,50,0,1
88376,-100,4,2,1,50,0,0

[HitObjects]
460,192,1710,5,0,0:0:0:25:soft-hitnormal3.wav
358,192,1918,1,0,0:0:0:25:soft-hitnormal3.wav
51,192,2126,1,0,0:0:0:25:soft-hitnormal3.wav
153,192,2335,1,0,0:0:0:25:soft-hitnormal3.wav
256,192,2751,1,0,0:0:0:25:soft-hitnormal3.wav
358,192,2960,1,0,0:0:0:25:soft-hitnormal3.wav
153,192,3168,1,0,0:0:0:25:soft-hitnormal3.wav
460,192,3376,1,0,0:0:0:25:soft-hitnormal3.wav
358,192,3585,1,0,0:0:0:25:soft-hitnormal3.wav
51,192,3793,1,0,0:0:0:25:soft-hitnormal3.wav
153,192,4001,1,0,0:0:0:25:soft-hitnormal3.wav
358,192,4418,1,0,0:0:0:25:soft-hitnormal3.wav
460,192,4626,1,0,0:0:0:25:soft-hitnormal3.wav
153,192,4835,1,0,0:0:0:25:soft-hitnormal3.wav
256,192,5043,1,0,0:0:0:0:
256,192,5251,1,0,0:0:0:0:
460,192,5460,1,0,0:0:0:0:
358,192,5460,1,0,0:0:0:25:soft-hitnormal3.wav
153,192,5668,1,0,0:0:0:0:
51,192,5876,1,0,0:0:0:0:
358,192,6085,1,0,0:0:0:0:
256,192,6293,128,0,6710:0:0:0:0:
460,192,6710,1,0,0:0:0:0:
358,192,6918,1,0,0:0:0:25:soft-hitnormal3.wav
153,192,7126,1,0,0:0:0:0:
51,192,7335,128,0,7751:0:0:0:25:soft-hitnormal3.wav
256,192,7751,1,0,0:0:0:25:soft-hitnormal3.wav
358,192,8168,1,0,0:0:0:25:soft-hitnormal3.wav
256,192,8585,1,0,0:0:0:25:soft-hitnormal3.wav
153,192,8793,1,0,0:0:0:0:
51,192,9001,128,0,9418:0:0:0:25:soft-hitnormal3.wav
460,192,9418,1,0,0:0:0:25:soft-hitnormal3.wav
460,192,9626,1,0,0:0:0:0:
153,192,9835,1,0,0:0:0:0:
153,192,10043,1,0,0:0:0:0:
358,192,10251,1,0,0:0:0:25:soft-hitnormal3.wav
460,192,10460,1,0,0:0:0:0:
256,192,10668,128,0,11085:0:0:0:25:soft-hitnormal3.wav
153,192,11085,1,0,0:0:0:25:soft-hitnormal3.wav
51,192,11293,1,0,0:0:0:0:
256,192,11501,128,0,11918:0:0:0:25:soft-hitnormal3.wav
460,192,11918,1,0,0:0:0:25:soft-hitnormal3.wav
358,192,12126,1,0,0:0:0:0:
256,192,12335,128,0,12751:0:0:0:25:soft-hitnormal3.wav
51,192,12751,1,0,0:0:0:25:soft-hitnormal3.wav
51,192,12960,1,0,0:0:0:0:
358,192,13168,1,0,0:0:0:0:
358,192,13376,1,0,0:0:0:0:
153,192,13585,1,0,0:0:0:25:soft-hitnormal3.wav
51,192,13793,1,0,0:0:0:0:
256,192,14001,128,0,14418:0:0:0:25:soft-hitnormal3.wav
460,192,14418,1,0,0:0:0:25:soft-hitnormal3.wav
358,192,14835,1,0,0:0:0:25:soft-hitnormal3.wav
51,192,15251,1,0,0:0:0:25:soft-hitnormal3.wav
153,192,15460,1,0,0:0:0:0:
256,192,15668,128,0,16085:0:0:0:25:soft-hitnormal3.wav
460,192,16085,1,0,0:0:0:25:soft-hitnormal3.wav
460,192,16293,1,0,0:0:0:0:
153,192,16501,1,0,0:0:0:0:
153,192,16710,1,0,0:0:0:0:
358,192,16918,1,0,0:0:0:25:soft-hitnormal3.wav
460,192,17126,1,0,0:0:0:0:
256,192,17335,128,0,17751:0:0:0:25:soft-hitnormal3.wav
153,192,17751,1,0,0:0:0:25:soft-hitnormal3.wav
51,192,17960,1,0,0:0:0:0:
256,192,18168,128,0,18585:0:0:0:25:soft-hitnormal3.wav
460,192,18585,1,0,0:0:0:25:soft-hitnormal3.wav
358,192,18793,1,0,0:0:0:0:
256,192,19001,1,0,0:0:0:25:soft-hitnormal3.wav
153,192,19418,1,0,0:0:0:0:
51,192,19626,128,0,20043:0:0:0:0:
256,192,20043,1,0,0:0:0:0:
460,192,20460,1,0,0:0:0:0:
358,192,20876,1,0,0:0:0:0:
51,192,21293,1,0,0:0:0:0:
153,192,21710,1,0,0:0:0:0:
358,192,22126,1,0,0:0:0:0:
256,192,22543,1,0,0:0:0:0:
460,192,22960,1,0,0:0:0:0:
358,192,23376,1,0,0:0:0:0:
153,192,23793,1,0,0:0:0:0:
256,192,24210,1,0,0:0:0:0:
460,192,24418,1,0,0:0:0:25:soft-hitnormal3.wav
51,192,24626,1,0,0:0:0:0:
256,192,24835,1,0,0:0:0:25:soft-hitnormal3.wav
153,192,25043,1,0,0:0:0:0:
358,192,25251,1,0,0:0:0:25:soft-hitnormal3.wav
460,192,25460,1,0,0:0:0:0:
256,192,25668,1,0,0:0:0:25:soft-hitnormal3.wav
51,192,25876,1,0,0:0:0:0:
153,192,26085,1,0,0:0:0:25:soft-hitnormal3.wav
358,192,26293,1,0,0:0:0:0:
358,192,26501,1,0,0:0:0:0:
153,192,26710,1,0,0:0:0:0:
51,192,27126,1,0,0:0:0:0:
256,192,27543,1,0,0:0:0:0:
460,192,27960,1,0,0:0:0:0:
358,192,28376,1,0,0:0:0:0:
153,192,28793,1,0,0:0:0:0:
256,192,29210,1,0,0:0:0:0:
51,192,29626,1,0,0:0:0:0:
153,192,30043,1,0,0:0:0:0:
358,192,30460,1,0,0:0:0:0:
153,192,30668,1,0,0:0:0:25:soft-hitnormal3.wav
256,192,30876,1,0,0:0:0:0:
51,192,31085,1,0,0:0:0:25:soft-hitnormal3.wav
460,192,31293,1,0,0:0:0:0:
256,192,31501,1,0,0:0:0:25:soft-hitnormal3.wav
358,192,31710,1,0,0:0:0:0:
153,192,31918,1,0,0:0:0:25:soft-hitnormal3.wav
51,192,32126,1,0,0:0:0:0:
256,192,32335,1,0,0:0:0:25:soft-hitnormal3.wav
460,192,32543,1,0,0:0:0:0:
358,192,32751,1,0,0:0:0:25:soft-hitnormal3.wav
153,192,32960,1,0,0:0:0:0:
153,192,33168,1,0,0:0:0:0:
358,192,33376,1,0,0:0:0:0:
460,192,33585,1,0,0:0:0:25:soft-hitnormal3.wav
51,192,33793,1,0,0:0:0:0:
153,192,34001,1,0,0:0:0:25:soft-hitnormal3.wav
358,192,34418,1,0,0:0:0:25:soft-hitnormal3.wav
256,192,34835,1,0,0:0:0:25:soft-hitnormal3.wav
153,192,35251,1,0,0:0:0:25:soft-hitnormal3.wav
358,192,35668,1,0,0:0:0:25:soft-hitnormal3.wav
460,192,36293,1,0,0:0:0:0:
256,192,36710,1,0,0:0:0:0:
153,192,36918,1,0,0:0:0:25:soft-hitnormal3.wav
51,192,37126,1,0,0:0:0:0:
460,192,37335,1,0,0:0:0:25:soft-hitnormal3.wav
358,192,37751,1,0,0:0:0:25:soft-hitnormal3.wav
153,192,38168,1,0,0:0:0:25:soft-hitnormal3.wav
460,192,38585,1,0,0:0:0:25:soft-hitnormal3.wav
256,192,39001,1,0,0:0:0:25:soft-hitnormal3.wav
256,192,39626,128,0,40043:0:0:0:0:
153,192,40043,1,0,0:0:0:0:
358,192,40251,1,0,0:0:0:25:soft-hitnormal3.wav
153,192,40460,1,0,0:0:0:0:
358,192,40668,1,0,0:0:0:0:
51,192,41085,1,0,0:0:0:0:
460,192,41501,1,0,0:0:0:0:
51,192,41918,1,0,0:0:0:0:
460,192,42335,1,0,0:0:0:0:
153,192,42751,1,0,0:0:0:0:
256,192,42960,1,0,0:0:0:0:
460,192,43168,1,0,0:0:0:0:
358,192,43376,1,0,0:0:0:0:
51,192,43585,1,0,0:0:0:0:
153,192,43793,1,0,0:0:0:0:
358,192,44001,1,0,0:0:0:0:
256,192,44210,1,0,0:0:0:0:
51,192,44418,1,0,0:0:0:0:
153,192,44626,1,0,0:0:0:0:
460,192,44835,1,0,0:0:0:0:
358,192,45043,1,0,0:0:0:0:
153,192,45251,1,0,0:0:0:25:soft-hitnormal3.wav
358,192,45460,1,0,0:0:0:0:
153,192,45668,5,0,0:0:0:25:soft-hitnormal3.wav
358,192,45876,1,0,0:0:0:0:
51,192,46085,128,0,46710:0:0:0:0:
460,192,46710,5,0,0:0:0:0:
256,192,47335,1,0,0:0:0:0:
358,192,47543,1,0,0:0:0:0:
153,192,47960,1,0,0:0:0:0:
51,192,48376,1,0,0:0:0:0:
256,192,49001,1,0,0:0:0:0:
358,192,49210,1,0,0:0:0:0:
51,192,49626,1,0,0:0:0:0:
460,192,50043,1,0,0:0:0:0:
256,192,50668,1,0,0:0:0:0:
153,192,50876,1,0,0:0:0:0:
460,192,51293,1,0,0:0:0:0:
51,192,51710,1,0,0:0:0:0:
153,192,52335,1,0,0:0:0:0:
256,192,52543,1,0,0:0:0:0:
460,192,52960,1,0,0:0:0:0:
51,192,53376,1,0,0:0:0:0:
358,192,54001,1,0,0:0:0:0:
460,192,54210,1,0,0:0:0:0:
256,192,54626,1,0,0:0:0:0:
358,192,55043,1,0,0:0:0:0:
153,192,55668,1,0,0:0:0:0:
51,192,55876,1,0,0:0:0:0:
256,192,56293,1,0,0:0:0:0:
153,192,56710,1,0,0:0:0:0:
358,192,57126,1,0,0:0:0:0:
51,192,57335,1,0,0:0:0:0:
51,192,57543,1,0,0:0:0:0:
256,192,57960,5,0,0:0:0:0:
358,192,58376,1,0,0:0:0:0:
153,192,58793,1,0,0:0:0:0:
460,192,59001,1,0,0:0:0:0:
460,192,59210,1,0,0:0:0:0:
51,192,59626,1,0,0:0:0:0:
256,192,60043,1,0,0:0:0:0:
153,192,61085,1,0,0:0:0:0:
358,192,61293,1,0,0:0:0:0:
460,192,61293,1,0,0:0:0:0:
51,192,61710,1,0,0:0:0:0:
153,192,61918,1,0,0:0:0:0:
256,192,62126,1,0,0:0:0:0:
460,192,62126,1,0,0:0:0:25:soft-hitnormal3.wav
358,192,62335,1,0,0:0:0:25:soft-hitnormal3.wav
153,192,62751,1,0,0:0:0:25:soft-hitnormal3.wav
256,192,62960,1,0,0:0:0:0:
358,192,62960,1,0,0:0:0:0:
51,192,63168,1,0,0:0:0:25:soft-hitnormal3.wav
153,192,63376,1,0,0:0:0:0:
256,192,63585,1,0,0:0:0:25:soft-hitnormal3.wav
460,192,63793,1,0,0:0:0:0:
358,192,63793,1,0,0:0:0:0:
460,192,64210,1,0,0:0:0:0:
153,192,64210,1,0,0:0:0:0:
460,192,65043,1,0,0:0:0:0:
358,192,65251,1,0,0:0:0:25:soft-hitnormal3.wav
256,192,65460,1,0,0:0:0:0:
51,192,65460,1,0,0:0:0:25:soft-hitnormal3.wav
153,192,65668,1,0,0:0:0:25:soft-hitnormal3.wav
358,192,66085,1,0,0:0:0:25:soft-hitnormal3.wav
256,192,66293,1,0,0:0:0:0:
153,192,66293,1,0,0:0:0:0:
460,192,66501,1,0,0:0:0:25:soft-hitnormal3.wav
358,192,66710,1,0,0:0:0:0:
256,192,66918,1,0,0:0:0:25:soft-hitnormal3.wav
51,192,67126,1,0,0:0:0:0:
153,192,67126,1,0,0:0:0:0:
51,192,67543,1,0,0:0:0:0:
358,192,67543,1,0,0:0:0:0:
460,192,68376,1,0,0:0:0:0:
358,192,68376,1,0,0:0:0:0:
153,192,68585,1,0,0:0:0:25:soft-hitnormal3.wav
51,192,68793,1,0,0:0:0:0:
460,192,68793,1,0,0:0:0:0:
256,192,69001,1,0,0:0:0:25:soft-hitnormal3.wav
256,192,69418,1,0,0:0:0:25:soft-hitnormal3.wav
358,192,69626,1,0,0:0:0:0:
153,192,69626,1,0,0:0:0:0:
460,192,69835,1,0,0:0:0:25:soft-hitnormal3.wav
51,192,70043,1,0,0:0:0:0:
153,192,70251,1,0,0:0:0:25:soft-hitnormal3.wav
256,192,70460,1,0,0:0:0:0:
358,192,70460,1,0,0:0:0:0:
256,192,70876,1,0,0:0:0:0:
460,192,70876,1,0,0:0:0:0:
153,192,71710,1,0,0:0:0:0:
358,192,71918,1,0,0:0:0:25:soft-hitnormal3.wav
460,192,72126,1,0,0:0:0:0:
51,192,72126,1,0,0:0:0:0:
256,192,72335,1,0,0:0:0:25:soft-hitnormal3.wav
256,192,72751,1,0,0:0:0:25:soft-hitnormal3.wav
153,192,72960,1,0,0:0:0:0:
358,192,72960,1,0,0:0:0:0:
51,192,73168,1,0,0:0:0:25:soft-hitnormal3.wav
256,192,73376,1,0,0:0:0:0:
358,192,73585,1,0,0:0:0:25:soft-hitnormal3.wav
460,192,73793,1,0,0:0:0:0:
153,192,73793,1,0,0:0:0:0:
256,192,74001,1,0,0:0:0:25:soft-hitnormal3.wav
358,192,74210,1,0,0:0:0:0:
51,192,74210,1,0,0:0:0:0:
153,192,74418,1,0,0:0:0:25:soft-hitnormal3.wav
256,192,74626,128,0,75043:0:0:0:0:
51,192,75043,1,0,0:0:0:0:
358,192,75251,1,0,0:0:0:0:
460,192,75460,1,0,0:0:0:0:
153,192,75460,1,0,0:0:0:0:
256,192,75668,1,0,0:0:0:25:soft-hitnormal3.wav
256,192,76085,1,0,0:0:0:25:soft-hitnormal3.wav
51,192,76293,1,0,0:0:0:0:
358,192,76293,1,0,0:0:0:0:
153,192,76501,1,0,0:0:0:25:soft-hitnormal3.wav
460,192,76710,1,0,0:0:0:0:
358,192,76918,1,0,0:0:0:25:soft-hitnormal3.wav
256,192,77126,1,0,0:0:0:0:
153,192,77126,1,0,0:0:0:0:
256,192,77543,1,0,0:0:0:0:
51,192,77543,1,0,0:0:0:0:
256,192,78376,1,0,0:0:0:0:
153,192,78585,1,0,0:0:0:25:soft-hitnormal3.wav
51,192,78793,1,0,0:0:0:0:
460,192,78793,1,0,0:0:0:0:
358,192,79001,1,0,0:0:0:25:soft-hitnormal3.wav
256,192,79418,1,0,0:0:0:25:soft-hitnormal3.wav
460,192,79626,1,0,0:0:0:0:
153,192,79626,1,0,0:0:0:0:
358,192,79835,1,0,0:0:0:25:soft-hitnormal3.wav
51,192,80043,1,0,0:0:0:0:
153,192,80251,1,0,0:0:0:25:soft-hitnormal3.wav
256,192,80460,1,0,0:0:0:0:
358,192,80460,1,0,0:0:0:0:
256,192,80876,1,0,0:0:0:0:
460,192,80876,1,0,0:0:0:0:
51,192,81710,1,0,0:0:0:0:
256,192,81918,1,0,0:0:0:25:soft-hitnormal3.wav
51,192,82126,1,0,0:0:0:0:
358,192,82335,1,0,0:0:0:25:soft-hitnormal3.wav
153,192,82543,1,0,0:0:0:0:
358,192,82751,1,0,0:0:0:25:soft-hitnormal3.wav
460,192,82960,1,0,0:0:0:0:
256,192,83168,1,0,0:0:0:25:soft-hitnormal3.wav
460,192,83376,1,0,0:0:0:0:
153,192,83585,1,0,0:0:0:25:soft-hitnormal3.wav
358,192,83793,1,0,0:0:0:0:
153,192,84001,1,0,0:0:0:25:soft-hitnormal3.wav
256,192,84210,1,0,0:0:0:0:
51,192,84418,1,0,0:0:0:0:
256,192,84626,1,0,0:0:0:0:
358,192,85043,1,0,0:0:0:0:
460,192,85043,1,0,0:0:0:0:
51,192,85251,1,0,0:0:0:25:soft-hitnormal3.wav
153,192,85460,1,0,0:0:0:0:
256,192,85460,1,0,0:0:0:0:
460,192,85668,1,0,0:0:0:25:soft-hitnormal3.wav
358,192,85876,1,0,0:0:0:0:
51,192,86085,1,0,0:0:0:25:soft-hitnormal3.wav
256,192,86293,1,0,0:0:0:0:
460,192,86293,1,0,0:0:0:0:
153,192,86501,1,0,0:0:0:25:soft-hitnormal3.wav
358,192,86710,1,0,0:0:0:0:
51,192,86918,1,0,0:0:0:0:
256,192,87335,1,0,0:0:0:0:
153,192,87751,1,0,0:0:0:0:
460,192,87960,1,0,0:0:0:0:
358,192,88168,1,0,0:0:0:0:
51,192,88376,1,0,0:0:0:0:
256,192,88376,1,0,0:0:0:0:
153,192,88585,1,0,0:0:0:25:soft-hitnormal3.wav
358,192,88793,1,0,0:0:0:0:
460,192,89001,128,0,89418:0:0:0:25:soft-hitnormal3.wav
256,192,89418,1,0,0:0:0:25:soft-hitnormal3.wav
153,192,89835,128,0,90251:0:0:0:25:soft-hitnormal3.wav
256,192,90251,1,0,0:0:0:25:soft-hitnormal3.wav
358,192,90460,1,0,0:0:0:0:
460,192,90668,128,0,91085:0:0:0:25:soft-hitnormal3.wav
51,192,91085,1,0,0:0:0:25:soft-hitnormal3.wav
51,192,91293,1,0,0:0:0:0:
358,192,91501,1,0,0:0:0:0:
358,192,91710,1,0,0:0:0:0:
153,192,91918,1,0,0:0:0:25:soft-hitnormal3.wav
51,192,92126,1,0,0:0:0:0:
256,192,92335,128,0,92751:0:0:0:25:soft-hitnormal3.wav
358,192,92751,1,0,0:0:0:25:soft-hitnormal3.wav
460,192,92960,1,0,0:0:0:0:
256,192,93168,128,0,93585:0:0:0:25:soft-hitnormal3.wav
51,192,93585,1,0,0:0:0:25:soft-hitnormal3.wav
153,192,93793,1,0,0:0:0:0:
256,192,94001,128,0,94418:0:0:0:25:soft-hitnormal3.wav
460,192,94418,1,0,0:0:0:25:soft-hitnormal3.wav
460,192,94626,1,0,0:0:0:0:
153,192,94835,1,0,0:0:0:25:soft-hitnormal3.wav
153,192,95043,1,0,0:0:0:0:
358,192,95251,1,0,0:0:0:25:soft-hitnormal3.wav
460,192,95460,1,0,0:0:0:0:
256,192,95668,128,0,96085:0:0:0:25:soft-hitnormal3.wav
51,192,96085,1,0,0:0:0:25:soft-hitnormal3.wav
153,192,96501,128,0,96918:0:0:0:25:soft-hitnormal3.wav
460,192,96918,1,0,0:0:0:25:soft-hitnormal3.wav
358,192,97126,1,0,0:0:0:0:
256,192,97335,1,0,0:0:0:25:soft-hitnormal3.wav
51,192,97751,1,0,0:0:0:25:soft-hitnormal3.wav
51,192,97960,1,0,0:0:0:0:
358,192,98168,1,0,0:0:0:0:
358,192,98376,1,0,0:0:0:0:
153,192,98585,1,0,0:0:0:25:soft-hitnormal3.wav
51,192,98793,1,0,0:0:0:0:
256,192,99001,128,0,99418:0:0:0:25:soft-hitnormal3.wav
358,192,99418,1,0,0:0:0:0:
460,192,99626,1,0,0:0:0:0:
256,192,99835,1,0,0:0:0:0:
51,192,100251,1,0,0:0:0:0:
153,192,100460,1,0,0:0:0:0:
256,192,100668,1,0,0:0:0:0:
460,192,100876,1,0,0:0:0:0:
358,192,101085,1,0,0:0:0:0:
51,192,101293,1,0,0:0:0:0:
256,192,101501,128,0,101918:0:0:0:0:
153,192,101918,1,0,0:0:0:0:
358,192,102126,1,0,0:0:0:0:
51,192,102335,1,0,0:0:0:0:
460,192,102335,1,0,0:0:0:0:
