osu file format v14

[General]
AudioFilename: audio.mp3
AudioLeadIn: 0
PreviewTime: 191883
Countdown: 0
SampleSet: Soft
StackLeniency: 0.6
Mode: 0
LetterboxInBreaks: 0
WidescreenStoryboard: 0

[Editor]
Bookmarks: 30321,93479,116216,171795,228479
DistanceSpacing: 1
BeatDivisor: 4
GridSize: 4
TimelineZoom: 1.9

[Metadata]
Title:INFINITE SKY
TitleUnicode:INFINITE SKY
Artist:KOTOKO
ArtistUnicode:KOTOKO
Creator:Yogurtt
Version:Eternity
Source:蒼の彼方のフォーリズム
Tags:op opening 2 aokana ao no kanata four rhythms across the blue visual novel vn bgm japanese pop jpop eroge amateurre -keqing frozz shikibe mayu kazato asa shizuku- lasse skyflame
BeatmapID:2962071
BeatmapSetID:1439625

[Difficulty]
HPDrainRate:6
CircleSize:4
OverallDifficulty:9
ApproachRate:9.3
SliderMultiplier:1.65
SliderTickRate:1

[Events]
//Background and Video events
0,0,"yogurttbg.jpg",0,0
//Break Periods
2,172031,180119
//Storyboard Layer 0 (Background)
//Storyboard Layer 1 (Fail)
//Storyboard Layer 2 (Pass)
//Storyboard Layer 3 (Foreground)
//Storyboard Layer 4 (Overlay)
//Storyboard Sound Samples

[TimingPoints]
2568,315.789473684211,4,2,1,40,1,0
3199,-142.857142857143,4,2,1,40,0,0
13304,-500.000000000003,4,2,1,40,0,0
13936,-500.000000000003,4,2,1,5,0,0
14252,-111.111111111111,4,2,1,50,0,0
15041,-111.111111111111,4,2,1,45,0,0
29094,-100,4,2,1,50,0,0
40462,-153.846153846153,4,2,1,50,0,0
40778,-83.3333333333333,4,2,1,50,0,0
41568,-100,4,2,1,50,0,0
45515,-153.846153846153,4,2,1,50,0,0
45831,-83.3333333333333,4,2,1,50,0,0
46620,-100,4,2,1,50,0,0
58146,-100,4,2,2,50,0,0
58462,-100,4,2,1,50,0,0
60673,-100,4,2,2,70,0,1
60831,-100,4,2,1,70,0,1
70462,-100,4,2,1,70,0,0
70778,-100,4,2,1,70,0,1
83094,-100,4,2,2,70,0,1
83251,-100,4,2,1,70,0,1
84673,-100,4,2,1,70,0,0
85936,-142.857142857143,4,2,1,40,0,0
93041,-100,4,2,1,60,0,0
116252,-100,4,2,1,30,0,0
118778,-100,4,2,1,50,0,0
120041,-100,4,2,1,60,0,0
121304,-166.666666666667,4,2,1,40,0,0
121620,-83.3333333333333,4,2,1,60,0,0
122410,-100,4,2,1,60,0,0
136462,-100,4,2,2,70,0,1
136620,-100,4,2,1,70,0,1
146252,-100,4,2,1,70,0,0
146568,-100,4,2,1,70,0,1
158883,-100,4,2,2,70,0,1
159040,-100,4,2,1,70,0,1
160462,-100,4,2,1,70,0,0
161410,-166.666666666667,4,2,1,70,0,0
161725,-83.3333333333333,4,2,1,70,0,0
162041,-100,4,2,1,70,0,0
189515,-100,4,2,2,70,0,0
189673,-100,4,2,1,70,0,0
192041,-166.666666666667,4,2,1,70,0,0
192357,-100,4,2,3,70,0,1
192514,-100,4,2,1,70,0,1
201831,-100,4,2,1,70,0,0
202146,-100,4,2,1,70,0,1
214462,-100,4,2,2,70,0,1
214619,-100,4,2,1,70,0,1
216041,-100,4,2,1,70,0,0
217304,-166.666666666667,4,2,1,40,0,0
227725,-166.666666666667,4,2,1,70,0,0
228199,-100,4,2,1,70,0,0
228514,-100,4,2,2,70,0,0
228594,-100,4,2,2,70,0,0
229304,-100,4,2,2,70,0,0
229936,-100,4,2,2,70,0,0
230568,-100,4,2,2,70,0,0
231199,-100,4,2,2,5,0,0

[Colours]
Combo1 : 234,182,104
Combo2 : 233,122,205
Combo3 : 132,143,225
Combo4 : 185,81,128

[HitObjects]
401,115,2568,5,6,2:2:0:0:
327,93,2725,1,2,2:2:0:0:
267,140,2883,1,2,2:2:0:0:
265,214,3041,1,2,2:2:0:0:
345,180,3199,6,0,P|402:167|467:166,2,115.49999647522,2|2|2,2:2|2:2|2:2,0:0:0:0:
237,122,4146,1,2,2:2:0:0:
293,66,4304,2,0,P|302:26|307:-7,1,57.7499982376099,2|0,2:2|0:0,0:0:0:0:
145,100,4620,5,2,2:2:0:0:
134,85,4778,1,2,2:2:0:0:
148,75,4936,1,2,2:2:0:0:
229,144,5094,6,0,P|267:148|297:153,1,57.7499982376099,2|2,2:2|2:2,0:0:0:0:
165,196,5410,1,2,2:2:0:0:
257,280,5568,2,0,P|254:251|249:222,1,57.7499982376099,2|0,2:2|0:0,0:0:0:0:
135,239,5883,5,2,2:2:0:0:
138,220,6041,1,2,2:2:0:0:
121,217,6199,1,2,2:2:0:0:
108,339,6357,6,0,P|176:327|280:312,1,173.24999471283,2|2,2:2|2:2,0:0:0:0:
366,290,6989,2,0,P|359:339|354:372,2,57.7499982376099,2|2|0,2:2|2:2|0:0,0:0:0:0:
286,138,7620,5,2,2:2:0:0:
328,212,7778,1,2,2:2:0:0:
401,178,7936,1,2,2:2:0:0:
328,212,8094,1,2,2:2:0:0:
431,97,8252,6,0,L|417:231,1,115.49999647522,2|2,2:2|2:2,0:0:0:0:
347,121,8725,1,2,2:2:0:0:
347,121,8883,2,0,P|310:116|275:103,1,57.7499982376099,2|2,2:2|2:2,0:0:0:0:
202,234,9199,2,0,P|229:226|329:220,1,115.49999647522
159,154,9673,5,2,2:2:0:0:
202,234,9831,1,2,2:2:0:0:
141,295,9989,1,2,2:2:0:0:
159,154,10146,6,0,P|150:101|142:34,1,115.49999647522,2|0,2:2|0:0,0:0:0:0:
344,112,10620,1,2,2:2:0:0:
344,112,10778,2,0,P|291:103|224:95,1,115.49999647522,2|0,2:2|0:0,0:0:0:0:
122,261,11410,6,0,P|180:254|237:245,1,115.49999647522,2|0,2:2|0:0,0:0:0:0:
338,193,11883,1,2,2:2:0:0:
338,193,12041,2,0,P|329:246|321:313,1,115.49999647522,2|0,2:2|0:0,0:0:0:0:
213,163,12673,5,2,2:2:0:0:
124,343,13146,1,2,2:2:0:0:
124,343,13304,2,0,P|82:354|56:361,1,66,2|0,2:2|0:0,0:0:0:0:
267,226,14252,5,10,2:2:0:0:
240,142,14410,1,2,1:2:0:0:
146,202,14568,1,10,2:2:0:0:
294,241,14725,2,0,P|355:230|392:227,1,74.2499977340699,2|0,1:2|0:0,0:0:0:0:
367,82,15041,6,0,P|314:130|229:140,1,148.49999546814,6|2,1:2|2:2,0:0:0:0:
135,94,15515,1,2,2:2:0:0:
135,94,15673,1,2,1:2:0:0:
59,183,15831,2,0,P|68:243|78:284,1,74.2499977340699,2|2,1:2|2:2,0:0:0:0:
265,309,16146,2,0,P|256:249|246:208,1,74.2499977340699,2|2,2:2|2:2,0:0:0:0:
146,175,16462,6,0,P|155:235|179:354,1,148.49999546814,2|2,1:2|2:2,0:0:0:0:
287,348,16936,1,2,1:2:0:0:
409,242,17094,2,0,P|349:251|308:261,1,74.2499977340699,2|2,2:2|2:2,0:0:0:0:
253,235,17410,1,2,2:2:0:0:
414,160,17568,5,2,1:2:0:0:
414,160,17646,1,0,1:0:0:0:
414,160,17725,2,0,P|460:182|475:283,1,148.49999546814,2|2,1:2|2:2,0:0:0:0:
335,253,18199,1,2,1:2:0:0:
414,160,18357,2,0,L|424:62,1,74.2499977340699,2|2,2:2|2:2,0:0:0:0:
260,123,18673,2,0,L|358:113,1,74.2499977340699,2|2,2:2|2:2,0:0:0:0:
362,25,18989,6,0,L|197:44,1,148.49999546814,2|2,1:2|1:2,0:0:0:0:
140,17,19462,1,2,1:2:0:0:
180,109,19620,1,2,2:2:0:0:
31,201,19778,2,0,P|11:173|20:132,1,74.2499977340699,2|2,2:2|2:2,0:0:0:0:
101,90,20094,1,2,1:2:0:0:
192,197,20252,1,2,1:2:0:0:
192,197,20568,6,0,P|152:190|100:190,1,74.2499977340699,2|2,2:2|1:2,0:0:0:0:
251,315,20883,2,0,P|291:322|343:322,1,74.2499977340699,2|0,2:2|0:0,0:0:0:0:
402,265,21199,1,2,2:2:0:0:
371,194,21357,1,0,0:0:0:0:
466,135,21515,6,0,P|495:167|488:269,1,148.49999546814,2|2,1:2|2:2,0:0:0:0:
346,184,21989,2,0,L|175:205,1,148.49999546814,2|0,1:2|0:0,0:0:0:0:
229,119,22462,2,0,L|302:109,1,74.2499977340699,2|0,2:2|0:0,0:0:0:0:
150,269,22778,6,0,P|116:217|152:134,1,148.49999546814,2|0,1:2|0:0,0:0:0:0:
159,21,23252,2,0,B|124:64|124:64|5:79,1,148.49999546814,0|0,1:1|0:0,0:0:0:0:
41,180,23725,1,2,2:2:0:0:
143,140,23883,1,2,2:2:0:0:
120,257,24041,6,0,P|109:311|104:351,1,74.2499977340699,2|0,1:2|0:0,0:0:0:0:
300,292,24357,2,0,P|263:297|227:305,1,74.2499977340699,2|0,2:2|1:1,0:0:0:0:
198,205,24673,2,0,P|234:199|270:191,1,74.2499977340699,2|0,2:2|0:0,0:0:0:0:
395,113,24989,2,0,P|359:152|378:228,1,111.374996601105,2|0,2:2|0:0,0:0:0:0:
391,225,25304,5,2,1:2:0:0:
391,225,25462,1,2,2:2:0:0:
292,102,25620,2,0,P|227:68|126:91,2,148.49999546814,2|0|2,2:2|0:0|2:2,0:0:0:0:
205,168,26410,1,2,2:2:0:0:
91,132,26568,6,0,P|57:130|-3:137,1,74.2499977340699,0|0,1:1|0:0,0:0:0:0:
154,75,26883,1,2,2:2:0:0:
191,153,27041,2,0,P|196:227|200:300,1,148.49999546814,2|0,1:2|0:0,0:0:0:0:
117,255,27515,2,0,P|75:265|23:283,1,74.2499977340699,2|2,2:2|2:2,0:0:0:0:
129,345,27831,6,0,P|170:376|262:363,2,148.49999546814,0|0|0,1:1|0:0|0:0,0:0:0:0:
239,232,28620,1,0,0:0:0:0:
318,243,28778,1,0,0:0:0:0:
334,319,28936,1,0,0:0:0:0:
269,156,29094,5,2,1:2:0:0:
410,245,29252,1,0,1:1:0:0:
236,345,29410,1,8,2:2:0:0:
295,137,29568,5,8,2:2:0:0:
295,137,29646,1,8,2:2:0:0:
295,137,29725,1,10,2:2:0:0:
362,369,29883,2,0,L|348:297,1,41.25,8|0,2:3|0:0,0:0:0:0:
396,163,30041,2,0,L|388:203,1,41.25,4|0,2:3|0:0,0:0:0:0:
221,266,30199,2,0,L|261:258,1,41.25,0|0,1:1|0:0,0:0:0:0:
459,341,30357,6,0,P|486:312|461:194,1,165,6|10,1:2|2:2,0:0:0:0:
372,84,30831,1,2,2:2:0:0:
280,155,30989,1,2,1:2:0:0:
181,47,31146,1,0,1:1:0:0:
181,47,31225,1,0,1:0:0:0:
181,47,31304,2,0,L|278:71,1,82.5,10|0,2:2|0:0,0:0:0:0:
323,19,31620,5,2,1:2:0:0:
396,163,31778,1,0,0:0:0:0:
228,227,31936,1,10,2:2:0:0:
299,137,32094,1,2,2:2:0:0:
299,137,32173,1,0,1:0:0:0:
299,137,32252,2,0,P|309:182|323:234,1,82.5,0|0,1:1|1:1,0:0:0:0:
139,319,32568,2,0,P|128:273|115:222,1,82.5,10|0,2:2|0:0,0:0:0:0:
207,183,32883,6,0,B|191:275|242:250|224:374,1,165,2|8,1:2|2:2,0:0:0:0:
130,156,33357,1,0,0:0:0:0:
300,242,33515,2,0,P|361:228|413:220,1,82.5,0|0,1:1|1:1,0:0:0:0:
416,146,33831,1,10,2:2:0:0:
297,108,33989,1,2,1:2:0:0:
452,322,34146,6,0,P|391:308|339:300,1,82.5,2|0,1:2|1:1,0:0:0:0:
133,297,34462,2,0,P|119:358|111:410,1,82.5,10|0,2:2|0:0,0:0:0:0:
290,347,34778,2,0,P|282:306|272:266,1,82.5,2|0,1:2|1:1,0:0:0:0:
104,126,35094,1,10,2:2:0:0:
200,238,35252,5,0,1:1:0:0:
200,238,35331,1,8,2:2:0:0:
200,238,35410,1,2,1:2:0:0:
363,197,35568,1,2,1:2:0:0:
230,136,35725,2,0,P|144:153|40:188,1,165,10|0,2:2|1:1,0:0:0:0:
267,48,36199,5,0,1:1:0:0:
267,48,36278,1,0,1:0:0:0:
267,48,36357,1,10,2:2:0:0:
151,187,36515,1,2,2:2:0:0:
341,276,36673,2,0,P|328:219|320:165,1,82.5,2|0,1:2|1:1,0:0:0:0:
230,136,36989,5,8,2:2:0:0:
406,194,37146,1,8,2:2:0:0:
406,194,37225,1,8,2:2:0:0:
406,194,37304,1,10,2:2:0:0:
205,293,37462,5,8,2:3:0:0:
308,179,37620,1,6,2:3:0:0:
205,293,37778,1,0,1:1:0:0:
92,137,37936,6,0,B|136:93|199:121|199:121|228:185|317:178,1,247.5,6|0,1:2|1:1,0:0:0:0:
369,103,38568,2,0,P|307:90|258:88,1,82.5,8|0,2:2|0:0,0:0:0:0:
187,24,38883,1,2,1:2:0:0:
231,195,39041,1,10,2:2:0:0:
61,293,39199,6,0,P|124:267|166:268,1,82.5,2|8,1:2|2:2,0:0:0:0:
237,333,39515,2,0,P|299:359|328:389,1,82.5,2|0,1:2|0:0,0:0:0:0:
261,208,39831,2,0,P|324:182|366:183,1,82.5,10|0,2:2|0:0,0:0:0:0:
391,98,40146,2,0,P|453:124|482:154,1,82.5,2|0,1:2|0:0,0:0:0:0:
436,277,40462,5,0,1:2:0:0:
436,277,40541,2,0,P|422:257|424:224,1,53.6249975452424,2|0,1:2|0:0,0:0:0:0:
433,212,40778,6,0,P|474:283|414:354,1,148.49999546814,12|0,2:2|0:0,0:0:0:0:
367,329,41094,5,2,1:2:0:0:
328,217,41252,1,2,1:2:0:0:
161,292,41410,1,10,2:2:0:0:
195,156,41568,2,0,P|264:181|367:208,1,165,2|0,1:2|1:1,0:0:0:0:
314,32,42041,5,10,2:2:0:0:
314,32,42199,2,0,P|295:88|281:134,1,82.5,2|0,2:2|1:1,0:0:0:0:
178,267,42515,2,0,P|138:279|99:292,1,82.5,2|8,1:2|2:2,0:0:0:0:
116,130,42831,2,0,P|155:142|194:155,1,82.5,6|0,1:2|0:0,0:0:0:0:
72,39,43146,5,0,1:1:0:0:
7,206,43304,1,8,2:2:0:0:
198,249,43462,1,0,1:0:0:0:
198,249,43541,1,0,1:0:0:0:
198,249,43620,1,0,1:1:0:0:
116,130,43778,1,0,1:1:0:0:
307,153,43936,5,8,2:2:0:0:
92,250,44094,1,0,1:1:0:0:
204,72,44252,2,0,P|194:136|195:176,1,82.5,6|0,1:2|1:1,0:0:0:0:
376,318,44568,2,0,P|386:254|385:214,1,82.5,10|0,2:2|0:0,0:0:0:0:
328,51,44883,5,2,1:2:0:0:
193,153,45041,1,10,2:2:0:0:
410,221,45199,1,10,2:2:0:0:
419,218,45277,1,8,2:2:0:0:
428,215,45356,1,8,2:2:0:0:
437,212,45435,1,8,2:2:0:0:
447,209,45515,6,0,P|450:172|460:110,1,80.4374963178636,2|0,2:2|0:0,0:0:0:0:
484,111,45831,6,0,P|447:114|326:136,1,148.49999546814,12|0,2:2|0:0,0:0:0:0:
265,104,46146,5,10,2:3:0:0:
328,294,46304,1,6,2:3:0:0:
127,353,46462,1,10,2:2:0:0:
210,205,46620,6,0,P|243:248|196:351,1,165,6|0,1:2|1:1,0:0:0:0:
72,287,47094,1,10,2:2:0:0:
72,287,47252,2,0,P|141:266|191:260,1,82.5,2|0,1:2|0:0,0:0:0:0:
322,148,47568,2,0,P|253:127|203:121,1,82.5,2|8,1:2|2:2,0:0:0:0:
179,42,47883,6,0,P|200:142|212:231,1,165,6|0,1:2|1:1,0:0:0:0:
335,111,48357,1,8,2:2:0:0:
267,270,48515,1,0,0:0:0:0:
118,149,48673,2,0,L|30:133,1,82.5,0|0,1:1|1:1,0:0:0:0:
165,345,48989,2,0,L|149:257,1,82.5,8|0,2:2|0:0,0:0:0:0:
349,210,49304,5,14,1:2:0:0:
255,293,49462,1,0,0:0:0:0:
296,136,49620,1,10,2:2:0:0:
158,140,49778,1,0,1:1:0:0:
288,40,49936,5,10,2:2:0:0:
183,170,50094,1,0,0:0:0:0:
349,210,50252,2,0,P|402:210|442:214,1,82.5,10|0,2:2|1:1,0:0:0:0:
205,71,50568,5,6,1:2:0:0:
349,210,50725,1,2,2:2:0:0:
84,307,50883,1,10,2:2:0:0:
203,197,51041,1,2,2:2:0:0:
43,141,51199,5,2,1:2:0:0:
197,288,51357,1,2,1:2:0:0:
248,82,51515,1,10,2:2:0:0:
248,82,51831,5,2,1:2:0:0:
139,39,51989,1,0,0:0:0:0:
203,197,52146,1,10,2:2:0:0:
394,115,52304,1,2,2:2:0:0:
172,180,52462,5,2,1:2:0:0:
333,44,52620,1,2,1:2:0:0:
371,252,52778,1,10,2:2:0:0:
371,252,53094,5,2,1:2:0:0:
236,297,53252,1,2,2:2:0:0:
415,354,53410,1,10,2:2:0:0:
239,204,53568,1,2,2:2:0:0:
386,342,53725,5,2,1:2:0:0:
172,373,53883,1,2,1:2:0:0:
321,175,54041,1,10,2:2:0:0:
321,175,54357,6,0,L|335:76,1,82.5,2|0,1:2|0:0,0:0:0:0:
409,43,54673,1,10,2:2:0:0:
210,28,54831,2,0,L|221:109,1,82.5,2|8,1:2|2:2,0:0:0:0:
295,10,55146,5,2,1:2:0:0:
146,142,55304,1,10,2:2:0:0:
353,252,55462,1,2,1:2:0:0:
221,109,55620,5,14,2:2:0:0:
281,304,55778,1,0,1:1:0:0:
221,109,55936,1,0,1:1:0:0:
32,330,56094,5,14,2:2:0:0:
68,113,56252,1,2,1:2:0:0:
32,330,56410,1,0,1:1:0:0:
239,234,56568,5,12,2:2:0:0:
51,95,56725,1,0,1:1:0:0:
32,330,56883,1,0,1:1:0:0:
221,109,57041,5,12,2:2:0:0:
71,253,57199,1,0,1:1:0:0:
305,348,57357,1,0,1:1:0:0:
158,190,57515,6,0,L|263:215,1,82.5,14|0,2:2|1:1,0:0:0:0:
454,314,57831,2,0,L|429:209,1,82.5,12|0,2:2|1:1,0:0:0:0:
271,101,58146,5,14,1:3:0:0:
380,344,58304,1,0,1:1:0:0:
380,344,58383,1,0,1:1:0:0:
380,344,58462,1,8,2:2:0:0:
211,228,58620,5,8,1:3:0:0:
469,247,58778,1,0,1:1:0:0:
469,247,58857,1,0,1:1:0:0:
469,247,58936,1,8,2:2:0:0:
320,254,59094,5,8,1:3:0:0:
428,43,59252,1,0,1:1:0:0:
428,43,59331,1,0,1:1:0:0:
428,43,59410,1,8,2:2:0:0:
401,162,59568,5,10,2:2:0:0:
234,208,59725,1,10,2:2:0:0:
116,69,59883,1,10,2:2:0:0:
298,141,60041,1,10,2:2:0:0:
44,239,60199,1,10,2:2:0:0:
211,91,60357,1,10,2:2:0:0:
205,131,60435,1,8,2:2:0:0:
200,172,60514,1,10,2:2:0:0:
196,213,60593,1,8,2:2:0:0:
193,255,60672,5,2,2:2:0:0:
34,219,60831,1,2,2:2:0:0:
162,348,60989,2,0,P|204:342|267:323,1,82.5,10|0,2:2|0:0,0:0:0:0:
310,174,61304,1,2,1:2:0:0:
133,329,61462,1,2,1:2:0:0:
408,280,61620,2,0,P|366:274|303:255,1,82.5,10|0,2:2|0:0,0:0:0:0:
244,71,61936,6,0,P|198:116|207:232,1,165,2|10,1:2|2:2,0:0:0:0:
396,201,62410,1,2,1:2:0:0:
396,201,62489,1,0,1:0:0:0:
396,201,62568,2,0,P|407:161|413:121,1,82.5,0|0,1:0|1:1,0:0:0:0:
241,36,62883,1,10,2:2:0:0:
278,197,63041,1,2,2:2:0:0:
75,153,63199,5,6,1:2:0:0:
179,105,63357,1,2,2:2:0:0:
308,274,63515,1,10,2:2:0:0:
150,224,63673,1,2,2:2:0:0:
292,371,63831,2,0,P|276:308|265:268,1,82.5,2|2,1:2|1:2,0:0:0:0:
0,284,64146,2,0,P|38:295|79:305,1,82.5,10|0,2:2|0:0,0:0:0:0:
172,131,64462,6,0,P|178:196|180:322,1,165,2|10,1:2|2:2,0:0:0:0:
269,78,64936,1,2,1:2:0:0:
269,78,65015,1,0,1:0:0:0:
269,78,65094,2,0,P|283:121|297:179,1,82.5,0|0,1:1|1:1,0:0:0:0:
60,218,65410,2,0,P|70:178|83:138,1,82.5,8|8,2:2|2:2,0:0:0:0:
385,167,65725,6,0,P|363:220|260:244,1,165,6|10,1:2|2:2,0:0:0:0:
295,53,66199,1,0,0:0:0:0:
172,131,66357,2,0,L|268:153,1,82.5,2|0,1:2|0:0,0:0:0:0:
385,341,66673,2,0,L|366:260,1,82.5,10|0,2:2|0:0,0:0:0:0:
418,65,66989,6,0,B|464:83|464:83|513:138|484:201,1,165,2|10,1:2|2:2,0:0:0:0:
399,273,67462,1,0,0:0:0:0:
332,131,67620,2,0,L|251:149,1,82.5,2|0,1:2|1:1,0:0:0:0:
142,75,67936,1,10,2:2:0:0:
209,220,68094,1,0,0:0:0:0:
68,299,68252,6,0,P|45:245|41:197,1,82.5,6|0,1:2|0:0,0:0:0:0:
305,329,68568,2,0,P|251:306|203:302,1,82.5,8|0,2:2|0:0,0:0:0:0:
172,120,68883,2,0,P|126:157|134:258,1,165,6|8,1:2|2:2,0:0:0:0:
275,144,69357,1,0,0:0:0:0:
222,49,69515,5,6,1:2:0:0:
353,96,69673,1,0,1:1:0:0:
191,201,69831,5,10,2:2:0:0:
404,178,69989,1,2,1:2:0:0:
135,334,70146,6,0,L|198:312,1,41.25,4|0,1:2|0:0,0:0:0:0:
438,275,70304,2,0,L|375:253,1,41.25,8|0,2:2|0:0,0:0:0:0:
265,128,70462,5,8,2:3:0:0:
276,178,70540,1,4,2:3:0:0:
285,228,70620,1,0,1:1:0:0:
293,279,70698,1,0,1:1:0:0:
300,331,70778,5,6,1:2:0:0:
172,173,70936,1,2,1:2:0:0:
407,120,71094,5,10,2:2:0:0:
186,325,71252,1,2,1:2:0:0:
186,325,71331,1,0,1:0:0:0:
186,325,71410,2,0,P|136:314|72:301,1,82.5,2|2,1:2|2:2,0:0:0:0:
50,197,71725,2,0,P|130:180|184:170,1,123.75,10|0,2:2|0:0,0:0:0:0:
236,128,72041,6,0,P|256:198|264:240,1,82.5,2|0,1:2|1:1,0:0:0:0:
132,289,72357,1,10,2:2:0:0:
369,167,72515,2,0,P|349:237|340:345,1,165,2|0,1:2|1:1,0:0:0:0:
476,267,72989,1,10,2:2:0:0:
427,74,73146,1,2,2:2:0:0:
254,114,73304,6,0,B|170:107|184:148|76:142,1,165,6|8,1:2|2:2,0:0:0:0:
160,315,73778,1,0,0:0:0:0:
243,231,73936,2,0,P|307:217|346:215,1,82.5,2|0,1:2|1:1,0:0:0:0:
93,142,74252,2,0,P|87:182|77:222,1,82.5,8|0,2:2|0:0,0:0:0:0:
226,33,74568,5,6,1:2:0:0:
309,323,74725,1,10,2:3:0:0:
226,33,74883,1,6,2:3:0:0:
405,257,75041,6,0,P|341:243|222:229,1,165,6|0,1:2|1:1,0:0:0:0:
195,147,75515,2,0,P|163:154|103:161,1,82.5,8|8,2:2|2:2,0:0:0:0:
0,260,75831,6,0,P|33:305|142:324,1,165,6|8,1:2|2:2,0:0:0:0:
404,256,76304,2,0,P|323:263|269:323,1,165,6|8,1:2|2:2,0:0:0:0:
512,296,76778,2,0,P|524:217|472:157,1,165,6|0,1:2|0:0,0:0:0:0:
427,370,77252,5,0,1:1:0:0:
427,370,77331,1,0,1:0:0:0:
427,370,77410,2,0,P|379:361|338:355,1,82.5,10|0,2:2|0:0,0:0:0:0:
286,192,77725,1,10,1:3:0:0:
286,192,77883,2,0,P|326:185|367:178,1,82.5,10|8,2:2|2:2,0:0:0:0:
247,304,78199,1,8,2:2:0:0:
167,96,78357,6,0,P|114:115|93:246,1,165,6|8,1:2|2:2,0:0:0:0:
176,265,78831,1,6,1:2:0:0:
176,265,78989,2,0,P|183:214|161:188,1,82.5,0|8,0:0|2:2,0:0:0:0:
29,350,79304,2,0,P|91:335|141:327,1,82.5,6|0,1:2|0:0,0:0:0:0:
270,226,79620,5,8,2:2:0:0:
270,226,79699,1,8,2:2:0:0:
270,226,79778,1,8,2:2:0:0:
206,342,79936,1,10,1:3:0:0:
329,298,80094,5,0,1:1:0:0:
341,304,80173,1,4,2:3:0:0:
353,310,80252,1,10,2:2:0:0:
440,300,80410,5,10,2:2:0:0:
494,231,80568,5,8,2:3:0:0:
483,144,80725,5,0,1:1:0:0:
402,55,80883,6,0,P|360:97|380:207,1,165,6|8,1:2|2:2,0:0:0:0:
261,133,81357,2,0,P|205:117|97:101,1,165,6|8,1:2|2:2,0:0:0:0:
133,280,81831,2,0,P|189:264|297:248,1,165,6|8,1:2|2:2,0:0:0:0:
55,190,82304,6,0,P|47:218|39:272,1,82.5,6|0,1:2|0:0,0:0:0:0:
39,169,82620,1,8,2:2:0:0:
80,351,82778,2,0,P|135:362|169:372,1,82.5,6|8,1:2|2:2,0:0:0:0:
342,295,83094,2,0,P|287:284|253:274,1,82.5,14|4,1:3|2:3,0:0:0:0:
144,134,83410,5,6,1:2:0:0:
283,73,83568,1,8,2:2:0:0:
283,73,83646,1,8,2:2:0:0:
283,73,83725,1,8,2:2:0:0:
372,218,83883,5,8,2:3:0:0:
129,223,84041,1,8,2:2:0:0:
129,223,84120,1,8,2:2:0:0:
129,223,84199,1,8,2:2:0:0:
47,376,84357,5,0,1:1:0:0:
419,328,84515,1,8,2:2:0:0:
419,328,84594,1,8,2:2:0:0:
419,328,84673,1,14,2:2:0:0:
222,245,84831,5,12,2:2:0:0:
83,20,85936,5,6,2:2:0:0:
42,88,86094,1,2,2:2:0:0:
80,157,86252,1,2,2:2:0:0:
158,158,86410,1,2,2:2:0:0:
262,55,86568,6,0,P|316:45|397:37,2,115.49999647522,2|2|2,2:2|2:2|2:2,0:0:0:0:
363,124,87515,5,2,2:2:0:0:
299,168,87673,2,0,P|304:195|308:235,1,57.7499982376099,2|0,2:2|0:0,0:0:0:0:
208,345,87989,5,2,2:2:0:0:
191,323,88147,1,2,2:2:0:0:
193,293,88305,1,2,2:2:0:0:
280,236,88462,6,0,P|274:264|271:293,1,57.7499982376099,2|2,2:2|2:2,0:0:0:0:
253,150,88778,1,2,2:2:0:0:
129,213,88936,2,0,P|157:209|186:204,1,57.7499982376099,2|0,2:2|0:0,0:0:0:0:
159,74,89252,5,2,2:2:0:0:
176,96,89410,1,2,2:2:0:0:
174,126,89568,1,2,2:2:0:0:
56,162,89725,6,0,P|33:200|70:275,1,115.49999647522,2|2,2:2|2:2,0:0:0:0:
136,296,90199,2,0,P|164:290|193:287,1,57.7499982376099,2|2,2:2|2:2,0:0:0:0:
279,250,90515,2,0,P|268:306|261:364,1,115.49999647522,2|2,2:2|2:2,0:0:0:0:
407,289,90989,5,0,0:0:0:0:
368,229,91146,1,2,2:2:0:0:
308,268,91304,1,2,2:2:0:0:
347,328,91462,1,2,2:2:0:0:
356,207,91620,6,0,P|402:178|469:187,2,115.49999647522,2|2|2,2:2|2:2|2:2,0:0:0:0:
247,124,92568,1,2,2:2:0:0:
178,161,92726,2,0,P|136:167|104:164,1,57.7499982376099,2|0,2:2|0:0,0:0:0:0:
287,248,93041,6,0,P|280:218|275:190,1,41.25,2|0,2:2|0:0,0:0:0:0:
137,71,93199,2,0,P|166:79|193:89,1,41.25,2|0,2:2|0:0,0:0:0:0:
204,238,93357,2,0,P|174:246|147:256,1,41.25,2|0,2:2|0:0,0:0:0:0:
307,108,93515,6,0,P|368:138|379:229,1,165,6|0,1:2|0:0,0:0:0:0:
291,341,93989,1,2,1:2:0:0:
149,267,94146,2,0,P|223:278|251:283,1,82.5,10|0,2:2|0:0,0:0:0:0:
72,358,94462,2,0,P|65:317|59:276,1,82.5,2|8,1:2|2:2,0:0:0:0:
141,97,94778,5,2,1:2:0:0:
34,239,94936,1,0,1:1:0:0:
211,183,95094,1,10,2:2:0:0:
112,185,95252,1,0,0:0:0:0:
273,54,95410,6,0,L|283:152,1,82.5,10|0,2:3|0:0,0:0:0:0:
248,257,95725,2,0,L|256:339,1,82.5,6|0,2:3|1:1,0:0:0:0:
84,86,96041,6,0,P|24:122|20:213,1,165,6|10,1:2|2:2,0:0:0:0:
195,236,96515,1,2,2:2:0:0:
163,129,96673,2,0,P|211:122|268:98,1,82.5,2|0,1:2|0:0,0:0:0:0:
309,1,96989,1,10,2:2:0:0:
189,32,97146,1,0,0:0:0:0:
361,154,97304,6,0,P|321:141|281:135,1,82.5,2|0,1:2|1:1,0:0:0:0:
176,221,97620,1,10,2:2:0:0:
299,301,97778,1,2,1:2:0:0:
299,301,97857,1,0,1:0:0:0:
299,301,97936,2,0,P|286:261|280:221,1,82.5,0|0,1:1|0:0,0:0:0:0:
342,74,98252,2,0,P|354:113|360:153,1,82.5,10|0,2:2|0:0,0:0:0:0:
202,310,98568,6,0,P|284:321|365:338,1,165,2|8,1:2|2:2,0:0:0:0:
280,221,99041,1,0,0:0:0:0:
219,337,99199,1,0,1:1:0:0:
97,258,99357,1,0,1:1:0:0:
191,148,99515,2,0,P|196:189|200:231,1,82.5,10|2,2:2|2:2,0:0:0:0:
423,178,99831,6,0,P|382:173|340:169,1,82.5,2|0,1:2|0:0,0:0:0:0:
198,41,100146,2,0,P|238:36|280:32,1,82.5,10|0,2:2|0:0,0:0:0:0:
340,169,100462,2,0,P|335:209|331:251,1,82.5,2|0,2:2|1:1,0:0:0:0:
212,131,100778,1,10,2:2:0:0:
258,297,100936,5,8,2:2:0:0:
258,297,101015,1,8,2:2:0:0:
258,297,101094,1,6,1:2:0:0:
90,237,101252,1,2,1:2:0:0:
185,355,101410,2,0,L|377:324,2,165,10|0|10,2:2|1:1|2:2,0:0:0:0:
357,193,102199,1,2,2:2:0:0:
247,208,102357,6,0,L|165:194,1,82.5,0|0,1:1|0:0,0:0:0:0:
166,339,102673,1,10,2:2:0:0:
119,113,102831,2,0,P|76:156|103:269,1,165,2|0,2:2|1:1,0:0:0:0:
253,252,103304,1,10,2:2:0:0:
221,97,103462,1,2,2:2:0:0:
377,34,103620,5,0,1:1:0:0:
457,124,103778,1,0,1:1:0:0:
366,205,103936,1,8,2:2:0:0:
286,114,104094,1,0,0:0:0:0:
435,149,104252,5,0,1:1:0:0:
276,232,104410,1,0,1:1:0:0:
389,295,104568,2,0,P|443:279|492:273,1,82.5,8|0,2:2|0:0,0:0:0:0:
202,291,104883,6,0,P|194:331|181:370,1,82.5,0|0,1:1|1:1,0:0:0:0:
305,218,105199,1,8,2:2:0:0:
115,312,105357,1,0,1:1:0:0:
106,305,105436,1,0,1:1:0:0:
97,297,105515,2,0,P|69:302|35:310,1,41.25,8|0,2:2|0:0,0:0:0:0:
181,199,105673,2,0,P|208:204|243:212,1,41.25,0|0,1:1|1:1,0:0:0:0:
69,199,105831,5,8,2:2:0:0:
40,169,105909,1,8,2:3:0:0:
29,130,105988,1,8,2:3:0:0:
37,90,106067,1,4,2:3:0:0:
63,59,106146,2,0,P|107:64|151:73,1,82.5,4|0,1:2|0:0,0:0:0:0:
243,11,106462,5,10,2:2:0:0:
195,153,106620,1,2,2:2:0:0:
379,228,106778,2,0,P|404:185|402:141,1,82.5,2|0,1:2|1:1,0:0:0:0:
310,63,107094,2,0,P|287:97|284:137,1,82.5,10|0,2:2|0:0,0:0:0:0:
440,137,107410,5,2,1:2:0:0:
265,226,107568,1,0,0:0:0:0:
491,336,107725,1,10,2:2:0:0:
386,236,107883,1,2,1:2:0:0:
386,236,107962,1,0,1:0:0:0:
386,236,108041,2,0,L|395:326,1,82.5,0|0,1:0|1:1,0:0:0:0:
162,301,108357,2,0,L|244:309,1,82.5,10|0,2:2|0:0,0:0:0:0:
292,212,108673,6,0,P|254:184|120:210,1,165,2|8,1:2|2:2,0:0:0:0:
175,324,109146,1,0,0:0:0:0:
286,384,109304,2,0,P|275:344|270:303,1,82.5,0|0,1:1|1:1,0:0:0:0:
404,259,109620,2,0,P|393:298|388:339,1,82.5,10|2,2:2|2:2,0:0:0:0:
482,284,109936,6,0,P|419:262|375:254,1,82.5,2|0,1:2|0:0,0:0:0:0:
264,66,110252,2,0,P|286:129|294:173,1,82.5,10|0,2:2|0:0,0:0:0:0:
407,170,110567,2,0,P|470:148|514:140,1,82.5,2|0,1:2|1:1,0:0:0:0:
270,303,110883,1,10,2:2:0:0:
119,241,111041,5,8,2:2:0:0:
119,241,111120,1,8,2:2:0:0:
119,241,111199,1,2,1:2:0:0:
275,187,111357,1,2,1:2:0:0:
242,330,111515,2,0,P|186:333|50:360,1,165,10|0,2:2|1:1,0:0:0:0:
166,111,111989,5,0,1:1:0:0:
166,111,112068,1,0,1:0:0:0:
166,111,112146,1,10,2:2:0:0:
225,252,112303,1,2,2:2:0:0:
356,176,112462,2,0,P|328:177|260:191,1,82.5,2|0,1:2|0:0,0:0:0:0:
155,311,112778,5,8,2:2:0:0:
330,260,112936,1,0,1:1:0:0:
330,260,113015,1,0,1:1:0:0:
330,260,113094,1,10,2:2:0:0:
198,133,113252,5,8,2:3:0:0:
391,202,113410,1,6,2:3:0:0:
198,133,113568,1,0,1:1:0:0:
424,110,113725,6,0,B|458:71|458:71|370:131|245:95,1,247.5,6|0,1:2|1:1,0:0:0:0:
148,28,114357,2,0,P|219:10|265:7,1,82.5,8|0,2:2|0:0,0:0:0:0:
318,235,114673,1,2,1:2:0:0:
131,131,114831,1,10,2:2:0:0:
270,101,114989,6,0,P|241:152|226:204,1,82.5,2|8,1:2|2:2,0:0:0:0:
154,307,115304,2,0,P|125:256|110:204,1,82.5,2|0,1:2|0:0,0:0:0:0:
306,211,115620,2,0,P|271:189|233:174,1,82.5,10|0,2:2|0:0,0:0:0:0:
159,53,115936,2,0,P|195:33|227:8,1,82.5,10|8,2:2|2:2,0:0:0:0:
356,133,116252,5,6,2:2:0:0:
88,298,118778,6,0,L|43:285,3,41.25
118,276,119094,5,4,1:2:0:0:
341,176,119410,1,8,2:3:0:0:
102,61,119725,1,4,2:3:0:0:
245,283,120041,6,0,P|237:226|231:184,1,82.5,2|0,1:2|0:0,0:0:0:0:
300,104,120357,2,0,P|292:47|286:5,1,82.5,10|0,2:2|0:0,0:0:0:0:
185,117,120673,5,2,1:2:0:0:
359,196,120831,1,2,2:2:0:0:
180,377,120989,1,10,2:2:0:0:
145,229,121146,1,0,1:1:0:0:
313,271,121304,6,0,P|274:266|236:293,1,74.2499977340699,2|0,2:2|0:0,0:0:0:0:
222,308,121620,6,0,P|291:293|396:274,1,148.49999546814,12|0,2:2|0:0,0:0:0:0:
441,307,121936,5,2,1:2:0:0:
506,141,122094,1,2,1:2:0:0:
299,66,122252,1,10,2:2:0:0:
399,206,122410,6,0,P|434:146|366:48,1,165,6|0,1:2|1:1,0:0:0:0:
272,35,122883,1,10,2:2:0:0:
347,135,123041,1,2,1:2:0:0:
272,35,123199,1,0,0:0:0:0:
178,173,123357,2,0,P|247:159|290:154,1,82.5,2|8,1:2|2:2,0:0:0:0:
328,258,123673,6,0,P|246:271|166:289,1,165,6|0,1:2|1:1,0:0:0:0:
258,157,124146,1,8,2:2:0:0:
323,365,124304,1,0,0:0:0:0:
446,321,124462,2,0,P|452:280|461:240,1,82.5,0|0,1:1|1:1,0:0:0:0:
370,110,124778,2,0,P|410:100|450:94,1,82.5,8|0,2:2|0:0,0:0:0:0:
289,70,125094,5,6,1:2:0:0:
347,223,125252,1,0,0:0:0:0:
172,172,125410,1,10,2:2:0:0:
103,310,125568,1,0,1:1:0:0:
248,233,125725,5,10,2:2:0:0:
46,249,125883,1,0,0:0:0:0:
210,351,126041,2,0,P|250:341|290:335,1,82.5,10|0,2:2|1:1,0:0:0:0:
417,127,126357,5,6,1:2:0:0:
366,314,126515,1,0,0:0:0:0:
506,254,126673,1,10,2:2:0:0:
277,187,126831,1,2,2:2:0:0:
441,148,126989,5,2,1:2:0:0:
290,335,127146,1,2,1:2:0:0:
204,129,127304,1,10,2:2:0:0:
204,129,127620,5,2,1:2:0:0:
393,220,127778,1,2,2:2:0:0:
158,205,127936,1,10,2:2:0:0:
441,152,128094,1,2,2:2:0:0:
285,245,128252,5,2,1:2:0:0:
200,48,128410,1,2,1:2:0:0:
412,238,128568,1,10,2:2:0:0:
412,238,128883,5,2,1:2:0:0:
223,339,129041,1,2,2:2:0:0:
73,196,129199,1,10,2:2:0:0:
285,245,129357,1,2,2:2:0:0:
42,330,129515,5,2,1:2:0:0:
261,232,129673,1,2,1:2:0:0:
82,94,129831,1,10,2:2:0:0:
82,94,130146,6,0,L|171:114,1,82.5,2|0,1:2|0:0,0:0:0:0:
230,59,130462,1,10,2:2:0:0:
232,216,130620,2,0,L|152:235,1,82.5,2|8,1:2|2:2,0:0:0:0:
253,87,130936,5,2,1:2:0:0:
212,299,131094,1,10,2:2:0:0:
427,363,131252,1,2,1:2:0:0:
271,234,131410,5,14,2:2:0:0:
448,153,131568,1,0,1:1:0:0:
271,234,131725,1,0,1:1:0:0:
391,58,131883,5,14,2:2:0:0:
154,5,132041,1,2,1:2:0:0:
391,58,132199,1,0,1:1:0:0:
152,152,132357,5,12,2:2:0:0:
296,22,132515,1,0,1:1:0:0:
295,252,132673,1,0,1:1:0:0:
238,106,132831,5,12,2:2:0:0:
410,230,132989,1,0,1:1:0:0:
170,339,133146,1,0,1:1:0:0:
318,218,133304,6,0,P|311:263|302:316,1,82.5,14|0,2:2|1:1,0:0:0:0:
101,187,133620,2,0,P|146:180|199:171,1,82.5,12|0,2:2|1:1,0:0:0:0:
321,99,133936,5,6,1:2:0:0:
154,23,134094,1,0,1:1:0:0:
154,23,134173,1,0,1:1:0:0:
154,23,134252,1,8,2:2:0:0:
262,194,134410,5,0,1:1:0:0:
58,275,134568,1,0,1:1:0:0:
58,275,134646,1,0,1:1:0:0:
58,275,134725,1,8,2:2:0:0:
205,144,134883,5,0,1:1:0:0:
105,360,135041,1,0,1:1:0:0:
105,360,135120,1,0,1:0:0:0:
105,360,135199,1,12,2:2:0:0:
186,328,135357,5,2,2:2:0:0:
123,258,135515,1,2,2:2:0:0:
257,292,135673,1,2,2:2:0:0:
357,193,135831,1,2,2:2:0:0:
504,267,135989,1,2,2:2:0:0:
512,93,136146,1,2,2:2:0:0:
310,63,136304,1,2,2:2:0:0:
407,275,136462,5,2,2:2:0:0:
222,170,136620,1,2,2:2:0:0:
381,168,136778,2,0,P|428:161|479:157,1,82.5,10|2,2:2|2:2,0:0:0:0:
288,47,137094,5,2,1:2:0:0:
381,168,137252,1,2,1:2:0:0:
244,234,137410,2,0,P|251:194|255:153,1,82.5,10|0,2:2|0:0,0:0:0:0:
337,288,137725,6,0,P|282:336|189:327,1,165,2|10,1:2|2:2,0:0:0:0:
90,175,138199,1,2,1:2:0:0:
90,175,138278,1,0,1:0:0:0:
90,175,138357,2,0,P|137:182|188:186,1,82.5,0|0,1:0|1:1,0:0:0:0:
136,96,138673,1,10,2:2:0:0:
2,199,138831,1,2,2:2:0:0:
195,227,138989,5,6,1:2:0:0:
42,94,139146,1,2,2:2:0:0:
1,294,139304,1,10,2:2:0:0:
90,175,139462,1,2,2:2:0:0:
149,369,139620,2,0,P|142:322|138:271,1,82.5,2|2,1:2|1:2,0:0:0:0:
378,225,139936,2,0,P|374:266|367:306,1,82.5,10|0,2:2|0:0,0:0:0:0:
261,380,140252,6,0,B|265:320|265:320|252:281|252:281|261:200,1,165,2|10,1:2|2:2,0:0:0:0:
352,325,140725,1,2,1:2:0:0:
164,201,140883,1,0,1:1:0:0:
164,201,140962,1,0,1:0:0:0:
164,201,141041,1,0,1:1:0:0:
387,92,141199,1,8,2:2:0:0:
223,300,141357,5,8,2:2:0:0:
223,300,141436,1,8,2:2:0:0:
223,300,141515,2,0,P|156:308|27:331,1,165,6|10,1:2|2:2,0:0:0:0:
123,182,141989,1,0,0:0:0:0:
260,132,142146,2,0,P|252:172|247:213,1,82.5,2|0,1:2|0:0,0:0:0:0:
510,279,142462,2,0,P|469:284|428:291,1,82.5,10|0,2:2|0:0,0:0:0:0:
341,166,142778,6,0,P|408:174|537:197,1,165,2|10,1:2|2:2,0:0:0:0:
502,299,143252,1,0,0:0:0:0:
390,355,143410,2,0,P|397:314|402:273,1,82.5,2|0,1:2|1:1,0:0:0:0:
200,192,143725,1,10,2:2:0:0:
255,342,143883,1,0,0:0:0:0:
377,256,144041,6,0,P|336:261|295:268,1,82.5,6|0,1:2|0:0,0:0:0:0:
76,358,144357,2,0,P|116:363|157:370,1,82.5,8|0,2:2|0:0,0:0:0:0:
345,240,144673,6,0,P|304:245|263:252,1,82.5,6|0,1:2|1:1,0:0:0:0:
62,268,144989,2,0,P|69:227|74:186,1,82.5,8|0,2:2|0:0,0:0:0:0:
192,57,145304,5,6,1:2:0:0:
286,169,145462,1,0,1:1:0:0:
150,238,145620,5,10,2:2:0:0:
361,293,145778,1,2,1:2:0:0:
157,125,145936,6,0,L|170:181,1,41.25,4|0,1:2|0:0,0:0:0:0:
274,350,146094,2,0,L|283:309,1,41.25,8|0,2:2|0:0,0:0:0:0:
318,212,146252,5,8,2:3:0:0:
272,221,146330,1,4,2:3:0:0:
227,231,146409,1,0,1:1:0:0:
182,242,146488,1,0,1:1:0:0:
138,253,146567,5,6,1:2:0:0:
0,163,146725,1,2,1:2:0:0:
214,110,146883,5,10,2:2:0:0:
69,262,147041,1,2,1:2:0:0:
69,262,147120,1,0,1:0:0:0:
69,262,147199,2,0,P|111:251|148:239,1,82.5,2|2,1:2|2:2,0:0:0:0:
308,190,147515,2,0,P|296:229|275:330,1,123.75,10|0,2:2|0:0,0:0:0:0:
346,354,147831,6,0,P|388:364|425:376,1,82.5,2|0,1:2|1:1,0:0:0:0:
331,210,148146,1,10,2:2:0:0:
170,214,148304,2,0,P|181:253|209:389,1,165,2|0,1:2|1:1,0:0:0:0:
28,220,148778,1,10,2:2:0:0:
188,129,148936,1,2,2:2:0:0:
109,290,149094,6,0,P|75:243|130:136,1,165,6|8,1:2|2:2,0:0:0:0:
213,106,149568,1,0,0:0:0:0:
334,111,149725,2,0,P|313:169|302:219,1,82.5,2|0,1:2|1:1,0:0:0:0:
283,337,150041,2,0,P|321:322|361:310,1,82.5,8|0,2:2|0:0,0:0:0:0:
464,298,150357,5,6,1:2:0:0:
170,214,150515,1,10,2:3:0:0:
355,81,150673,1,6,2:3:0:0:
360,311,150831,6,0,B|319:293|282:316|282:316|255:357|181:356,1,165,6|0,1:2|1:1,0:0:0:0:
106,336,151304,1,8,2:2:0:0:
88,227,151462,5,8,2:2:0:0:
88,227,151541,1,8,2:2:0:0:
88,227,151620,2,0,L|69:39,1,165,6|8,1:2|2:2,0:0:0:0:
1,196,152094,2,0,P|57:142|168:168,1,165,6|8,1:2|2:2,0:0:0:0:
360,192,152568,2,0,P|282:193|222:290,1,165,6|0,1:2|0:0,0:0:0:0:
357,295,153041,5,0,1:1:0:0:
357,295,153120,1,0,1:0:0:0:
357,295,153199,2,0,P|345:239|342:187,1,82.5,10|0,2:2|0:0,0:0:0:0:
501,121,153515,1,10,1:3:0:0:
501,121,153673,2,0,P|496:161|486:202,1,82.5,10|8,2:2|2:2,0:0:0:0:
397,98,153989,1,8,2:2:0:0:
486,202,154146,6,0,P|408:184|300:167,1,165,6|8,1:2|2:2,0:0:0:0:
411,355,154620,1,6,1:2:0:0:
411,355,154778,2,0,P|401:314|395:274,1,82.5,0|8,0:0|2:2,0:0:0:0:
197,298,155094,2,0,P|237:291|277:282,1,82.5,6|0,1:2|0:0,0:0:0:0:
324,170,155410,5,8,2:2:0:0:
324,170,155489,1,8,2:2:0:0:
324,170,155568,1,8,2:2:0:0:
217,117,155725,1,10,1:3:0:0:
143,213,155883,1,0,1:1:0:0:
258,259,156041,6,0,L|239:188,2,55,8|8|8,0:3|0:3|0:3,0:3:0:0:
218,338,156357,5,4,2:3:0:0:
135,368,156462,5,4,0:3:0:0:
57,325,156568,5,4,0:3:0:0:
40,238,156673,6,0,P|48:152|61:64,1,165,6|8,1:2|2:2,0:0:0:0:
238,15,157146,2,0,P|249:96|257:178,1,165,6|8,1:2|2:2,0:0:0:0:
512,102,157620,2,0,P|431:91|349:83,1,165,6|8,1:2|2:2,0:0:0:0:
384,221,158094,6,0,P|424:215|465:211,1,82.5,6|0,1:2|0:0,0:0:0:0:
316,277,158410,1,8,2:2:0:0:
171,272,158568,2,0,P|175:230|180:190,1,82.5,6|8,1:2|2:2,0:0:0:0:
316,277,158883,2,0,P|311:318|306:358,1,82.5,14|4,1:3|2:3,0:0:0:0:
101,352,159199,5,6,1:2:0:0:
38,157,159357,1,8,2:2:0:0:
38,157,159436,1,8,2:2:0:0:
38,157,159515,1,8,2:2:0:0:
234,44,159673,5,8,2:3:0:0:
171,272,159831,1,8,2:2:0:0:
171,272,159910,1,8,2:2:0:0:
171,272,159989,1,8,2:2:0:0:
428,315,160146,5,0,1:1:0:0:
244,149,160304,1,8,2:2:0:0:
244,149,160383,1,8,2:2:0:0:
244,149,160462,1,14,2:2:0:0:
451,64,160620,5,12,2:2:0:0:
324,220,161410,6,0,P|301:180|314:146,1,74.2499977340699,2|0,2:2|0:0,0:0:0:0:
325,135,161725,6,0,P|364:202|314:280,1,148.49999546814,6|0,1:2|0:0,0:0:0:0:
256,271,162041,6,0,P|186:263|150:262,1,82.5,8|2,2:2|2:2,0:0:0:0:
31,321,162357,1,2,1:2:0:0:
92,153,162515,1,2,1:2:0:0:
92,153,162594,1,0,1:0:0:0:
92,153,162673,1,10,2:2:0:0:
174,262,162831,6,0,P|176:303|182:343,1,82.5,2|0,2:2|1:1,0:0:0:0:
37,235,163146,1,0,0:0:0:0:
264,163,163304,2,0,P|222:165|86:184,1,165,8|2,2:2|2:2,0:0:0:0:
183,77,163778,5,2,1:2:0:0:
174,262,163936,2,0,P|214:256|255:253,1,82.5,10|2,2:2|2:2,0:0:0:0:
333,100,164252,2,0,B|378:176|325:182|382:276,1,165,0|8,1:1|2:2,0:0:0:0:
432,123,164725,1,2,2:2:0:0:
273,235,164883,1,2,1:2:0:0:
253,102,165041,1,2,1:2:0:0:
455,226,165199,1,10,2:2:0:0:
235,350,165357,5,2,1:2:0:0:
235,350,165436,1,0,1:0:0:0:
235,350,165515,2,0,L|141:344,1,82.5,0|2,1:1|2:2,0:0:0:0:
41,236,165831,1,10,2:2:0:0:
191,145,165989,1,2,1:2:0:0:
152,344,166146,6,0,P|140:309|144:259,1,82.5,8|8,2:3|2:2,0:0:0:0:
312,175,166462,2,0,P|287:202|242:224,1,82.5,8|8,2:2|2:2,0:0:0:0:
25,152,166778,1,6,1:2:0:0:
212,41,166936,1,2,2:2:0:0:
66,2,167094,1,10,2:2:0:0:
171,191,167252,1,0,0:0:0:0:
7,137,167410,5,2,1:2:0:0:
129,65,167568,1,2,1:2:0:0:
283,96,167725,1,10,2:2:0:0:
168,217,167883,1,2,2:2:0:0:
417,265,168041,5,0,1:1:0:0:
377,150,168199,1,2,2:2:0:0:
262,190,168357,1,8,2:2:0:0:
302,305,168515,1,0,0:0:0:0:
418,166,168673,6,0,P|459:168|499:176,1,82.5,2|2,1:2|1:2,0:0:0:0:
193,354,168989,2,0,P|200:313|203:272,1,82.5,10|2,2:2|2:2,0:0:0:0:
315,125,169304,6,0,P|325:186|339:314,1,165,6|8,1:2|2:2,0:0:0:0:
336,288,169699,1,0,1:0:0:0:
336,288,169778,1,0,1:1:0:0:
197,190,169936,5,8,2:2:0:0:
161,168,170015,1,0,1:0:0:0:
119,166,170094,1,0,1:1:0:0:
81,182,170173,1,0,1:0:0:0:
56,214,170252,2,0,P|50:245|44:272,1,41.25,8|0,2:2|0:0,0:0:0:0:
200,344,170410,2,0,P|195:323|191:303,1,41.25,2|0,1:2|0:0,0:0:0:0:
282,186,170568,6,0,P|323:160|372:167,1,82.5,10|0,2:2|1:1,0:0:0:0:
412,237,170883,2,0,P|459:247|489:287,1,82.5,10|0,2:2|1:1,0:0:0:0:
361,355,171199,5,10,2:3:0:0:
217,286,171357,1,8,2:3:0:0:
314,267,171515,5,6,2:3:0:0:
269,366,171673,1,4,2:3:0:0:
160,374,171831,1,6,1:2:0:0:
256,192,180673,12,10,181620,2:2:0:0:
217,317,181936,5,6,1:2:0:0:
345,350,182094,1,2,1:2:0:0:
416,228,182252,1,10,2:2:0:0:
296,267,182410,1,2,1:2:0:0:
452,322,182568,5,2,1:2:0:0:
284,180,182725,1,2,1:2:0:0:
452,322,182883,1,10,2:2:0:0:
452,322,183199,5,2,1:2:0:0:
506,140,183357,1,2,1:2:0:0:
316,62,183515,1,10,2:2:0:0:
452,221,183673,1,2,1:2:0:0:
216,262,183831,5,2,1:2:0:0:
381,140,183989,1,2,1:2:0:0:
396,378,184146,1,10,2:2:0:0:
396,378,184462,5,2,1:2:0:0:
254,141,184620,1,2,1:2:0:0:
394,160,184778,1,10,2:2:0:0:
154,53,184936,1,2,1:2:0:0:
236,244,185094,5,2,1:2:0:0:
321,67,185252,1,2,1:2:0:0:
80,162,185410,1,10,2:2:0:0:
80,162,185725,6,0,P|36:150|-33:137,1,82.5,2|0,1:2|1:1,0:0:0:0:
203,127,186041,1,10,2:2:0:0:
247,318,186199,2,0,P|255:277|266:237,1,82.5,2|0,1:2|1:1,0:0:0:0:
132,298,186515,5,2,1:2:0:0:
366,181,186673,1,10,2:2:0:0:
102,141,186831,1,2,1:2:0:0:
363,340,186989,5,14,2:2:0:0:
301,102,187146,1,0,1:1:0:0:
363,340,187304,1,0,1:1:0:0:
194,60,187462,5,14,2:2:0:0:
132,298,187619,1,2,1:2:0:0:
194,60,187777,1,0,1:1:0:0:
266,237,187936,5,12,2:2:0:0:
448,147,188094,1,0,1:1:0:0:
207,81,188252,1,0,1:1:0:0:
411,261,188410,5,12,2:2:0:0:
289,52,188568,1,0,1:1:0:0:
170,263,188726,1,0,1:1:0:0:
338,161,188883,2,0,P|287:174|226:192,1,82.5,14|0,2:2|1:1,0:0:0:0:
58,298,189199,2,0,P|71:247|89:186,1,82.5,12|0,2:2|1:1,0:0:0:0:
259,327,189515,5,14,1:3:0:0:
157,155,189673,1,8,1:2:0:0:
157,155,189752,1,8,1:2:0:0:
157,155,189831,1,8,2:2:0:0:
335,252,189989,5,8,1:3:0:0:
86,332,190146,1,0,1:1:0:0:
86,332,190225,1,0,1:1:0:0:
86,332,190304,1,8,2:2:0:0:
234,86,190462,5,8,1:3:0:0:
177,285,190620,1,0,1:1:0:0:
177,285,190699,1,0,1:0:0:0:
177,285,190778,1,8,2:2:0:0:
344,230,190936,5,10,2:2:0:0:
289,63,191094,1,10,2:2:0:0:
122,118,191252,1,10,2:2:0:0:
326,276,191410,5,10,1:2:0:0:
332,272,191488,1,8,1:2:0:0:
339,269,191567,1,10,1:2:0:0:
347,267,191646,1,8,1:2:0:0:
354,264,191725,1,10,1:2:0:0:
361,262,191804,1,8,1:2:0:0:
369,260,191883,1,10,1:2:0:0:
376,259,191962,1,8,1:2:0:0:
382,257,192041,6,0,P|429:247|462:242,1,74.2499977340699,2|0,2:2|0:0,0:0:0:0:
474,265,192357,6,0,P|482:226|500:170,1,82.5,10|2,2:2|2:2,0:0:0:0:
306,109,192673,1,2,1:2:0:0:
365,280,192831,1,2,1:2:0:0:
508,148,192989,2,0,P|468:159|428:168,1,82.5,10|0,2:2|0:0,0:0:0:0:
268,186,193304,6,0,P|228:154|262:37,1,165,2|10,1:2|2:2,0:0:0:0:
412,7,193778,1,2,1:2:0:0:
412,7,193857,1,0,1:0:0:0:
412,7,193936,2,0,P|423:46|432:86,1,82.5,0|0,1:0|1:1,0:0:0:0:
268,186,194252,1,10,2:2:0:0:
324,53,194410,1,2,2:2:0:0:
152,168,194568,5,6,1:2:0:0:
355,291,194725,1,2,1:2:0:0:
184,384,194883,1,10,2:2:0:0:
273,214,195041,1,2,2:2:0:0:
56,149,195199,6,0,P|72:205|87:258,1,82.5,2|2,1:2|1:2,0:0:0:0:
347,208,195515,2,0,P|307:196|267:185,1,82.5,10|0,2:2|1:1,0:0:0:0:
98,344,195831,6,0,P|137:332|282:310,1,165,2|10,1:2|2:2,0:0:0:0:
419,148,196304,1,2,1:2:0:0:
419,148,196383,1,0,1:0:0:0:
419,148,196462,2,0,P|435:204|450:257,1,82.5,8|0,2:3|1:1,0:0:0:0:
329,370,196778,2,0,P|340:330|351:290,1,82.5,8|8,2:2|2:2,0:0:0:0:
258,102,197094,6,0,P|209:122|208:246,1,165,6|10,1:2|2:2,0:0:0:0:
259,311,197568,1,0,0:0:0:0:
349,175,197725,2,0,P|294:181|244:189,1,82.5,2|0,1:2|1:1,0:0:0:0:
118,67,198041,2,0,P|112:107|108:148,1,82.5,10|0,2:2|0:0,0:0:0:0:
253,73,198357,6,0,P|334:85|416:94,1,165,2|10,1:2|2:2,0:0:0:0:
358,256,198831,1,0,0:0:0:0:
358,256,198989,2,0,P|353:214|348:174,1,82.5,2|0,1:2|1:1,0:0:0:0:
496,84,199304,1,10,2:2:0:0:
468,217,199462,1,0,0:0:0:0:
278,245,199620,6,0,P|316:259|366:253,1,82.5,6|0,1:2|0:0,0:0:0:0:
496,84,199936,2,0,P|455:80|416:95,1,82.5,8|0,2:2|1:1,0:0:0:0:
417,347,200252,6,0,P|460:322|451:198,1,165,6|8,1:2|2:2,0:0:0:0:
318,108,200725,1,0,0:0:0:0:
357,255,200883,5,6,1:2:0:0:
147,180,201041,1,0,1:1:0:0:
243,310,201199,5,10,2:2:0:0:
41,365,201357,1,2,1:2:0:0:
259,229,201515,6,0,P|232:226|210:222,1,41.25,4|0,1:2|0:0,0:0:0:0:
10,183,201673,2,0,P|32:169|51:155,1,41.25,8|0,2:2|0:0,0:0:0:0:
189,92,201831,5,8,2:3:0:0:
149,120,201909,1,4,2:3:0:0:
125,161,201988,1,0,1:1:0:0:
120,209,202067,1,0,1:1:0:0:
135,255,202146,5,6,1:2:0:0:
313,151,202304,1,2,1:2:0:0:
170,346,202462,5,10,2:2:0:0:
362,318,202620,1,2,1:2:0:0:
362,318,202699,1,0,1:0:0:0:
362,318,202778,2,0,P|346:266|330:222,1,82.5,2|2,1:2|2:2,0:0:0:0:
240,106,203094,2,0,P|298:125|359:137,1,123.75,10|0,2:2|0:0,0:0:0:0:
358,57,203410,6,0,P|298:40|256:32,1,82.5,2|0,1:2|1:1,0:0:0:0:
311,217,203725,1,10,2:2:0:0:
179,183,203883,2,0,P|141:134|167:41,1,165,2|0,1:2|1:1,0:0:0:0:
268,15,204357,1,10,2:2:0:0:
47,128,204515,1,2,2:2:0:0:
262,287,204673,6,0,P|196:268|66:256,1,165,6|8,1:2|2:2,0:0:0:0:
202,154,205146,1,0,0:0:0:0:
343,235,205304,2,0,P|350:277|358:333,1,82.5,2|0,1:2|1:1,0:0:0:0:
438,114,205620,2,0,P|397:107|356:100,1,82.5,8|0,2:2|0:0,0:0:0:0:
115,278,205936,5,6,1:2:0:0:
430,207,206094,1,10,2:3:0:0:
73,150,206252,1,6,2:3:0:0:
285,363,206410,6,0,P|277:272|267:168,1,165,6|0,1:2|1:1,0:0:0:0:
139,299,206883,1,8,2:2:0:0:
189,140,207041,5,8,2:2:0:0:
189,140,207120,1,8,2:2:0:0:
189,140,207199,2,0,P|242:100|336:121,1,165,6|8,1:2|2:2,0:0:0:0:
417,262,207673,2,0,P|456:208|435:114,1,165,6|8,1:2|2:2,0:0:0:0:
280,255,208146,2,0,L|96:286,1,165,6|0,1:2|0:0,0:0:0:0:
107,124,208620,5,0,1:1:0:0:
107,124,208699,1,0,1:0:0:0:
107,124,208778,2,0,L|214:144,1,82.5,10|0,2:2|0:0,0:0:0:0:
140,252,209094,1,10,1:3:0:0:
0,84,209252,2,0,L|15:165,1,82.5,10|8,2:2|2:2,0:0:0:0:
10,292,209568,1,8,2:2:0:0:
230,213,209725,6,0,P|270:159|213:56,1,165,6|8,1:2|2:2,0:0:0:0:
146,73,210199,1,6,1:2:0:0:
146,73,210357,2,0,P|169:127|213:143,1,82.5,0|8,0:0|2:2,0:0:0:0:
365,113,210673,2,0,P|350:162|339:209,1,82.5,6|0,1:2|0:0,0:0:0:0:
261,56,210989,5,8,2:2:0:0:
261,56,211068,1,8,2:2:0:0:
261,56,211146,1,8,2:2:0:0:
378,6,211304,1,10,1:3:0:0:
347,123,211462,5,0,1:1:0:0:
334,130,211541,1,4,2:3:0:0:
320,135,211620,1,10,2:2:0:0:
249,211,211778,5,10,2:2:0:0:
296,287,211936,5,8,2:3:0:0:
385,291,212094,5,0,1:1:0:0:
446,238,212252,6,0,P|392:237|274:313,1,165,6|8,1:2|2:2,0:0:0:0:
137,359,212725,2,0,P|96:322|84:212,1,165,6|8,1:2|2:2,0:0:0:0:
281,74,213199,2,0,P|322:111|334:221,1,165,6|8,1:2|2:2,0:0:0:0:
187,152,213673,6,0,P|244:160|272:193,1,82.5,6|0,1:2|0:0,0:0:0:0:
201,236,213989,1,8,2:2:0:0:
81,217,214146,2,0,P|67:168|51:126,1,82.5,6|8,1:2|2:2,0:0:0:0:
276,3,214462,2,0,P|262:52|246:94,1,82.5,14|4,1:3|2:3,0:0:0:0:
127,68,214778,5,6,1:2:0:0:
375,13,214936,1,8,2:2:0:0:
375,13,215015,1,8,2:2:0:0:
375,13,215094,1,8,2:2:0:0:
506,235,215252,5,8,2:3:0:0:
261,175,215410,1,8,2:2:0:0:
261,175,215489,1,8,2:2:0:0:
261,175,215568,1,8,2:2:0:0:
117,368,215725,5,0,1:1:0:0:
244,61,215883,1,8,2:2:0:0:
244,61,215962,1,8,2:2:0:0:
244,61,216041,1,14,2:2:0:0:
373,242,216199,5,12,2:2:0:0:
128,190,217304,5,6,2:2:0:0:
87,121,217462,1,2,2:2:0:0:
156,80,217620,1,2,2:2:0:0:
197,149,217778,1,2,2:2:0:0:
97,270,217936,6,0,P|11:254|-11:251,2,98.9999969787599,2|2|2,2:2|2:2|2:2,0:0:0:0:
254,210,218883,5,2,2:2:0:0:
182,273,219041,2,0,P|186:297|192:322,1,49.4999984893799,2|0,2:2|0:0,0:0:0:0:
291,319,219357,5,2,2:2:0:0:
310,306,219515,1,2,2:2:0:0:
334,302,219673,1,2,2:2:0:0:
424,334,219831,6,0,P|434:306|427:275,1,49.4999984893799,2|2,2:2|2:2,0:0:0:0:
398,206,220146,1,2,2:2:0:0:
325,205,220304,2,0,P|345:218|370:222,1,49.4999984893799,2|0,2:2|0:0,0:0:0:0:
451,125,220620,5,2,2:2:0:0:
432,112,220778,1,2,2:2:0:0:
408,108,220936,1,2,2:2:0:0:
279,134,221094,6,0,P|243:166|242:234,1,98.9999969787599,2|2,2:2|2:2,0:0:0:0:
283,294,221568,2,0,P|258:299|234:304,1,49.4999984893799,2|2,2:2|2:2,0:0:0:0:
151,280,221883,2,0,P|141:231|131:182,1,98.9999969787599,2|6,2:2|2:2,0:0:0:0:
214,80,222357,5,0,0:0:0:0:
278,36,222515,1,2,2:2:0:0:
350,63,222673,1,2,2:2:0:0:
369,137,222831,1,2,2:2:0:0:
320,216,222989,6,0,P|283:177|286:112,2,98.9999969787599,2|2|2,2:2|2:2|2:2,0:0:0:0:
486,198,223936,1,2,2:2:0:0:
437,141,224094,2,0,L|369:158,1,49.4999984893799,2|0,2:2|0:0,0:0:0:0:
299,299,224410,5,2,2:2:0:0:
220,239,224568,1,2,2:2:0:0:
303,195,224725,1,2,2:2:0:0:
269,333,224883,6,0,P|203:314|156:304,1,98.9999969787599,2|0,2:2|0:0,0:0:0:0:
51,226,225357,1,2,2:2:0:0:
51,226,225515,2,0,P|99:214|146:200,1,98.9999969787599,2|0,2:2|0:0,0:0:0:0:
264,47,226146,6,0,P|318:75|333:123,1,98.9999969787599,2|0,2:2|0:0,0:0:0:0:
323,222,226620,1,2,2:2:0:0:
206,241,226778,2,0,P|196:187|269:124,1,148.49999546814,2|8,2:2|2:2,0:0:0:0:
257,125,227331,1,8,2:2:0:0:
257,125,227410,1,10,2:2:0:0:
278,331,227725,5,10,2:2:0:0:
102,239,227883,1,2,1:2:0:0:
343,84,228041,1,10,2:2:0:0:
213,52,228199,6,0,P|216:134|223:249,1,165,10|2,2:2|2:2,0:0:0:0:
256,192,228594,12,0,231199,0:0:0:0:
