osu file format v14

[General]
AudioFilename: audio.mp3
AudioLeadIn: 0
PreviewTime: 136426
Countdown: 0
SampleSet: Soft
StackLeniency: 0.4
Mode: 0
LetterboxInBreaks: 0
EpilepsyWarning: 1
WidescreenStoryboard: 1

[Editor]
Bookmarks: 15036,30352,40457,50563,58141,60668,70773,84668,96036,106141,113798,120036,126352,133931,146641,160457,171826,181931,192036,202141,212247,217299,228510,231194
DistanceSpacing: 0.1
BeatDivisor: 4
GridSize: 8
TimelineZoom: 1

[Metadata]
Title:INFINITE SKY
TitleUnicode:INFINITE SKY
Artist:KOTOKO
ArtistUnicode:KOTOKO
Creator:Kirylln
Version:Beyond the Geostationary Orbit Level
Source:蒼の彼方のフォーリズム
Tags:sprite 2nd second opening ao no kanata no four rhythm beyond the sky into the firmament visual novel aokana japanese video game
BeatmapID:2194715
BeatmapSetID:1050152

[Difficulty]
HPDrainRate:5
CircleSize:5
OverallDifficulty:9
ApproachRate:9.4
SliderMultiplier:1.9
SliderTickRate:1

[Events]
//Background and Video events
0,0,"1.jpg",0,0
//Break Periods
2,4658,7077
2,88027,90446
2,219395,221814
//Storyboard Layer 0 (Background)
//Storyboard Layer 1 (Fail)
//Storyboard Layer 2 (Pass)
//Storyboard Layer 3 (Foreground)
//Storyboard Sound Samples

[TimingPoints]
2565,315.789473684211,4,2,1,45,1,0
2565,-250,4,2,1,45,0,0
12670,-166.666666666667,4,2,1,45,0,0
14249,-166.666666666667,4,2,1,60,0,0
15512,-166.666666666667,4,2,1,40,0,0
20249,-166.666666666667,4,2,1,45,0,0
30196,-100,4,2,1,60,0,0
30354,-100,4,2,1,60,0,0
30670,-125,4,2,1,60,0,0
37933,-83.3333333333333,4,2,1,60,0,0
39512,-100,4,2,1,60,0,0
39828,-125,4,2,1,60,0,0
40143,-250,4,2,1,60,0,0
40775,-71.4285714285714,4,2,1,60,0,0
41249,-166.666666666667,4,2,1,60,0,0
41565,-83.3333333333333,4,2,1,60,0,0
42038,-125,4,2,1,60,0,0
44249,-83.3333333333333,4,2,1,60,0,0
44565,-166.666666666667,4,2,1,60,0,0
45512,-500,4,2,1,60,0,0
45828,-83.3333333333333,4,2,1,60,0,0
48354,-125,4,2,1,60,0,0
49301,-83.3333333333333,4,2,1,60,0,0
51196,-125,4,2,1,60,0,0
51512,-100,4,2,1,60,0,0
53722,-125,4,2,1,60,0,0
54354,-83.3333333333333,4,2,1,60,0,0
55617,-83.3333333333333,4,2,1,80,0,0
57512,-71.4285714285714,4,2,1,80,0,0
59880,-71.4285714285714,4,2,1,90,0,0
60196,-71.4285714285714,4,2,1,95,0,0
60670,-71.4285714285714,4,2,69,100,0,1
60749,-71.4285714285714,4,2,1,80,0,1
65722,-100,4,2,1,80,0,1
66986,-83.3333333333333,4,2,1,80,0,1
68249,-71.4285714285714,4,2,1,80,0,1
69828,-500,4,2,1,80,0,1
70143,-71.4285714285714,4,2,1,80,0,1
75512,-71.4285714285714,4,2,1,60,0,1
75828,-71.4285714285714,4,2,1,80,0,1
77722,-71.4285714285714,4,2,1,60,0,1
78354,-71.4285714285714,4,2,1,80,0,1
79617,-71.4285714285714,4,2,1,60,0,1
80880,-71.4285714285714,4,2,1,80,0,1
82775,-71.4285714285714,4,2,1,90,0,1
83091,-71.4285714285714,4,2,1,95,0,1
83407,-71.4285714285714,4,2,1,80,0,1
84828,-71.4285714285714,4,2,1,80,0,0
85933,-250.000000000001,4,2,1,30,0,0
93512,-166.666666666667,4,2,1,45,0,0
95880,-71.4285714285714,4,2,1,45,0,0
96038,-71.4285714285714,4,2,1,60,0,0
96354,-125,4,2,1,60,0,0
106143,-100,4,2,1,60,0,0
106617,-125,4,2,1,60,0,0
113722,-83.3333333333333,4,2,1,60,0,0
114670,-166.666666666667,4,2,1,60,0,0
114986,-83.3333333333333,4,2,1,60,0,0
116249,-250,4,2,1,30,0,0
118775,-500,4,2,1,30,0,0
119091,-83.3333333333333,4,2,1,60,0,0
120354,-166.666666666667,4,2,1,60,0,0
121301,-500,4,2,1,60,0,0
121617,-83.3333333333333,4,2,1,60,0,0
126986,-166.666666666667,4,2,1,60,0,0
127301,-100,4,2,1,60,0,0
128249,-166.666666666667,4,2,1,60,0,0
128565,-100,4,2,1,60,0,0
129512,-166.666666666667,4,2,1,60,0,0
130143,-83.3333333333333,4,2,1,60,0,0
131407,-83.3333333333333,4,2,1,85,0,0
135354,-166.666666666667,4,2,1,85,0,0
135433,-166.666666666667,4,2,1,5,0,0
135512,-166.666666666667,4,2,1,60,0,0
135591,-166.666666666667,4,2,1,5,0,0
135670,-166.666666666667,4,2,1,60,0,0
135749,-166.666666666667,4,2,1,5,0,0
135828,-166.666666666667,4,2,1,90,0,0
135907,-166.666666666667,4,2,1,5,0,0
135986,-166.666666666667,4,2,1,60,0,0
136065,-166.666666666667,4,2,1,5,0,0
136143,-166.666666666667,4,2,1,80,0,0
136222,-166.666666666667,4,2,1,5,0,0
136301,-166.666666666667,4,2,1,70,0,0
136380,-166.666666666667,4,2,1,5,0,0
136459,-71.4285714285714,4,2,69,100,0,1
136538,-71.4285714285714,4,2,1,80,0,1
141512,-100,4,2,1,60,0,1
142775,-83.3333333333333,4,2,1,60,0,1
144038,-71.4285714285714,4,2,1,80,0,1
145617,-500,4,2,1,80,0,1
147828,-71.4285714285714,4,2,1,80,0,1
151301,-71.4285714285714,4,2,1,60,0,1
151617,-71.4285714285714,4,2,1,80,0,1
153512,-71.4285714285714,4,2,1,60,0,1
154143,-71.4285714285714,4,2,1,80,0,1
155407,-71.4285714285714,4,2,1,60,0,1
156670,-71.4285714285714,4,2,1,80,0,1
158565,-71.4285714285714,4,2,1,95,0,1
158880,-71.4285714285714,4,2,1,100,0,1
159196,-71.4285714285714,4,2,1,80,0,1
160459,-71.4285714285714,4,2,1,80,0,0
161722,-71.4285714285714,4,2,69,100,0,0
161801,-71.4285714285714,4,2,1,75,0,0
162196,-100,4,2,1,75,0,0
169617,-71.4285714285714,4,2,1,75,0,0
170249,-125,4,2,1,75,0,0
171512,-100,4,2,1,75,0,0
171828,-100,4,2,1,30,0,0
173091,-333.333333333333,4,2,1,30,0,0
181459,-100,4,2,1,60,0,0
181617,-166.666666666667,4,2,1,60,0,0
181933,-125,4,2,1,60,0,0
182880,-100,4,2,1,60,0,0
183828,-125,4,2,1,60,0,0
184459,-100,4,2,1,60,0,0
186986,-100,4,2,1,80,0,0
192038,-500,4,2,1,80,0,0
192354,-71.4285714285714,4,2,69,100,0,1
192433,-71.4285714285714,4,2,1,80,0,1
197091,-100,4,2,1,80,0,1
198354,-83.3333333333333,4,2,1,80,0,1
199617,-71.4285714285714,4,2,1,80,0,1
201196,-500,4,2,1,80,0,1
201512,-71.4285714285714,4,2,1,80,0,1
206880,-71.4285714285714,4,2,1,60,0,1
207196,-71.4285714285714,4,2,1,80,0,1
209091,-71.4285714285714,4,2,1,60,0,1
209722,-71.4285714285714,4,2,1,80,0,1
210986,-71.4285714285714,4,2,1,60,0,1
212249,-71.4285714285714,4,2,1,80,0,1
214143,-71.4285714285714,4,2,1,90,0,1
214459,-71.4285714285714,4,2,1,95,0,1
214775,-71.4285714285714,4,2,1,80,0,1
216196,-71.4285714285714,4,2,1,80,0,0
217301,-250,4,2,1,55,0,0
227407,-250,4,2,1,50,0,0
227722,-250,4,2,1,60,0,0
228512,-1000,4,2,1,60,0,0

[Colours]
Combo1 : 255,255,187
Combo2 : 255,128,128
Combo3 : 138,191,255
Combo4 : 255,183,255

[HitObjects]
96,96,2565,5,2,0:0:0:0:
96,96,2722,2,0,L|142:107,2,38,0|0|0,0:0|0:0|0:0,0:0:0:0:
192,176,3196,2,0,L|271:161,1,76,0|0,0:0|0:0,0:0:0:0:
400,128,3828,2,0,L|448:144,1,38,2|0,0:0|0:0,0:0:0:0:
352,272,4143,1,2,0:0:0:0:
352,272,4301,2,0,L|400:288,1,38,2|0,0:0|0:0,0:0:0:0:
96,96,7617,5,2,0:0:0:0:
96,96,7775,2,0,L|142:107,2,38,0|0|0,0:0|0:0|0:0,0:0:0:0:
192,176,8249,2,0,L|271:161,1,76,0|0,0:0|0:0,0:0:0:0:
400,128,8880,2,0,L|448:144,1,38,2|0,0:0|0:0,0:0:0:0:
352,272,9195,1,2,0:0:0:0:
352,272,9354,2,0,L|432:256,1,76,2|0,0:0|0:0,0:0:0:0:
48,368,9986,5,0,0:0:0:0:
48,368,10143,2,0,L|61:334,2,19,2|2|2,0:0|0:0|0:0,0:0:0:0:
48,256,10617,1,0,0:0:0:0:
48,256,10775,1,0,0:0:0:0:
160,368,11407,6,0,L|189:280,1,76
256,240,11880,1,2,0:0:0:0:
256,240,12038,1,2,0:0:0:0:
336,304,12670,6,0,L|380:171,1,113.999996520996,0|0,0:0|0:0,0:0:0:0:
432,144,13143,1,2,0:0:0:0:
432,144,13301,1,2,0:0:0:0:
464,272,14249,5,2,3:0:0:0:
336,80,14407,1,0,1:0:0:0:
496,112,14565,1,2,3:0:0:0:
304,240,14722,1,0,1:0:0:0:
464,272,15038,5,4,0:0:0:0:
304,240,15354,5,0,0:0:0:0:
296,228,15512,2,0,L|180:208,2,113.999996520996,2|2|2,0:0|0:0|0:0,0:0:0:0:
176,304,16301,1,0,0:0:0:0:
176,304,16459,2,0,L|292:324,2,113.999996520996,0|2|2,1:0|0:0|0:0,0:0:0:0:
80,336,17249,1,0,0:0:0:0:
80,336,17407,2,0,L|96:272,1,56.9999982604981,2|0,0:0|0:0,0:0:0:0:
16,96,17722,6,0,L|0:160,1,56.9999982604981,0|0,1:0|0:0,0:0:0:0:
88,100,18038,2,0,L|72:164,1,56.9999982604981,2|0,0:0|0:0,0:0:0:0:
160,104,18354,2,0,L|144:168,1,56.9999982604981,2|0,0:0|0:0,0:0:0:0:
218,163,18670,2,0,L|232:108,1,56.9999982604981,2|0,0:0|0:0,0:0:0:0:
432,192,18986,5,0,1:0:0:0:
474,141,19143,1,0,0:0:0:0:
497,202,19301,1,2,0:0:0:0:
497,202,19459,1,0,0:0:0:0:
384,288,19617,5,2,0:0:0:0:
356,227,19774,1,0,0:0:0:0:
318,280,19932,1,0,1:0:0:0:
318,280,20090,1,0,1:0:0:0:
346,341,20249,1,0,1:0:0:0:
13,120,20565,6,0,L|0:176,1,56.9999982604981,0|0,0:0|1:0,0:0:0:0:
80,192,20880,2,0,L|208:176,1,113.999996520996,0|0,0:0|0:0,0:0:0:0:
432,192,21512,2,0,L|480:72,1,113.999996520996,0|0,1:0|0:0,0:0:0:0:
432,16,21986,2,0,L|377:31,2,56.9999982604981,0|0|0,1:0|0:0|0:0,0:0:0:0:
324,92,22459,2,0,L|224:76,1,85.4999973907472,0|0,0:0|0:0,0:0:0:0:
240,64,22775,2,0,L|115:91,2,113.999996520996,0|0|0,1:0|0:0|0:0,0:0:0:0:
336,272,23722,5,0,0:0:0:0:
355,209,23880,1,0,0:0:0:0:
400,256,24038,1,0,1:0:0:0:
400,368,24354,6,0,L|272:352,1,113.999996520996,0|0,0:0|0:0,0:0:0:0:
144,288,24986,2,0,L|80:304,1,56.9999982604981,0|0,0:0|0:0,0:0:0:0:
0,256,25301,1,0,1:0:0:0:
16,208,25459,1,0,0:0:0:0:
16,208,25617,2,0,L|80:192,1,56.9999982604981,0|0,0:0|1:0,0:0:0:0:
128,128,25933,2,0,L|256:160,1,113.999996520996,0|0,0:0|0:0,0:0:0:0:
512,160,26407,5,0,0:0:0:0:
512,160,26565,2,0,L|496:96,1,56.9999982604981,0|0,1:0|0:0,0:0:0:0:
424,240,26880,1,0,0:0:0:0:
424,240,27038,2,0,L|436:99,1,113.999996520996,0|0,1:0|0:0,0:0:0:0:
224,272,27512,1,0,0:0:0:0:
304,256,27670,1,0,0:0:0:0:
304,256,27749,1,0,0:0:0:0:
304,256,27828,2,0,L|363:127,2,113.999996520996,0|0|0,1:0|0:0|0:0,0:0:0:0:
260,360,28617,5,0,0:0:0:0:
260,360,28775,2,0,L|323:348,1,56.9999982604981,0|0,0:0|0:0,0:0:0:0:
112,304,29091,5,0,1:0:0:0:
128,384,29249,1,2,0:0:0:0:
112,128,29407,1,12,0:0:0:0:
128,208,29565,1,8,0:3:0:0:
160,192,29643,1,8,0:3:0:0:
192,176,29722,1,4,0:3:0:0:
128,32,29880,1,4,0:3:0:0:
16,176,30038,1,2,0:0:0:0:
224,96,30196,6,0,L|240:48,1,47.5,2|2,0:0|0:0,0:0:0:0:
511,26,30354,2,0,L|322:47,1,190,4|8,0:0|0:0,0:0:0:0:
400,224,30828,1,2,0:3:0:0:
512,128,30986,2,0,L|432:160,1,76,2|2,0:0|0:0,0:0:0:0:
320,208,31301,1,8,0:0:0:0:
347,286,31459,5,0,0:0:0:0:
496,320,31617,2,0,L|410:307,1,76,0|2,1:0|0:3,0:0:0:0:
267,270,31933,1,8,0:0:0:0:
267,270,32091,2,0,L|176:288,2,76,2|2|2,0:0|0:3|0:0,0:0:0:0:
32,256,32565,5,8,0:0:0:0:
32,256,32722,1,2,0:3:0:0:
64,80,32880,2,0,L|87:201,1,114,0|0,1:0|0:0,0:0:0:0:
86,191,33196,1,8,0:0:0:0:
224,96,33354,2,0,L|176:160,1,76,2|2,0:0|0:3,0:0:0:0:
377,109,33670,2,0,L|304:128,1,76,2|8,0:0|0:0,0:0:0:0:
272,208,33986,5,0,0:0:0:0:
448,208,34143,2,0,L|368:192,1,76,0|2,1:0|0:3,0:0:0:0:
240,288,34459,2,0,L|160:320,1,76,8|0,0:0|0:0,0:0:0:0:
400,336,34775,2,0,L|314:323,1,76,2|2,0:3|0:0,0:0:0:0:
96,368,35091,2,0,L|16:320,1,76,8|0,0:0|0:0,0:0:0:0:
40,144,35407,5,4,0:0:0:0:
72,208,35565,1,0,0:0:0:0:
121,73,35722,2,0,L|111:148,2,76,8|0|2,0:0|0:0|0:0,0:0:0:0:
152,8,36195,1,0,0:0:0:0:
224,112,36354,5,8,0:0:0:0:
264,53,36511,1,0,0:0:0:0:
323,187,36670,2,0,L|294:116,1,76,0|2,1:0|0:3,0:0:0:0:
304,272,36986,1,8,0:0:0:0:
384,112,37143,1,2,0:0:0:0:
388,93,37222,1,2,0:0:0:0:
392,74,37301,1,8,0:0:0:0:
452,180,37459,1,0,0:0:0:0:
496,80,37617,1,8,0:3:0:0:
496,80,37775,1,4,0:3:0:0:
512,231,37933,6,0,L|322:186,1,227.999993041992,4|0,0:0|1:0,0:0:0:0:
304,272,38407,1,0,1:0:0:0:
220,296,38565,2,0,L|176:192,1,113.999996520996,4|0,0:0|0:0,0:0:0:0:
284,352,38880,1,0,1:0:0:0:
304,272,39038,1,0,1:0:0:0:
112,176,39196,6,0,L|195:264,1,113.999996520996,8|0,0:0|0:0,0:0:0:0:
48,200,39512,2,0,L|133:243,1,95,2|0,0:0|0:0,0:0:0:0:
32,248,39828,2,0,L|126:259,1,76,8|0,0:0|0:0,0:0:0:0:
38,291,40143,2,0,L|99:276,1,57,2|0,0:3|0:0,0:0:0:0:
120,294,40459,1,0,1:0:0:0:
120,294,40538,1,0,1:0:0:0:
240,192,40775,6,0,L|471:246,1,199.499993911743,4|0,0:0|0:0,0:0:0:0:
464,256,41091,1,0,1:0:0:0:
432,144,41249,2,0,L|480:96,1,56.9999982604981,0|8,1:0|0:0,0:0:0:0:
352,80,41565,6,0,L|99:122,1,227.999993041992,4|0,0:0|1:0,0:0:0:0:
80,192,42038,1,8,0:0:0:0:
32,128,42196,2,0,L|48:32,1,76,0|0,0:0|1:0,0:0:0:0:
127,117,42512,2,0,L|258:165,1,114,2|0,0:0|0:0,0:0:0:0:
272,240,42828,6,0,L|448:208,1,152,4|0,0:0|1:0,0:0:0:0:
370,380,43301,2,0,L|416:320,1,76,8|0,0:0|0:0,0:0:0:0:
421,212,43617,1,0,1:0:0:0:
360,260,43775,1,2,0:0:0:0:
240,352,43933,2,0,L|309:322,1,76,0|2,1:0|0:0,0:0:0:0:
0,256,44249,6,0,L|208:288,1,170.999994781494,4|0,0:0|0:0,0:0:0:0:
208,160,44565,2,0,L|272:192,1,56.9999982604981,0|2,1:0|0:0,0:0:0:0:
400,128,44880,1,0,1:0:0:0:
360,260,45038,1,2,3:0:0:0:
341,57,45196,1,8,0:0:0:0:
348,45,45275,1,8,0:0:0:0:
354,32,45354,1,8,0:0:0:0:
400,128,45512,6,0,L|430:124,1,28.5,0|0,0:0|0:0,0:0:0:0:
512,112,45828,6,0,L|274:78,1,227.999993041992,4|0,0:0|1:0,0:0:0:0:
144,16,46301,1,2,0:0:0:0:
256,0,46459,1,8,0:0:0:0:
96,112,46617,2,0,L|-16:64,2,113.999996520996,4|0|0,0:0|0:0|0:0,0:0:0:0:
128,320,47091,5,8,0:0:0:0:
128,240,47249,2,0,L|224:144,1,113.999996520996,2|0,0:0|0:0,0:0:0:0:
384,224,47565,2,0,L|256:240,1,113.999996520996,2|8,0:0|0:0,0:0:0:0:
224,0,47880,2,0,L|304:176,1,170.999994781494,4|0,0:0|0:0,0:0:0:0:
294,155,48196,1,0,1:0:0:0:
384,96,48354,6,0,L|432:32,1,76,8|0,0:0|0:0,0:0:0:0:
480,192,48670,1,0,1:0:0:0:
496,112,48828,1,2,0:0:0:0:
413,293,48986,2,0,L|381:219,1,76,8|0,0:0|0:0,0:0:0:0:
496,352,49301,6,0,L|288:304,1,170.999994781494,4|0,0:0|0:0,0:0:0:0:
224,352,49617,2,0,L|128:256,1,113.999996520996,2|0,0:3|0:0,0:0:0:0:
176,32,49933,2,0,L|208:160,1,113.999996520996,2|0,0:3|0:0,0:0:0:0:
0,224,50249,2,0,L|96:160,1,113.999996520996,2|0,0:3|0:0,0:0:0:0:
384,32,50565,5,0,1:0:0:0:
380,104,50722,1,0,0:0:0:0:
320,64,50880,1,8,0:0:0:0:
320,64,51038,1,0,0:0:0:0:
496,144,51196,6,0,L|512:96,2,38,0|0|0,1:0|0:0|1:0,0:0:0:0:
512,224,51512,1,8,0:0:0:0:
384,320,51828,6,0,L|224:288,1,142.5,0|0,1:0|0:0,0:0:0:0:
244,292,52143,1,8,0:0:0:0:
32,368,52301,1,0,0:0:0:0:
93,306,52459,1,0,1:0:0:0:
9,285,52617,1,0,1:0:0:0:
208,176,52775,6,0,L|64:208,1,142.5,8|0,0:0|0:0,0:0:0:0:
80,192,53091,1,0,1:0:0:0:
256,80,53249,1,0,0:0:0:0:
208,16,53407,1,8,0:0:0:0:
177,90,53565,1,0,0:0:0:0:
304,176,53722,6,0,L|336:128,2,38,0|0|0,1:0|0:0|1:0,0:0:0:0:
304,252,54038,1,8,0:0:0:0:
448,368,54354,6,0,L|416:176,1,170.999994781494,2|0,0:3|0:0,0:0:0:0:
432,176,54670,1,8,0:0:0:0:
254,362,54828,2,0,L|289:170,1,170.999994781494,2|0,0:3|0:0,0:0:0:0:
304,176,55144,1,0,1:0:0:0:
104,320,55301,1,0,1:0:0:0:
152,248,55459,1,2,0:3:0:0:
144,8,55617,5,4,0:0:0:0:
248,264,55775,1,0,0:0:0:0:
208,176,55933,1,0,0:0:0:0:
352,0,56091,5,4,0:0:0:0:
72,128,56249,1,0,0:0:0:0:
144,120,56407,1,0,0:0:0:0:
392,96,56565,5,4,0:0:0:0:
392,96,56722,1,0,0:0:0:0:
392,96,56880,1,0,0:0:0:0:
224,384,57038,5,4,0:0:0:0:
224,384,57195,1,0,0:0:0:0:
224,384,57353,1,0,0:0:0:0:
70,31,57512,6,0,L|173:140,1,132.999995941162,4|0,0:0|0:0,0:0:0:0:
408,368,57828,2,0,L|440:183,1,132.999995941162,4|0,0:0|0:0,0:0:0:0:
400,8,58143,5,8,0:3:0:0:
392,96,58301,1,0,1:0:0:0:
368,88,58380,1,0,1:0:0:0:
344,80,58459,1,0,1:0:0:0:
480,72,58617,1,8,0:0:0:0:
456,152,58775,1,0,1:0:0:0:
256,96,58933,1,8,0:3:0:0:
280,16,59091,1,4,0:3:0:0:
280,16,59249,1,2,0:3:0:0:
208,240,59407,5,0,1:0:0:0:
120,208,59565,1,8,0:0:0:0:
199,36,59722,5,4,0:0:0:0:
296,272,59880,1,2,3:0:0:0:
32,176,60038,5,4,0:0:0:0:
352,160,60196,1,2,3:0:0:0:
176,384,60354,6,0,L|88:352,1,66.4999979705811,4|0,0:0|0:0,0:0:0:0:
62,270,60512,2,0,L|0:248,1,66.4999979705811,0|0,1:0|1:0,0:0:0:0:
368,296,60670,6,0,L|504:240,1,132.999995941162,4|0,0:1|1:0,0:0:0:0:
272,208,60986,2,0,L|480:160,1,199.499993911743,8|0,0:0|0:0,0:0:0:0:
456,152,61301,1,0,1:0:0:0:
344,96,61459,1,0,1:0:0:0:
176,16,61617,2,0,L|272:120,1,132.999995941162,8|0,0:0|0:0,0:0:0:0:
112,264,61933,6,0,L|96:48,1,199.499993911743,8|0,0:0|0:0,0:0:0:0:
88,80,62249,1,0,1:0:0:0:
0,384,62407,2,0,L|24:112,1,265.999991882324,2|0,3:0|1:0,0:0:0:0:
176,328,62880,5,8,0:0:0:0:
216,256,63038,1,0,0:0:0:0:
264,128,63196,5,4,1:0:0:0:
258,326,63354,1,0,0:0:0:0:
432,232,63512,1,8,0:0:0:0:
350,234,63670,5,0,0:0:0:0:
390,162,63828,1,0,1:0:0:0:
432,232,63986,1,0,1:0:0:0:
439,35,64143,1,8,0:0:0:0:
0,64,64459,6,0,L|216:176,1,199.499993911743,0|0,1:0|0:0,0:0:0:0:
168,144,64775,1,8,0:0:0:0:
304,271,64933,2,0,L|458:223,1,132.999995941162,2|0,0:0|1:0,0:0:0:0:
344,376,65249,1,8,0:0:0:0:
328,368,65328,1,8,0:0:0:0:
312,360,65407,1,8,0:0:0:0:
128,344,65565,1,0,1:0:0:0:
106,333,65644,1,0,1:0:0:0:
89,326,65722,6,0,L|216:344,1,95,4|0,0:0|0:0,0:0:0:0:
351,157,66038,1,8,0:0:0:0:
256,192,66196,1,0,0:0:0:0:
56,200,66354,2,0,L|169:260,1,95,0|0,1:0|1:0,0:0:0:0:
88,40,66670,2,0,L|176:168,1,142.5,8|0,0:0|0:0,0:0:0:0:
351,157,66986,6,0,L|479:133,1,113.999996520996,0|0,1:0|0:0,0:0:0:0:
512,16,67301,1,8,0:0:0:0:
416,48,67459,1,0,0:0:0:0:
352,224,67617,2,0,L|464:157,1,113.999996520996,0|0,1:0|1:0,0:0:0:0:
392,360,67933,2,0,L|464:192,1,170.999994781494,8|0,0:0|0:0,0:0:0:0:
352,224,68249,6,0,L|210:56,1,199.499993911743,4|0,0:0|0:0,0:0:0:0:
232,96,68565,1,8,0:0:0:0:
208,168,68722,1,0,0:0:0:0:
160,384,68880,2,0,L|128:240,1,132.999995941162,0|0,1:0|1:0,0:0:0:0:
32,56,69196,1,8,0:0:0:0:
72,128,69354,1,0,0:0:0:0:
40,264,69512,5,0,1:0:0:0:
115,58,69670,1,8,0:3:0:0:
248,312,69828,2,0,L|272:296,1,28.5,4|0,0:0|0:0,0:0:0:0:
296,296,70143,5,8,0:0:0:0:
336,120,70301,1,8,0:0:0:0:
416,352,70459,5,8,0:0:0:0:
496,144,70617,1,8,0:0:0:0:
488,112,70696,1,0,0:0:0:0:
480,80,70775,5,4,0:0:0:0:
432,264,70933,1,0,1:0:0:0:
296,130,71091,1,8,0:0:0:0:
408,168,71249,1,0,0:0:0:0:
296,296,71407,5,0,1:0:0:0:
352,79,71565,1,0,1:0:0:0:
135,138,71723,1,8,0:0:0:0:
16,352,72038,6,0,L|224:384,1,199.499993911743,8|0,0:0|0:0,0:0:0:0:
208,368,72354,1,0,1:0:0:0:
56,221,72512,2,0,L|344:333,1,265.999991882324,2|0,3:0|1:0,0:0:0:0:
512,256,72986,5,8,0:0:0:0:
400,128,73143,1,0,0:0:0:0:
400,368,73301,2,0,L|368:208,1,132.999995941162,0|0,1:0|0:0,0:0:0:0:
368,48,73617,1,8,0:0:0:0:
368,48,73775,1,0,0:0:0:0:
272,96,73933,6,0,L|128:48,1,132.999995941162,0|0,1:0|1:0,0:0:0:0:
32,64,74249,1,8,0:0:0:0:
32,64,74407,1,0,0:0:0:0:
256,192,74565,5,4,0:0:0:0:
0,256,74722,1,8,0:3:0:0:
112,336,74880,1,4,0:3:0:0:
32,64,75038,2,0,L|120:225,1,132.999995941162,4|0,0:0|0:0,0:0:0:0:
208,288,75354,5,0,1:0:0:0:
400,256,75512,1,8,0:0:0:0:
400,256,75591,1,8,0:0:0:0:
400,256,75670,1,8,0:0:0:0:
400,16,75828,6,0,L|368:320,1,265.999991882324,4|0,0:0|0:0,0:0:0:0:
112,16,76301,2,0,L|144:320,1,265.999991882324,4|0,0:0|0:0,0:0:0:0:
480,96,76775,2,0,L|345:370,1,265.999991882324,4|0,0:0|0:0,0:0:0:0:
80,384,77249,1,0,1:0:0:0:
148,335,77407,2,0,L|87:209,1,132.999995941162,4|0,0:0|0:0,0:0:0:0:
256,128,77722,5,8,0:0:0:0:
336,80,77880,1,8,0:0:0:0:
341,58,77959,1,8,0:0:0:0:
347,36,78038,1,8,0:0:0:0:
432,16,78196,1,0,1:0:0:0:
256,128,78354,6,0,L|497:17,1,265.999991882324,4|0,0:0|0:0,0:0:0:0:
256,256,78828,2,0,L|14:366,1,265.999991882324,4|0,0:0|0:0,0:0:0:0:
240,112,79301,2,0,L|505:90,1,265.999991882324,4|8,0:0|0:0,0:0:0:0:
416,240,79775,5,8,0:0:0:0:
402,232,79854,1,0,0:0:0:0:
388,224,79933,1,0,1:0:0:0:
512,224,80091,1,0,1:0:0:0:
480,352,80249,1,8,0:0:0:0:
272,336,80407,2,0,L|416:320,2,132.999995941162,8|2|0,0:0|0:0|1:0,0:0:0:0:
80,304,80880,6,0,L|144:0,1,265.999991882324,4|0,0:0|0:0,0:0:0:0:
432,304,81354,2,0,L|368:0,1,265.999991882324,4|0,0:0|0:0,0:0:0:0:
68,284,81828,2,0,L|24:-23,1,265.999991882324,4|0,0:0|0:0,0:0:0:0:
444,284,82301,2,0,L|487:-23,1,265.999991882324,4|0,0:0|0:0,0:0:0:0:
48,224,82775,2,0,L|0:80,1,132.999995941162,4|0,0:0|0:0,0:0:0:0:
467,214,83091,2,0,L|515:70,1,132.999995941162,4|0,0:0|0:0,0:0:0:0:
256,384,83407,5,0,1:0:0:0:
320,336,83565,1,2,0:0:0:0:
320,336,83643,1,2,0:0:0:0:
320,336,83722,1,2,0:0:0:0:
192,336,83880,5,0,1:0:0:0:
304,256,84038,1,8,0:0:0:0:
176,160,84196,1,2,0:0:0:0:
336,112,84354,1,2,0:0:0:0:
112,32,84512,1,2,0:0:0:0:
400,0,84670,5,8,0:0:0:0:
0,48,84828,1,12,0:0:0:0:
96,288,85933,5,2,0:0:0:0:
96,288,86091,2,0,L|142:277,2,38,0|0|0,0:0|0:0|0:0,0:0:0:0:
192,208,86564,2,0,L|271:223,1,76,0|0,0:0|0:0,0:0:0:0:
400,256,87196,2,0,L|448:240,1,38,2|0,0:0|0:0,0:0:0:0:
352,112,87511,1,2,0:0:0:0:
352,112,87670,2,0,L|304:128,1,38,2|0,0:0|0:0,0:0:0:0:
96,288,90986,5,2,0:0:0:0:
96,288,91143,2,0,L|142:277,2,38,0|0|0,0:0|0:0|0:0,0:0:0:0:
192,208,91617,2,0,L|271:223,1,76,0|0,0:0|0:0,0:0:0:0:
400,256,92249,2,0,L|448:240,1,38,2|0,0:0|0:0,0:0:0:0:
352,112,92564,1,2,0:0:0:0:
352,112,92722,2,0,L|422:126,1,57,2|0,0:0|0:0,0:0:0:0:
407,123,93038,5,0,1:0:0:0:
272,64,93196,1,8,0:3:0:0:
272,64,93354,1,0,0:0:0:0:
144,63,93512,6,0,L|202:180,1,113.999996520996,4|0,0:0|0:0,0:0:0:0:
256,208,93986,1,0,1:0:0:0:
288,272,94143,2,0,L|272:336,1,56.9999982604981,8|0,0:0|0:0,0:0:0:0:
352,288,94459,2,0,L|336:352,1,56.9999982604981,0|8,1:0|0:0,0:0:0:0:
440,231,94775,6,0,L|400:192,1,56.9999982604981,4|0,0:0|0:0,0:0:0:0:
455,40,95091,2,0,L|496:80,1,56.9999982604981,8|0,0:0|0:0,0:0:0:0:
336,80,95407,1,8,0:3:0:0:
336,80,95486,1,0,0:0:0:0:
336,80,95565,1,0,0:0:0:0:
112,16,95722,5,8,0:3:0:0:
256,32,95880,2,0,L|128:96,2,132.999995941162,4|4|0,0:3|0:0|1:0,0:0:0:0:
256,128,96354,6,0,L|272:208,1,76,8|0,0:0|0:0,0:0:0:0:
288,288,96670,2,0,L|112:240,1,152,0|8,1:0|0:0,0:0:0:0:
64,272,97143,1,0,0:0:0:0:
64,272,97301,2,0,L|-17:288,1,76,0|0,1:0|1:0,0:0:0:0:
80,160,97617,1,8,0:0:0:0:
80,160,97775,2,0,L|9:202,2,76,0|0|0,0:0|1:0|1:0,0:0:0:0:
80,16,98249,2,0,L|0:112,1,114,8|0,0:0|0:0,0:0:0:0:
7,103,98565,5,0,1:0:0:0:
144,80,98722,1,0,1:0:0:0:
294,92,98880,2,0,L|224:64,1,76,10|0,0:0|0:0,0:0:0:0:
192,176,99196,5,0,1:0:0:0:
320,176,99354,1,0,1:0:0:0:
464,224,99512,2,0,L|407:173,1,76,8|0,0:0|0:0,0:0:0:0:
320,272,99828,6,0,L|224:288,1,76,0|0,1:0|1:0,0:0:0:0:
96,368,100143,2,0,L|0:336,1,76,8|0,0:0|0:0,0:0:0:0:
0,224,100459,2,0,L|96:256,1,76,0|0,1:0|1:0,0:0:0:0:
192,176,100775,2,0,L|288:160,1,76,8|2,0:0|0:0,0:0:0:0:
448,80,101091,5,4,0:0:0:0:
430,144,101249,1,0,1:0:0:0:
384,96,101407,1,8,0:0:0:0:
384,96,101565,1,0,0:0:0:0:
416,224,101722,5,0,1:0:0:0:
398,288,101880,1,0,1:0:0:0:
352,240,102038,1,8,0:0:0:0:
352,240,102196,2,0,L|428:283,1,76,0|0,0:0|1:0,0:0:0:0:
184,320,102512,1,0,1:0:0:0:
256,304,102670,2,0,L|342:318,2,76,8|0|0,0:0|0:0|1:0,0:0:0:0:
96,368,103143,1,0,1:0:0:0:
96,288,103301,2,0,L|160:208,1,76,8|0,0:0|0:0,0:0:0:0:
160,48,103617,5,0,1:0:0:0:
160,48,103775,1,0,1:0:0:0:
0,48,103933,2,0,L|96:64,1,76,8|0,0:0|0:0,0:0:0:0:
240,96,104249,5,0,1:0:0:0:
160,128,104407,1,2,0:0:0:0:
0,160,104565,2,0,L|95:142,1,76,8|0,0:0|0:0,0:0:0:0:
304,176,104880,5,0,1:0:0:0:
256,240,105038,1,0,1:0:0:0:
448,304,105196,1,12,0:0:0:0:
434,225,105354,2,0,L|387:250,1,38,0|0,0:0|0:0,0:0:0:0:
352,320,105512,2,0,L|305:345,1,38,2|2,0:0|0:0,0:0:0:0:
337,158,105670,2,0,L|303:175,1,38,2|2,0:0|0:0,0:0:0:0:
222,257,105828,2,0,L|256:240,1,38,2|2,0:0|0:0,0:0:0:0:
265,67,105986,2,0,L|239:95,1,38,2|2,0:0|0:0,0:0:0:0:
128,208,106143,6,0,L|99:9,1,190,4|8,0:0|0:0,0:0:0:0:
16,112,106617,1,2,0:3:0:0:
16,256,106775,2,0,L|48:160,1,76,2|2,0:0|0:0,0:0:0:0:
48,336,107091,1,8,0:0:0:0:
128,304,107249,1,0,0:0:0:0:
278,300,107407,2,0,L|208:272,1,76,0|2,1:0|0:3,0:0:0:0:
416,352,107722,1,8,0:0:0:0:
416,352,107880,2,0,L|341:362,2,76,2|2|2,0:0|0:3|0:0,0:0:0:0:
480,192,108354,6,0,L|418:241,1,76,8|2,0:0|0:3,0:0:0:0:
384,32,108670,2,0,L|368:121,1,76,0|0,1:0|0:0,0:0:0:0:
208,176,108986,1,8,0:0:0:0:
192,32,109143,2,0,L|224:112,2,76,2|2|2,0:0|0:3|0:0,0:0:0:0:
21,232,109617,5,8,0:0:0:0:
80,192,109775,1,0,0:0:0:0:
16,160,109933,1,0,1:0:0:0:
96,272,110091,1,2,0:3:0:0:
96,272,110249,2,0,L|176:256,1,76,8|0,0:0|0:0,0:0:0:0:
368,224,110565,2,0,L|464:240,1,76,2|2,0:3|0:0,0:0:0:0:
144,352,110880,2,0,L|224:336,1,76,8|0,0:0|0:3,0:0:0:0:
288,192,111196,5,4,0:0:0:0:
336,132,111354,1,0,0:0:0:0:
368,0,111512,2,0,L|384:80,2,76,8|2|2,0:0|0:3|0:0,0:0:0:0:
192,64,111986,5,2,0:0:0:0:
16,48,112143,1,8,0:0:0:0:
48,128,112301,1,0,0:0:0:0:
263,36,112459,2,0,L|192:63,1,76,8|2,0:0|0:3,0:0:0:0:
80,208,112775,5,8,0:0:0:0:
208,192,112933,1,2,0:0:0:0:
192,176,113012,1,2,0:0:0:0:
176,160,113091,1,0,1:0:0:0:
112,288,113249,1,8,3:0:0:0:
244,324,113407,1,4,0:3:0:0:
244,324,113565,1,2,0:0:0:0:
288,161,113722,6,0,L|512:208,1,227.999993041992,4|0,0:0|1:0,0:0:0:0:
416,96,114196,1,0,1:0:0:0:
272,0,114354,2,0,L|336:96,1,113.999996520996,4|0,0:0|0:0,0:0:0:0:
288,161,114670,2,0,L|301:231,1,56.9999982604981,0|0,1:0|1:0,0:0:0:0:
167,362,114986,6,0,L|208:256,1,113.999996520996,8|0,0:0|0:0,0:0:0:0:
16,48,115301,2,0,L|88:136,1,113.999996520996,2|0,0:0|0:0,0:0:0:0:
335,94,115617,2,0,L|222:112,1,113.999996520996,8|0,0:0|0:0,0:0:0:0:
0,272,115933,5,2,0:3:0:0:
32,368,116091,1,0,0:0:0:0:
100,293,116249,2,0,L|132:207,3,76,0|0|0|0,0:0|0:0|0:0|0:0,0:0:0:0:
167,362,117512,1,0,0:0:0:0:
380,336,118775,6,0,L|408:344,1,28.5
407,343,119091,6,0,L|355:156,1,170.999994781494,4|0,0:0|0:0,0:0:0:0:
432,0,119407,2,0,L|416:112,1,113.999996520996,0|0,1:0|0:0,0:0:0:0:
224,112,119722,2,0,L|352:64,1,113.999996520996,0|0,1:0|0:0,0:0:0:0:
288,272,120038,6,0,L|96:220,1,170.999994781494,0|0,1:0|0:0,0:0:0:0:
64,160,120354,2,0,L|-16:176,1,56.9999982604981,8|0,0:0|0:0,0:0:0:0:
96,368,120670,1,0,1:0:0:0:
208,224,120828,1,8,0:0:0:0:
208,224,120907,1,8,0:0:0:0:
208,224,120986,1,8,0:0:0:0:
122,227,121143,1,0,0:0:0:0:
192,368,121301,6,0,L|223:361,1,28.5,2|0,0:0|0:0,0:0:0:0:
304,336,121617,6,0,L|544:368,1,227.999993041992,4|0,0:0|1:0,0:0:0:0:
496,208,122091,1,2,0:0:0:0:
400,240,122249,1,8,0:0:0:0:
336,48,122407,2,0,L|432:128,2,113.999996520996,4|0|0,0:0|0:0|0:0,0:0:0:0:
128,96,122880,1,8,0:0:0:0:
304,163,123038,2,0,L|192:144,1,113.999996520996,2|0,0:0|0:0,0:0:0:0:
176,272,123354,2,0,L|0:320,1,170.999994781494,2|0,0:0|0:0,0:0:0:0:
16,240,123670,6,0,L|48:112,1,113.999996520996,4|0,0:0|0:0,0:0:0:0:
48,48,123986,1,0,1:0:0:0:
192,144,124143,2,0,L|283:49,1,113.999996520996,8|0,0:0|0:0,0:0:0:0:
320,288,124459,1,0,1:0:0:0:
384,224,124617,2,0,L|510:187,2,113.999996520996,2|8|0,0:0|0:0|0:0,0:0:0:0:
208,272,125091,6,0,L|0:240,1,170.999994781494,4|0,0:0|0:0,0:0:0:0:
16,176,125407,2,0,L|80:64,1,113.999996520996,2|0,0:3|0:0,0:0:0:0:
416,112,125722,2,0,L|272:160,1,113.999996520996,2|0,0:3|0:0,0:0:0:0:
160,0,126038,2,0,L|256:80,1,113.999996520996,2|0,0:3|0:0,0:0:0:0:
512,272,126354,5,0,1:0:0:0:
448,295,126512,1,2,0:0:0:0:
459,228,126670,1,8,0:0:0:0:
459,228,126828,1,2,0:0:0:0:
384,352,126986,2,0,L|352:336,2,28.4999991302491,0|0|0,1:0|0:0|1:0,0:0:0:0:
272,288,127301,6,0,L|121:311,1,142.5,8|0,0:0|0:0,0:0:0:0:
142,293,127617,1,0,1:0:0:0:
304,192,127775,1,0,0:0:0:0:
240,160,127933,1,8,0:0:0:0:
299,120,128091,1,0,0:0:0:0:
128,176,128249,2,0,L|80:160,2,28.4999991302491,0|0|0,1:0|0:0|1:0,0:0:0:0:
64,80,128565,6,0,L|194:-6,1,142.5,8|0,0:0|0:0,0:0:0:0:
176,16,128880,1,0,1:0:0:0:
363,152,129038,1,0,0:0:0:0:
416,96,129196,1,8,0:0:0:0:
437,169,129354,1,0,0:0:0:0:
368,304,129512,2,0,L|352:272,2,28.4999991302491,0|0|0,1:0|0:0|1:0,0:0:0:0:
368,384,129828,1,8,0:0:0:0:
64,240,130143,6,0,L|240:272,1,170.999994781494,2|0,0:3|0:0,0:0:0:0:
224,256,130459,1,8,0:0:0:0:
48,64,130617,2,0,L|202:154,1,170.999994781494,2|0,0:3|0:0,0:0:0:0:
192,133,130933,1,0,1:0:0:0:
416,80,131091,1,0,1:0:0:0:
336,64,131249,1,2,0:3:0:0:
320,352,131407,5,4,0:0:0:0:
288,128,131565,1,0,0:0:0:0:
336,192,131722,1,0,0:0:0:0:
512,304,131880,5,4,0:0:0:0:
176,352,132038,1,0,0:0:0:0:
240,304,132196,1,0,0:0:0:0:
389,2,132354,5,4,0:0:0:0:
432,256,132512,1,0,0:0:0:0:
432,176,132670,1,0,0:0:0:0:
128,64,132828,5,4,0:0:0:0:
128,64,132986,1,0,0:0:0:0:
128,64,133143,1,0,0:0:0:0:
16,384,133301,5,4,0:0:0:0:
16,384,133459,1,0,0:0:0:0:
0,144,133617,5,4,0:0:0:0:
0,144,133775,1,0,0:0:0:0:
256,384,133933,5,8,0:3:0:0:
352,240,134091,1,0,1:0:0:0:
347,221,134170,1,0,1:0:0:0:
342,202,134249,5,0,1:0:0:0:
256,240,134407,1,8,0:0:0:0:
464,144,134565,5,0,1:0:0:0:
176,208,134722,1,8,0:3:0:0:
480,224,134880,5,4,0:3:0:0:
96,176,135038,1,2,0:3:0:0:
496,304,135196,5,4,0:0:0:0:
368,264,135354,6,2,L|364:292,1,28.4999991302491,2|2,0:0|0:0,0:0:0:0:
344,296,135512,2,2,L|340:324,1,28.4999991302491,2|2,0:0|0:0,0:0:0:0:
320,328,135670,2,2,L|316:356,1,28.4999991302491
260,211,135828,6,2,L|264:183,1,28.4999991302491
266,73,135986,2,2,L|262:101,1,28.4999991302491
96,176,136144,6,2,L|92:204,1,28.4999991302491
40,352,136301,2,2,L|44:324,1,28.4999991302491
260,211,136459,6,0,L|398:189,1,132.999995941162,4|0,0:1|1:0,0:0:0:0:
512,0,136775,1,8,0:0:0:0:
352,80,136933,1,0,0:0:0:0:
502,179,137091,1,0,1:0:0:0:
464,96,137249,1,0,1:0:0:0:
236,149,137407,2,0,L|373:175,1,132.999995941162,8|0,0:0|0:0,0:0:0:0:
160,368,137722,6,0,L|43:160,1,199.499993911743,8|0,0:0|0:0,0:0:0:0:
60,168,138038,1,0,1:0:0:0:
256,336,138196,2,0,L|224:32,1,265.999991882324,2|0,3:0|1:0,0:0:0:0:
432,256,138670,5,8,0:0:0:0:
464,192,138828,1,0,0:0:0:0:
377,367,138986,5,4,1:0:0:0:
503,251,139143,1,0,0:0:0:0:
340,200,139301,1,8,0:0:0:0:
512,384,139459,5,0,0:0:0:0:
496,128,139617,1,0,1:0:0:0:
283,270,139775,1,0,1:0:0:0:
267,14,139933,1,8,0:0:0:0:
0,112,140249,6,0,L|208:160,1,199.499993911743,0|0,1:0|0:0,0:0:0:0:
208,144,140565,1,8,0:0:0:0:
370,265,140722,2,0,L|503:251,1,132.999995941162,2|0,0:0|1:0,0:0:0:0:
368,368,141038,1,8,0:0:0:0:
347,359,141117,1,8,0:0:0:0:
326,350,141196,1,8,0:0:0:0:
160,336,141354,1,0,1:0:0:0:
139,327,141433,1,0,1:0:0:0:
118,317,141512,6,0,L|16:336,1,95,4|0,0:0|0:0,0:0:0:0:
256,240,141828,1,8,0:0:0:0:
320,160,141986,1,0,0:0:0:0:
496,80,142143,2,0,L|368:96,1,95,0|0,1:0|1:0,0:0:0:0:
448,0,142459,2,0,L|276:36,1,142.5,8|0,0:0|0:0,0:0:0:0:
160,144,142775,6,0,L|32:112,1,113.999996520996,0|0,1:0|0:0,0:0:0:0:
320,192,143091,1,8,0:0:0:0:
400,240,143249,1,0,0:0:0:0:
416,384,143407,2,0,L|336:288,1,113.999996520996,0|0,1:0|1:0,0:0:0:0:
272,384,143722,2,0,L|112:320,1,170.999994781494,8|0,0:0|0:0,0:0:0:0:
192,256,144038,6,0,L|176:32,1,199.499993911743,4|0,0:0|0:0,0:0:0:0:
160,48,144354,1,8,0:0:0:0:
272,160,144512,1,0,0:0:0:0:
480,32,144670,2,0,L|352:80,1,132.999995941162,0|0,1:0|1:0,0:0:0:0:
368,336,144986,1,8,0:0:0:0:
436,280,145143,1,0,0:0:0:0:
272,160,145301,5,0,1:0:0:0:
192,368,145459,1,8,0:3:0:0:
96,256,145617,2,0,L|61:266,1,28.5,4|0,0:0|0:0,0:0:0:0:
60,280,145933,5,8,0:0:0:0:
24,24,146091,1,8,0:0:0:0:
208,288,146249,5,8,0:0:0:0:
172,32,146407,1,8,0:0:0:0:
208,16,146486,1,0,0:0:0:0:
244,0,146565,5,4,0:0:0:0:
480,64,146722,1,0,1:0:0:0:
306,236,146880,1,8,0:0:0:0:
336,112,147038,1,0,0:0:0:0:
459,208,147196,5,0,1:0:0:0:
352,313,147353,1,0,1:0:0:0:
496,352,147512,1,8,0:0:0:0:
144,336,147828,6,0,L|64:128,1,199.499993911743,8|0,0:0|0:0,0:0:0:0:
74,130,148143,1,0,1:0:0:0:
224,272,148301,2,0,L|396:62,1,265.999991882324,2|0,3:0|1:0,0:0:0:0:
368,336,148775,2,0,L|528:368,1,132.999995941162,8|0,0:0|0:0,0:0:0:0:
384,80,149091,6,0,L|128:16,1,199.499993911743,0|0,1:0|0:0,0:0:0:0:
176,48,149407,1,8,0:0:0:0:
32,96,149565,1,0,0:0:0:0:
256,160,149722,2,0,L|112:208,1,132.999995941162,0|0,1:0|1:0,0:0:0:0:
48,288,150038,1,8,0:0:0:0:
48,288,150196,1,0,0:0:0:0:
256,368,150354,5,4,0:0:0:0:
180,144,150512,1,8,0:3:0:0:
128,352,150670,1,4,0:3:0:0:
400,272,150828,6,0,L|240:256,1,132.999995941162,4|0,0:0|0:0,0:0:0:0:
384,368,151143,1,0,1:0:0:0:
432,176,151301,1,8,0:0:0:0:
432,176,151380,1,8,0:0:0:0:
432,176,151459,1,8,0:0:0:0:
96,64,151617,6,0,L|384:32,1,265.999991882324,4|0,0:0|0:0,0:0:0:0:
96,320,152091,2,0,L|384:352,1,265.999991882324,4|0,0:0|0:0,0:0:0:0:
61,126,152565,2,0,L|321:-2,1,265.999991882324,4|0,0:0|0:0,0:0:0:0:
288,160,153038,1,0,1:0:0:0:
494,202,153196,6,0,L|368:160,1,132.999995941162,4|0,0:0|0:0,0:0:0:0:
208,208,153512,1,8,0:0:0:0:
328,91,153670,1,8,0:0:0:0:
368,240,153828,1,8,0:0:0:0:
368,240,153907,1,0,0:0:0:0:
368,240,153986,1,0,1:0:0:0:
143,358,154143,6,0,L|-1:134,1,265.999991882324,4|0,0:0|0:0,0:0:0:0:
369,358,154617,2,0,L|513:134,1,265.999991882324,4|0,0:0|0:0,0:0:0:0:
93,309,155091,2,0,L|34:49,1,265.999991882324,4|8,0:0|0:0,0:0:0:0:
208,192,155565,5,8,0:0:0:0:
224,176,155643,1,0,0:0:0:0:
240,160,155722,1,0,1:0:0:0:
160,16,155880,1,0,1:0:0:0:
80,160,156038,1,8,0:0:0:0:
176,368,156196,2,0,L|128:224,2,132.999995941162,8|2|0,0:0|0:0|1:0,0:0:0:0:
320,288,156670,6,0,L|544:112,1,265.999991882324,4|0,0:0|0:0,0:0:0:0:
192,96,157143,2,0,L|-32:272,1,265.999991882324,4|0,0:0|0:0,0:0:0:0:
256,352,157617,2,0,L|526:263,1,265.999991882324,4|0,0:0|0:0,0:0:0:0:
256,32,158091,2,0,L|-14:120,1,265.999991882324,4|0,0:0|0:0,0:0:0:0:
229,357,158565,2,0,L|368:386,1,132.999995941162,4|0,0:0|0:0,0:0:0:0:
283,27,158880,2,0,L|143:-2,1,132.999995941162,4|0,0:0|0:0,0:0:0:0:
512,192,159196,5,0,1:0:0:0:
448,148,159354,1,2,0:0:0:0:
448,148,159433,1,2,0:0:0:0:
448,148,159512,1,2,0:0:0:0:
448,236,159670,5,0,1:0:0:0:
368,128,159828,1,8,0:0:0:0:
320,288,159986,1,2,0:0:0:0:
208,112,160143,1,2,0:0:0:0:
112,288,160301,1,2,0:0:0:0:
33,49,160459,5,8,0:0:0:0:
152,384,160617,1,12,0:0:0:0:
496,64,161407,5,0,0:0:0:0:
416,96,161565,1,0,0:0:0:0:
496,272,161722,2,0,L|325:210,2,132.999995941162,4|0|8,0:1|1:0|0:0,0:0:0:0:
304,256,162196,5,0,0:0:0:0:
160,192,162354,2,0,L|32:208,1,95,0|0,1:0|1:0,0:0:0:0:
176,272,162670,2,0,L|48:288,1,95,8|0,0:0|0:0,0:0:0:0:
227,4,162986,6,0,L|256:192,1,190,4|8,0:0|0:0,0:0:0:0:
304,0,163459,2,0,L|332:187,1,190,0|0,0:0|1:0,0:0:0:0:
384,320,163933,2,0,L|496:304,1,95,8|0,0:0|0:0,0:0:0:0:
80,304,164249,6,0,L|267:272,1,190,0|8,1:0|0:0,0:0:0:0:
224,160,164722,2,0,L|36:191,1,190,0|0,0:0|1:0,0:0:0:0:
16,64,165196,1,8,0:0:0:0:
96,48,165354,1,0,0:0:0:0:
304,128,165512,5,0,1:0:0:0:
288,16,165670,1,0,1:0:0:0:
416,0,165828,1,12,0:0:0:0:
432,112,165986,1,0,0:0:0:0:
360,64,166143,1,2,0:0:0:0:
360,64,166222,1,2,0:0:0:0:
360,64,166301,1,2,0:0:0:0:
380,180,166459,6,0,L|392:252,1,47.5,2|2,0:0|0:0,0:0:0:0:
448,288,166617,2,0,L|460:360,1,47.5,2|0,0:0|0:0,0:0:0:0:
256,352,166775,5,4,0:0:0:0:
240,256,166933,1,0,1:0:0:0:
160,368,167091,1,8,0:0:0:0:
144,272,167249,1,0,0:0:0:0:
154,48,167407,5,0,1:0:0:0:
176,176,167565,1,0,1:0:0:0:
27,69,167723,1,8,0:0:0:0:
48,197,167881,1,0,0:0:0:0:
336,192,168038,5,0,1:0:0:0:
486,167,168196,1,0,1:0:0:0:
311,41,168354,1,8,0:0:0:0:
460,17,168512,1,0,0:0:0:0:
424,255,168670,5,0,1:0:0:0:
398,104,168828,1,0,1:0:0:0:
272,304,168986,1,8,0:0:0:0:
246,153,169144,1,0,0:0:0:0:
441,359,169301,1,4,0:0:0:0:
144,64,169617,6,0,L|-36:109,1,132.999995941162,8|0,0:0|0:0,0:0:0:0:
368,320,169933,2,0,L|548:274,1,132.999995941162,8|0,0:0|0:0,0:0:0:0:
200,152,170249,2,0,L|167:195,1,38,8|0,0:0|0:0,0:0:0:0:
312,232,170407,2,0,L|344:188,1,38,2|2,0:0|0:0,0:0:0:0:
176,208,170565,5,2,0:0:0:0:
336,176,170722,1,2,0:0:0:0:
336,176,170801,1,2,0:0:0:0:
336,176,170880,1,2,0:0:0:0:
256,64,171038,1,2,0:0:0:0:
256,320,171196,1,0,1:0:0:0:
256,320,171275,1,0,1:0:0:0:
256,320,171354,1,0,1:0:0:0:
184,352,171512,6,0,L|116:332,1,47.5,0|0,1:0|0:0,0:0:0:0:
120,352,171670,2,0,L|52:332,1,47.5,2|0,0:0|0:0,0:0:0:0:
46,345,171828,1,4,0:0:0:0:
320,192,173091,6,0,L|493:168,1,170.999994781494
192,192,174354,2,0,L|18:215,1,170.999994781494
311,160,175617,6,0,L|450:53,1,170.999994781494
200,224,176880,2,0,L|61:330,1,170.999994781494
417,320,178143,2,0,L|248:344,1,170.999994781494
312,232,179407,2,0,L|280:56,1,170.999994781494
400,192,181459,5,0,1:0:0:0:
416,32,181617,2,0,L|432:122,1,85.4999973907472,8|0,0:0|0:0,0:0:0:0:
432,352,181933,5,0,1:0:0:0:
384,288,182091,1,0,0:0:0:0:
353,362,182249,1,8,0:0:0:0:
353,362,182407,1,0,0:0:0:0:
256,272,182565,2,0,L|240:224,2,38,0|0|0,1:0|0:0|1:0,0:0:0:0:
224,352,182880,6,0,L|64:304,1,142.5,8|0,0:0|0:0,0:0:0:0:
97,328,183196,1,0,1:0:0:0:
144,144,183354,1,0,0:0:0:0:
80,176,183512,1,8,0:0:0:0:
84,104,183670,1,0,0:0:0:0:
224,96,183828,6,0,L|240:32,2,38,0|0|0,1:0|0:0|1:0,0:0:0:0:
192,0,184143,1,8,0:0:0:0:
336,192,184459,6,0,L|480:160,1,142.5,0|0,1:0|0:0,0:0:0:0:
454,152,184775,1,8,0:0:0:0:
400,336,184933,1,0,0:0:0:0:
346,274,185091,1,0,1:0:0:0:
320,352,185249,1,0,1:0:0:0:
480,320,185407,1,8,0:0:0:0:
128,352,185722,6,0,L|192:192,1,142.5,2|0,0:3|0:0,0:0:0:0:
178,198,186038,1,8,0:0:0:0:
0,224,186196,2,0,L|114:95,1,142.5,2|0,0:3|0:0,0:0:0:0:
99,96,186512,1,0,1:0:0:0:
352,32,186670,5,0,1:0:0:0:
288,64,186828,1,2,0:3:0:0:
320,352,186986,5,4,0:0:0:0:
448,96,187143,1,0,0:0:0:0:
480,160,187301,1,0,0:0:0:0:
376,280,187459,5,4,0:0:0:0:
224,16,187616,1,0,0:0:0:0:
192,80,187774,1,0,0:0:0:0:
480,280,187933,5,4,0:0:0:0:
480,280,188091,1,0,0:0:0:0:
480,280,188249,1,0,0:0:0:0:
120,200,188407,5,4,0:0:0:0:
120,200,188565,1,0,0:0:0:0:
120,200,188722,1,0,0:0:0:0:
408,360,188880,5,4,0:0:0:0:
408,360,189038,1,0,0:0:0:0:
448,32,189196,5,4,0:0:0:0:
448,32,189354,1,0,0:0:0:0:
224,288,189512,5,8,0:3:0:0:
192,120,189670,1,0,1:0:0:0:
192,120,189749,1,0,1:0:0:0:
192,120,189828,1,0,1:0:0:0:
144,280,189986,5,8,0:0:0:0:
288,240,190143,1,0,1:0:0:0:
296,224,190222,1,0,1:0:0:0:
304,208,190301,1,8,0:3:0:0:
112,168,190459,1,4,0:3:0:0:
272,128,190617,1,2,0:3:0:0:
248,376,190775,5,0,1:0:0:0:
224,288,190933,1,8,0:0:0:0:
416,336,191091,5,4,0:0:0:0:
272,128,191249,1,2,3:0:0:0:
512,200,191407,5,4,0:0:0:0:
504,16,191565,5,2,3:0:0:0:
136,56,191722,1,4,0:0:0:0:
352,0,191880,6,0,L|336:56,1,47.5,0|0,1:0|1:0,0:0:0:0:
32,104,192038,6,0,L|0:94,1,28.5,4|0,0:1|0:0,0:0:0:0:
64,192,192354,6,0,L|248:256,2,132.999995941162,4|0|2,0:1|0:0|0:0,0:0:0:0:
128,320,192828,1,0,0:0:0:0:
352,320,192986,2,0,L|192:352,1,132.999995941162,8|0,0:0|0:0,0:0:0:0:
320,64,193301,6,0,L|478:249,1,199.499993911743,8|0,0:0|0:0,0:0:0:0:
477,224,193617,1,0,1:0:0:0:
96,64,193775,2,0,L|340:201,1,265.999991882324,2|0,3:0|1:0,0:0:0:0:
0,192,194249,5,8,0:0:0:0:
80,168,194407,1,0,0:0:0:0:
181,364,194565,5,4,1:0:0:0:
221,200,194723,1,0,0:0:0:0:
60,249,194881,1,8,0:0:0:0:
320,368,195038,5,0,0:0:0:0:
250,302,195196,1,0,1:0:0:0:
342,274,195354,1,0,1:0:0:0:
412,340,195512,1,8,0:0:0:0:
446,46,195828,6,0,L|248:104,1,199.499993911743,0|0,1:0|0:0,0:0:0:0:
232,96,196143,1,8,0:0:0:0:
112,240,196301,2,0,L|-40:208,1,132.999995941162,2|0,0:0|1:0,0:0:0:0:
80,352,196617,5,8,0:0:0:0:
102,346,196696,1,8,0:0:0:0:
124,341,196775,1,8,0:0:0:0:
256,352,196933,1,0,1:0:0:0:
278,346,197012,1,0,1:0:0:0:
301,339,197091,6,0,L|416:352,1,95,4|0,0:0|0:0,0:0:0:0:
504,144,197407,1,8,0:0:0:0:
424,168,197565,1,0,0:0:0:0:
232,96,197722,2,0,L|335:147,1,95,0|0,1:0|1:0,0:0:0:0:
112,176,198038,2,0,L|271:194,1,142.5,8|0,0:0|0:0,0:0:0:0:
360,272,198354,6,0,L|496:256,1,113.999996520996,0|0,1:0|0:0,0:0:0:0:
176,368,198670,1,8,0:0:0:0:
96,344,198828,1,0,0:0:0:0:
0,200,198986,2,0,L|128:280,1,113.999996520996,0|0,1:0|1:0,0:0:0:0:
6,41,199301,2,0,L|133:204,1,170.999994781494,8|0,0:0|0:0,0:0:0:0:
192,93,199617,6,0,L|444:29,1,199.499993911743,4|0,0:0|0:0,0:0:0:0:
365,31,199933,1,8,0:0:0:0:
320,224,200091,1,0,0:0:0:0:
224,368,200249,2,0,L|240:208,1,132.999995941162,0|0,1:0|1:0,0:0:0:0:
512,128,200565,1,8,0:0:0:0:
464,192,200722,1,0,0:0:0:0:
272,96,200880,5,0,1:0:0:0:
496,272,201038,1,8,0:3:0:0:
424,356,201196,2,0,L|392:344,1,28.5,4|0,0:0|0:0,0:0:0:0:
377,349,201512,5,8,0:0:0:0:
96,368,201670,1,8,0:0:0:0:
304,192,201828,5,8,0:0:0:0:
34,209,201986,1,8,0:0:0:0:
20,165,202065,1,0,0:0:0:0:
6,121,202143,5,4,0:0:0:0:
176,256,202301,1,0,1:0:0:0:
208,42,202459,1,8,0:0:0:0:
140,136,202617,1,0,0:0:0:0:
304,192,202775,5,0,1:0:0:0:
485,121,202933,1,0,1:0:0:0:
456,313,203091,1,8,0:0:0:0:
32,272,203407,6,0,L|270:312,1,199.499993911743,8|0,0:0|0:0,0:0:0:0:
251,301,203722,1,0,1:0:0:0:
0,96,203880,2,0,L|244:223,1,265.999991882324,2|0,3:0|1:0,0:0:0:0:
144,0,204354,5,8,0:0:0:0:
192,64,204512,1,0,0:0:0:0:
368,192,204670,2,0,L|336:48,1,132.999995941162,0|0,1:0|0:0,0:0:0:0:
400,0,204986,1,8,0:0:0:0:
400,0,205143,1,0,0:0:0:0:
464,304,205301,2,0,L|483:157,1,132.999995941162,0|0,1:0|1:0,0:0:0:0:
464,96,205617,1,8,0:0:0:0:
464,96,205775,1,0,0:0:0:0:
384,272,205933,5,4,0:0:0:0:
339,62,206091,1,8,0:3:0:0:
208,272,206249,1,4,0:3:0:0:
160,32,206407,1,4,0:0:0:0:
192,368,206722,5,0,1:0:0:0:
208,272,206880,1,8,0:0:0:0:
208,272,206959,1,8,0:0:0:0:
208,272,207038,1,8,0:0:0:0:
64,64,207196,6,0,L|32:352,1,265.999991882324,4|0,0:0|0:0,0:0:0:0:
448,64,207670,2,0,L|480:352,1,265.999991882324,4|0,0:0|0:0,0:0:0:0:
7,85,208143,2,0,L|25:374,1,265.999991882324,4|0,0:0|0:0,0:0:0:0:
176,192,208617,5,0,1:0:0:0:
320,80,208775,2,0,L|176:112,1,132.999995941162,4|0,0:0|0:0,0:0:0:0:
304,192,209091,1,8,0:0:0:0:
416,96,209249,1,8,0:0:0:0:
422,75,209328,1,8,0:0:0:0:
428,54,209407,1,8,0:0:0:0:
320,80,209565,1,0,1:0:0:0:
256,288,209722,6,0,L|512:384,1,265.999991882324,4|0,0:0|0:0,0:0:0:0:
256,96,210196,2,0,L|0:0,1,265.999991882324,4|0,0:0|0:0,0:0:0:0:
223,291,210670,2,0,L|479:387,1,265.999991882324,4|8,0:0|0:0,0:0:0:0:
480,240,211143,5,8,0:0:0:0:
458,247,211222,1,0,0:0:0:0:
436,254,211301,1,0,1:0:0:0:
368,176,211459,1,0,1:0:0:0:
416,96,211617,1,8,0:0:0:0:
256,160,211775,2,0,L|224:0,2,132.999995941162,8|2|0,0:0|0:0|1:0,0:0:0:0:
16,355,212249,6,0,L|76:96,1,265.999991882324,4|0,0:0|0:0,0:0:0:0:
496,355,212722,2,0,L|435:96,1,265.999991882324,4|0,0:0|0:0,0:0:0:0:
0,368,213196,2,0,L|14:102,1,265.999991882324,4|0,0:0|0:0,0:0:0:0:
512,368,213670,2,0,L|497:102,1,265.999991882324,4|0,0:0|0:0,0:0:0:0:
33,362,214143,2,0,L|7:210,1,132.999995941162,4|0,0:0|0:0,0:0:0:0:
479,362,214459,2,0,L|505:210,1,132.999995941162,4|0,0:0|0:0,0:0:0:0:
256,0,214775,5,0,1:0:0:0:
176,32,214933,1,2,0:0:0:0:
176,32,215012,1,2,0:0:0:0:
176,32,215091,1,2,0:0:0:0:
336,32,215249,5,0,1:0:0:0:
160,128,215407,1,8,0:0:0:0:
352,192,215565,1,2,0:0:0:0:
144,272,215722,1,2,0:0:0:0:
384,320,215880,1,2,0:0:0:0:
96,384,216038,5,8,0:0:0:0:
472,288,216196,1,12,0:0:0:0:
96,96,217301,5,2,0:0:0:0:
96,96,217459,2,0,L|142:107,2,38,0|0|0,0:0|0:0|0:0,0:0:0:0:
192,176,217933,2,0,L|271:161,1,76,0|0,0:0|0:0,0:0:0:0:
400,128,218564,2,0,L|448:144,1,38,2|0,0:0|0:0,0:0:0:0:
352,272,218879,1,2,0:0:0:0:
352,272,219038,2,0,L|388:284,1,38,2|0,0:0|0:0,0:0:0:0:
96,96,222354,5,2,0:0:0:0:
96,96,222512,2,0,L|142:107,2,38,0|0|0,0:0|0:0|0:0,0:0:0:0:
192,176,222985,2,0,L|271:161,1,76,0|0,0:0|0:0,0:0:0:0:
400,128,223617,2,0,L|448:144,1,38,2|0,0:0|0:0,0:0:0:0:
352,272,223932,1,2,0:0:0:0:
352,272,224090,1,2,0:0:0:0:
48,368,224722,5,0,0:0:0:0:
48,368,224880,2,0,L|61:334,2,19,2|2|2,0:0|0:0|0:0,0:0:0:0:
48,256,225353,1,0,0:0:0:0:
48,256,225511,1,0,0:0:0:0:
160,368,226143,6,0,L|189:280,1,76,0|0,0:0|0:0,0:0:0:0:
256,240,226616,1,2,0:0:0:0:
256,240,226775,6,0,L|265:211,7,19,0|0|0|0|0|0|0|0,3:0|3:0|3:0|3:0|3:0|3:0|3:0|3:0,3:0:0:0:
336,176,227407,1,8,0:0:0:0:
0,32,227722,5,2,3:0:0:0:
147,252,227880,1,0,1:0:0:0:
147,32,228038,1,2,3:0:0:0:
0,252,228196,1,0,1:0:0:0:
477,31,228512,6,0,L|464:192,1,161.5,4|4,0:0|0:0,0:0:0:0:
