osu file format v14

[General]
AudioFilename: audio.mp3
AudioLeadIn: 0
PreviewTime: 60721
Countdown: 0
SampleSet: Soft
StackLeniency: 0.4
Mode: 0
LetterboxInBreaks: 0
WidescreenStoryboard: 0

[Editor]
DistanceSpacing: 0.4
BeatDivisor: 4
GridSize: 32
TimelineZoom: 1.8

[Metadata]
Title:INFINITE SKY
TitleUnicode:INFINITE SKY
Artist:KOTOKO
ArtistUnicode:KOTOKO
Creator:Alexsander
Version:Expert
Source:蒼の彼方のフォーリズム
Tags:op opening ao no kanata no four rhythm beyond the sky into the firmament visual novel eroge video game female vocals japanese sprite galgame aokana
BeatmapID:2451748
BeatmapSetID:1175489

[Difficulty]
HPDrainRate:7
CircleSize:4
OverallDifficulty:8.7
ApproachRate:9.2
SliderMultiplier:1.8
SliderTickRate:1

[Events]
//Background and Video events
0,0,"bg.jpg",0,0
//Break Periods
//Storyboard Layer 0 (Background)
//Storyboard Layer 1 (Fail)
//Storyboard Layer 2 (Pass)
//Storyboard Layer 3 (Foreground)
//Storyboard Layer 4 (Overlay)
//Storyboard Sound Samples

[TimingPoints]
2616,315.789473684211,4,2,2,45,1,0
2616,-166.666666666667,4,2,2,45,0,0
13352,-250,4,2,2,45,0,0
13984,-250,4,2,2,5,0,0
14300,-250,4,2,2,70,0,0
15089,-125,4,2,2,55,0,0
20300,-142.857142857143,4,2,2,55,0,0
29142,-100,4,2,2,65,0,0
30405,-100,4,2,2,65,0,0
33168,-100,4,2,2,5,0,0
33247,-100,4,2,2,65,0,0
37352,-90.9090909090909,4,2,2,65,0,0
37589,-90.9090909090909,4,2,2,5,0,0
37668,-83.3333333333333,4,2,2,65,0,0
37905,-83.3333333333333,4,2,2,5,0,0
37984,-111.111111111111,4,2,2,65,0,0
38300,-142.857142857143,4,2,2,60,0,0
39247,-125,4,2,2,50,0,0
39563,-111.111111111111,4,2,2,60,0,0
39879,-90.9090909090909,4,2,2,70,0,0
40116,-90.9090909090909,4,2,2,5,0,0
40194,-76.9230769230769,4,2,2,80,0,0
40431,-90.9090909090909,4,2,2,5,0,0
40510,-76.9230769230769,4,2,2,80,0,0
40668,-100,4,2,2,80,0,0
40826,-100,4,2,2,70,0,0
45563,-125,4,2,2,70,0,0
45800,-125,4,2,2,5,0,0
45879,-100,4,2,2,70,0,0
54405,-100,4,2,2,60,0,0
55668,-100,4,2,2,80,0,0
58194,-100,4,2,2,70,0,0
59458,-100,4,2,2,80,0,0
60721,-83.3333333333333,4,2,2,80,0,1
61905,-83.3333333333333,4,2,2,5,0,1
61984,-83.3333333333333,4,2,2,80,0,1
69563,-83.3333333333333,4,2,1,80,0,1
69800,-83.3333333333333,4,2,1,5,0,1
69879,-71.4285714285714,4,2,1,80,0,1
70116,-71.4285714285714,4,2,1,5,0,1
70194,-71.4285714285714,4,2,1,80,0,1
70510,-83.3333333333333,4,2,2,80,0,1
72010,-83.3333333333333,4,2,2,5,0,1
72089,-83.3333333333333,4,2,2,80,0,1
73589,-83.3333333333333,4,2,2,5,0,1
73668,-83.3333333333333,4,2,2,80,0,1
74221,-83.3333333333333,4,2,2,5,0,1
74300,-83.3333333333333,4,2,2,80,0,1
75326,-83.3333333333333,4,2,2,5,0,1
75405,-83.3333333333333,4,2,2,80,0,1
75879,-71.4285714285714,4,2,2,80,0,1
76116,-71.4285714285714,4,2,2,5,0,1
76194,-71.4285714285714,4,2,2,80,0,1
76273,-71.4285714285714,4,2,2,5,0,1
76352,-71.4285714285714,4,2,2,80,0,1
76589,-71.4285714285714,4,2,2,5,0,1
76668,-71.4285714285714,4,2,2,80,0,1
76747,-71.4285714285714,4,2,2,5,0,1
76826,-111.111111111111,4,2,2,80,0,1
77379,-111.111111111111,4,2,2,5,0,1
77458,-111.111111111111,4,2,2,65,0,1
78405,-71.4285714285714,4,2,2,80,0,1
78642,-71.4285714285714,4,2,2,5,0,1
78721,-71.4285714285714,4,2,2,80,0,1
78800,-71.4285714285714,4,2,2,5,0,1
78879,-71.4285714285714,4,2,2,80,0,1
79116,-71.4285714285714,4,2,2,5,0,1
79194,-71.4285714285714,4,2,2,80,0,1
79273,-71.4285714285714,4,2,2,5,0,1
79352,-71.4285714285714,4,2,2,80,0,1
79589,-71.4285714285714,4,2,2,5,0,1
79668,-71.4285714285714,4,2,2,65,0,1
80931,-71.4285714285714,4,2,2,80,0,1
85984,-166.666666666667,4,2,2,45,0,0
96405,-100,4,2,2,70,0,0
99879,-100,4,2,2,40,0,0

[Colours]
Combo1 : 136,201,249
Combo2 : 175,5,248
Combo3 : 0,128,255

[HitObjects]
246,177,2617,5,2,0:0:0:0:
257,96,2774,1,0,0:0:0:0:
337,82,2932,1,0,0:0:0:0:
375,154,3090,1,0,0:0:0:0:
318,212,3248,5,2,0:0:0:0:
419,85,3564,1,2,0:0:0:0:
503,223,3880,6,0,L|428:228,1,53.9999983520508,2|0,0:0|0:0,0:0:0:0:
392,310,4195,1,0,0:0:0:0:
392,310,4353,2,0,L|358:184,1,107.999996704102,2|0,0:0|0:0,0:0:0:0:
309,148,4827,1,0,0:0:0:0:
251,193,4985,1,0,0:0:0:0:
150,106,5143,5,2,0:0:0:0:
92,163,5301,1,0,0:0:0:0:
92,244,5459,1,0,0:0:0:0:
149,301,5617,1,2,0:0:0:0:
149,301,5932,5,2,0:0:0:0:
72,327,6090,1,0,0:0:0:0:
10,274,6248,1,0,0:0:0:0:
17,193,6406,1,2,0:0:0:0:
17,193,6722,5,2,0:0:0:0:
92,193,6880,1,0,0:0:0:0:
167,193,7038,1,0,0:0:0:0:
242,193,7195,1,2,0:0:0:0:
242,193,7511,5,0,0:0:0:0:
279,121,7669,2,0,L|258:58,1,53.9999983520508,2|0,0:0|0:0,0:0:0:0:
196,20,7985,1,0,0:0:0:0:
127,63,8143,1,0,0:0:0:0:
50,36,8301,5,2,0:0:0:0:
196,106,8617,1,2,0:0:0:0:
43,158,8932,6,0,P|30:191|33:216,1,53.9999983520508,2|0,0:0|0:0,0:0:0:0:
98,288,9248,1,0,0:0:0:0:
98,288,9406,2,0,P|49:263|-4:277,1,107.999996704102,2|0,0:0|0:0,0:0:0:0:
39,345,9880,1,0,0:0:0:0:
115,372,10038,1,0,0:0:0:0:
177,321,10195,6,0,L|288:296,1,107.999996704102,2|0,0:0|0:0,0:0:0:0:
347,239,10669,1,0,0:0:0:0:
347,239,10827,2,0,L|236:214,1,107.999996704102,2|0,0:0|0:0,0:0:0:0:
189,43,11459,6,0,P|229:67|243:136,1,107.999996704102,2|0,0:0|0:0,0:0:0:0:
156,134,11932,1,0,0:0:0:0:
156,134,12090,2,0,P|116:158|102:227,1,107.999996704102,2|0,0:0|0:0,0:0:0:0:
301,213,12722,6,0,L|173:210,1,107.999996704102,2|0,0:0|0:0,0:0:0:0:
98,213,13195,1,0,0:0:0:0:
102,338,13353,6,0,B|66:299|66:299|102:204,1,144,2|0,0:0|0:0,0:0:0:0:
341,119,14301,5,10,0:0:0:0:
166,279,14459,1,8,0:0:0:0:
218,40,14617,1,8,0:0:0:0:
290,331,14774,1,10,0:0:0:0:
290,331,15089,6,0,P|335:294|426:323,1,144,6|0,3:2|0:0,0:0:0:0:
451,229,15564,2,0,L|426:151,1,72,2|0,0:2|0:0,0:0:0:0:
332,125,15879,2,0,L|307:203,1,72,2|0,0:0|0:0,0:0:0:0:
402,82,16195,1,2,0:0:0:0:
323,33,16353,1,0,0:0:0:0:
252,129,16510,6,0,B|211:153|211:153|103:130,1,144,2|2,3:2|0:0,0:0:0:0:
39,90,16985,1,0,3:0:0:0:
13,198,17143,2,0,L|28:272,1,72,2|0,0:0|0:0,0:0:0:0:
159,312,17459,1,2,0:0:0:0:
99,217,17617,1,0,0:0:0:0:
107,370,17773,6,0,P|160:325|227:342,1,144,2|2,3:2|0:0,0:0:0:0:
306,288,18248,1,0,0:0:0:0:
235,217,18406,2,0,P|218:175|220:142,1,72,2|0,0:0|0:0,0:0:0:0:
369,162,18722,2,0,L|277:170,1,72,2|0,0:0|0:0,0:0:0:0:
397,72,19037,6,0,B|448:88|448:88|489:198,1,144,2|2,3:2|0:0,0:0:0:0:
441,269,19511,1,0,3:0:0:0:
369,162,19669,2,0,L|359:240,1,72,2|0,0:0|0:0,0:0:0:0:
314,312,19985,1,0,3:0:0:0:
243,236,20143,1,0,3:0:0:0:
243,236,20222,1,0,3:0:0:0:
243,236,20301,1,2,3:2:0:0:
91,379,20617,5,2,0:0:0:0:
180,337,20774,1,0,3:0:0:0:
85,262,20932,2,0,P|60:232|53:200,1,62.9999980773926,2|0,0:0|0:0,0:0:0:0:
158,147,21248,2,0,P|144:183|120:205,1,62.9999980773926,2|0,0:0|0:0,0:0:0:0:
107,77,21564,6,0,P|149:57|220:85,1,125.999996154785,2|0,3:2|0:0,0:0:0:0:
280,158,22037,2,0,L|311:22,1,125.999996154785,2|0,3:2|0:0,0:0:0:0:
370,89,22511,2,0,P|403:98|443:85,1,62.9999980773926,2|0,0:0|0:0,0:0:0:0:
498,54,22826,6,0,B|441:15|441:15|325:122|449:244,1,314.999990386963,2|0,3:2|0:0,0:0:0:0:
406,327,23774,1,2,0:0:0:0:
328,275,23932,1,0,0:0:0:0:
248,371,24090,6,0,L|210:308,1,62.9999980773926,2|0,3:2|0:0,0:0:0:0:
137,286,24406,2,0,L|153:212,1,62.9999980773926,2|0,0:0|3:0,0:0:0:0:
74,158,24722,2,0,P|103:135|145:122,1,62.9999980773926,2|0,0:0|0:0,0:0:0:0:
118,23,25038,2,0,P|154:27|193:47,1,62.9999980773926,2|0,0:0|0:0,0:0:0:0:
246,125,25353,5,2,3:2:0:0:
305,68,25511,1,0,0:0:0:0:
375,153,25669,2,0,L|358:294,1,125.999996154785,2|0,0:0|0:0,0:0:0:0:
491,60,26301,5,2,0:0:0:0:
421,16,26459,2,0,B|378:0|378:0|290:46,1,125.999996154785,2|0,0:0|0:0,0:0:0:0:
227,19,26931,1,2,0:0:0:0:
192,98,27090,2,0,B|149:114|149:114|61:68,1,125.999996154785,2|0,3:2|0:0,0:0:0:0:
20,28,27564,1,2,0:0:0:0:
49,162,27721,6,0,B|73:350|73:350|140:243|140:243|203:354|321:303,1,503.999984619141,2|0,0:0|0:0,0:0:0:0:
402,230,29142,5,2,3:2:0:0:
303,187,29301,1,0,1:0:0:0:
401,350,29459,1,12,0:0:0:0:
397,116,29617,1,0,1:0:0:0:
394,106,29695,1,0,1:0:0:0:
393,96,29773,1,10,0:0:0:0:
297,311,29931,6,0,L|354:291,1,45,10|0,3:3|0:0,0:0:0:0:
498,206,30089,2,0,L|452:166,1,45,2|0,0:3|0:0,0:0:0:0:
292,100,30248,2,0,L|280:159,1,45,10|0,3:0|0:0,0:0:0:0:
414,251,30405,6,0,P|382:221|334:213,1,90,6|0,3:2|3:0,0:0:0:0:
173,262,30722,1,8,0:0:0:0:
339,296,30880,1,0,0:0:0:0:
211,177,31037,2,0,P|168:167|122:184,1,90,2|0,3:2|3:0,0:0:0:0:
139,345,31353,2,0,L|174:258,1,90,10|0,0:0|0:0,0:0:0:0:
34,134,31668,6,0,P|19:180|35:230,1,90,2|0,3:2|3:0,0:0:0:0:
124,66,31985,1,8,0:0:0:0:
282,183,32142,2,0,P|239:151|121:187,1,180,2|0,0:0|3:0,0:0:0:0:
293,268,32617,2,0,P|337:251|364:203,1,90,10|0,0:0|0:0,0:0:0:0:
226,11,32932,6,0,L|201:157,1,135,2|0,3:2|0:0,0:0:0:0:
161,206,33248,1,8,0:0:0:0:
110,57,33406,1,0,0:0:0:0:
0,195,33564,2,0,L|95:186,1,90,2|0,3:2|3:0,0:0:0:0:
191,352,33880,1,10,0:0:0:0:
50,285,34038,1,0,0:0:0:0:
203,144,34194,6,0,P|230:191|226:234,1,90,2|0,3:2|3:0,0:0:0:0:
109,336,34511,2,0,P|136:289|175:271,1,90,10|0,0:0|0:0,0:0:0:0:
334,305,34826,2,0,L|242:309,1,90,2|0,3:2|3:0,0:0:0:0:
203,144,35142,2,0,L|295:148,1,90,10|0,0:0|1:0,0:0:0:0:
349,202,35380,1,0,1:0:0:0:
349,202,35459,5,2,3:2:0:0:
400,64,35617,1,0,3:0:0:0:
422,283,35773,2,0,B|378:330|378:330|239:303,1,180,10|0,0:0|3:0,0:0:0:0:
185,171,36248,1,0,3:0:0:0:
71,353,36405,1,10,0:0:0:0:
206,251,36564,1,0,0:0:0:0:
18,154,36721,6,0,L|48:336,1,180,2|8,3:2|0:0,0:0:0:0:
105,151,37195,1,0,1:0:0:0:
105,151,37274,1,0,1:0:0:0:
105,151,37353,6,0,P|147:130|241:177,1,148.50000453186,2|0,3:2|0:0,0:0:0:0:
166,211,37669,6,0,L|142:40,1,161.999995056153,2|0,3:2|0:0,0:0:0:0:
202,13,37985,6,0,P|243:45|353:43,1,161.999995056153,6|0,0:0|0:0,0:0:0:0:
428,18,38459,1,0,0:0:0:0:
415,167,38617,6,0,L|401:98,1,62.9999980773926,2|0,0:3|0:0,0:0:0:0:
337,195,38932,1,8,0:3:0:0:
454,238,39089,1,8,0:3:0:0:
312,286,39247,6,0,L|233:272,1,72,2|0,3:2|0:0,0:0:0:0:
241,273,39564,6,0,L|331:250,1,80.9999975280763,2|0,0:0|0:0,0:0:0:0:
319,252,39879,6,0,L|159:200,1,148.50000453186,10|0,0:0|0:0,0:0:0:0:
149,185,40195,6,0,L|338:132,1,175.499991966248,10|0,0:0|0:0,0:0:0:0:
416,205,40510,5,0,1:0:0:0:
436,176,40590,1,0,1:0:0:0:
456,147,40669,2,0,L|439:97,1,45,2|0,1:2|0:0,0:0:0:0:
357,22,40826,6,0,P|306:7|258:17,1,90,14|0,0:0|0:0,0:0:0:0:
212,167,41143,1,2,3:2:0:0:
184,5,41301,1,2,3:2:0:0:
317,137,41459,1,10,0:0:0:0:
101,52,41617,6,0,B|64:152|150:130|117:242,1,180,6|0,0:0|0:0,0:0:0:0:
47,374,42090,1,8,0:0:0:0:
213,337,42248,2,0,L|117:320,1,90,2|0,0:0|3:0,0:0:0:0:
36,203,42564,2,0,L|132:186,1,90,2|8,3:2|0:0,0:0:0:0:
287,295,42880,6,0,L|318:108,1,180,6|0,0:0|3:0,0:0:0:0:
170,36,43352,2,0,P|218:87|245:95,1,90,8|0,0:0|0:0,0:0:0:0:
387,153,43669,1,0,3:0:0:0:
237,260,43827,1,0,3:0:0:0:
237,260,43984,2,0,P|285:209|312:201,1,90,8|0,0:0|1:0,0:0:0:0:
369,243,44222,1,0,1:0:0:0:
369,243,44301,6,0,L|342:343,1,90,6|0,3:2|0:0,0:0:0:0:
475,206,44617,2,0,L|502:306,1,90,10|0,0:0|0:0,0:0:0:0:
399,156,44932,1,2,3:2:0:0:
360,276,45090,1,0,3:0:0:0:
256,151,45248,1,0,1:0:0:0:
222,121,45326,1,0,1:0:0:0:
179,109,45405,1,0,1:0:0:0:
135,115,45484,1,0,1:0:0:0:
98,140,45564,6,0,L|184:221,1,108,2|0,3:2|0:0,0:0:0:0:
184,249,45879,6,0,P|137:239|83:264,1,90,6|0,3:2|0:0,0:0:0:0:
282,322,46194,1,8,0:3:0:0:
256,151,46353,1,2,0:0:0:0:
206,364,46511,1,4,0:3:0:0:
430,256,46668,6,0,B|373:243|373:243|320:264|320:264|243:248,1,180,6|0,3:2|0:0,0:0:0:0:
190,104,47143,1,8,0:0:0:0:
81,208,47301,2,0,P|133:214|174:198,1,90,2|0,0:0|3:0,0:0:0:0:
229,35,47616,2,0,P|177:29|136:45,1,90,2|8,3:2|0:0,0:0:0:0:
256,250,47931,6,0,L|306:58,1,180,6|0,3:2|0:0,0:0:0:0:
448,176,48405,2,0,L|356:181,1,90,8|0,0:0|0:0,0:0:0:0:
512,244,48722,1,0,3:0:0:0:
483,94,48880,1,0,3:0:0:0:
411,262,49038,2,0,L|410:366,1,90,8|0,0:0|0:0,0:0:0:0:
217,344,49353,6,0,P|264:311|311:313,1,90,14|0,3:2|0:0,0:0:0:0:
489,296,49668,2,0,P|442:263|395:265,1,90,10|0,0:0|0:0,0:0:0:0:
217,211,49985,2,0,P|264:178|311:180,1,90,10|0,0:0|0:0,0:0:0:0:
489,163,50301,2,0,P|442:130|395:132,1,90,10|0,3:2|0:0,0:0:0:0:
371,327,50617,5,6,3:2:0:0:
295,176,50774,1,2,0:0:0:0:
410,261,50931,1,8,0:0:0:0:
340,103,51089,1,2,0:0:0:0:
305,262,51248,1,0,3:0:0:0:
410,128,51406,1,2,3:2:0:0:
217,211,51564,1,10,0:0:0:0:
217,211,51880,6,0,L|202:309,1,90,2|0,3:2|0:0,0:0:0:0:
145,139,52195,1,8,0:0:0:0:
303,188,52353,1,2,0:0:0:0:
90,214,52511,1,0,3:0:0:0:
248,135,52668,1,2,3:2:0:0:
34,76,52827,1,10,0:0:0:0:
34,76,53143,5,2,3:2:0:0:
172,196,53300,1,2,3:2:0:0:
90,15,53458,1,10,0:0:0:0:
90,214,53616,1,2,3:2:0:0:
215,16,53774,1,2,3:2:0:0:
186,214,53932,1,2,3:2:0:0:
72,6,54090,1,10,0:0:0:0:
72,6,54405,6,0,L|50:100,1,90,2|0,0:0|3:0,0:0:0:0:
136,271,54722,1,8,0:0:0:0:
311,147,54879,2,0,P|272:115|230:115,1,90,2|0,0:0|0:0,0:0:0:0:
311,308,55195,1,0,3:0:0:0:
311,308,55274,1,0,3:0:0:0:
311,308,55353,2,0,L|340:216,1,90,10|0,0:0|0:0,0:0:0:0:
118,144,55668,6,0,P|148:181|198:196,1,90,14|0,0:2|0:0,0:0:0:0:
101,38,55985,1,0,3:0:0:0:
78,242,56143,6,0,L|119:358,1,90,14|0,0:0|0:0,0:0:0:0:
0,165,56459,1,0,3:0:0:0:
214,282,56616,6,0,P|253:254|272:207,1,90,14|0,0:0|0:0,0:0:0:0:
78,242,56932,1,0,3:0:0:0:
307,358,57090,6,0,L|409:343,1,90,14|0,0:0|0:0,0:0:0:0:
214,282,57406,1,0,3:0:0:0:
411,165,57563,6,0,P|447:211|444:252,1,90,14|0,0:0|0:0,0:0:0:0:
274,124,57879,2,0,P|295:69|332:51,1,90,14|0,0:0|0:0,0:0:0:0:
288,285,58194,5,8,0:0:0:0:
187,136,58353,1,0,1:0:0:0:
187,136,58432,1,0,1:0:0:0:
187,136,58511,1,0,1:0:0:0:
151,311,58669,1,4,0:3:0:0:
106,89,58827,5,0,1:0:0:0:
106,89,58905,1,0,1:0:0:0:
106,89,58985,1,0,1:0:0:0:
57,301,59142,1,4,0:3:0:0:
187,136,59300,1,4,3:0:0:0:
325,378,59459,5,8,0:0:0:0:
90,213,59617,1,8,0:0:0:0:
431,112,59774,1,8,0:0:0:0:
167,351,59932,1,8,0:0:0:0:
300,22,60090,1,8,0:0:0:0:
440,270,60248,1,8,0:0:0:0:
149,67,60406,5,0,1:0:0:0:
184,38,60485,1,0,1:0:0:0:
227,28,60564,1,0,1:0:0:0:
271,38,60643,1,0,1:0:0:0:
307,65,60722,5,6,3:2:0:0:
104,169,60880,1,2,0:0:0:0:
345,289,61037,2,0,P|363:238|341:181,1,107.999996704102,10|0,0:0|0:0,0:0:0:0:
267,379,61353,1,2,3:2:0:0:
440,270,61510,1,2,3:2:0:0:
249,80,61668,2,0,B|268:129|268:129|262:177|262:177|284:238,1,161.999995056153,10|0,0:0|0:0,0:0:0:0:
207,249,61984,6,0,L|92:234,1,107.999996704102,2|0,3:2|0:0,0:0:0:0:
289,354,62301,1,10,0:0:0:0:
36,319,62459,2,0,B|-1:262|-1:262|-8:163|77:138,1,215.999993408203,2|0,3:2|3:0,0:0:0:0:
311,146,62932,1,8,0:0:0:0:
160,242,63089,1,2,0:0:0:0:
219,7,63248,6,0,L|244:116,1,107.999996704102,6|0,3:2|3:0,0:0:0:0:
367,284,63564,1,10,0:0:0:0:
361,68,63721,1,2,0:0:0:0:
274,300,63880,1,2,3:2:0:0:
451,173,64038,1,2,3:2:0:0:
203,212,64194,2,0,L|314:194,1,107.999996704102,10|0,0:0|0:0,0:0:0:0:
508,360,64510,6,0,P|460:326|402:328,1,107.999996704102,2|0,3:2|0:0,0:0:0:0:
231,384,64826,1,10,0:0:0:0:
64,237,64984,2,0,P|125:179|249:211,1,215.999993408203,2|0,3:2|3:0,0:0:0:0:
115,90,65459,1,8,0:0:0:0:
168,288,65617,1,0,1:0:0:0:
187,308,65695,1,0,1:0:0:0:
207,327,65773,6,0,P|263:333|311:301,1,107.999996704102,6|0,3:2|3:0,0:0:0:0:
277,111,66090,2,0,P|243:156|247:214,1,107.999996704102,10|0,0:0|0:0,0:0:0:0:
450,206,66405,2,0,L|330:182,1,107.999996704102,2|0,3:2|3:0,0:0:0:0:
156,54,66722,2,0,L|276:30,1,107.999996704102,10|0,0:0|0:0,0:0:0:0:
103,206,67038,6,0,L|74:94,1,107.999996704102,2|0,3:2|3:0,0:0:0:0:
179,315,67352,2,0,L|208:203,1,107.999996704102,10|0,0:0|0:0,0:0:0:0:
15,256,67668,2,0,P|55:214|108:206,1,107.999996704102,2|0,3:2|3:0,0:0:0:0:
271,348,67985,2,0,P|322:336|358:297,1,107.999996704102,10|0,0:0|0:0,0:0:0:0:
193,52,68301,6,0,B|218:123|218:123|198:182|198:182|222:268,1,215.999993408203,6|8,3:2|0:0,0:0:0:0:
426,110,68774,1,0,1:0:0:0:
426,110,68853,1,0,1:0:0:0:
426,110,68931,2,0,B|376:71|376:71|356:169|274:185,1,215.999993408203,10|8,0:0|0:0,0:0:0:0:
457,238,69406,1,0,3:0:0:0:
258,328,69563,6,0,P|188:281|123:315,1,161.999995056153,14|0,0:2|0:0,0:0:0:0:
189,359,69879,6,0,P|116:285|41:325,1,188.999994232178,14|0,0:0|0:0,0:0:0:0:
16,381,70195,5,14,0:0:0:0:
110,122,70353,1,8,0:0:0:0:
291,272,70511,5,0,1:0:0:0:
344,272,70590,1,0,1:0:0:0:
390,246,70669,1,0,1:0:0:0:
416,199,70748,1,0,1:0:0:0:
414,146,70827,5,6,3:2:0:0:
356,346,70985,1,2,3:2:0:0:
278,115,71142,1,10,0:0:0:0:
413,263,71301,1,2,0:0:0:0:
352,15,71459,1,2,3:2:0:0:
257,198,71616,1,0,3:0:0:0:
512,112,71774,2,0,L|334:86,1,161.999995056153,10|0,0:0|0:0,0:0:0:0:
278,115,72090,6,0,L|163:127,1,107.999996704102,2|0,3:2|0:0,0:0:0:0:
50,301,72405,1,10,0:0:0:0:
81,58,72563,2,0,B|136:106|136:106|106:257,1,215.999993408203,2|0,3:2|3:0,0:0:0:0:
228,114,73038,1,10,0:0:0:0:
299,287,73195,1,2,0:0:0:0:
433,89,73353,6,0,P|385:149|304:156,1,161.999995056153,6|0,3:2|0:0,0:0:0:0:
267,183,73668,2,0,L|300:290,1,107.999996704102,8|0,0:0|0:0,0:0:0:0:
36,347,73984,2,0,P|84:287|165:280,1,161.999995056153,2|0,3:2|0:0,0:0:0:0:
202,253,74301,2,0,L|169:146,1,107.999996704102,8|0,0:0|0:0,0:0:0:0:
124,363,74617,5,6,3:2:0:0:
302,230,74774,1,0,3:0:0:0:
79,189,74931,1,10,0:0:0:0:
287,367,75089,2,0,B|358:339|358:339|395:367|450:367,1,161.999995056153,6|0,0:0|0:0,0:0:0:0:
494,313,75406,2,0,L|514:259,1,53.9999983520508,2|0,0:0|0:0,0:0:0:0:
391,91,75564,5,0,1:0:0:0:
400,127,75643,1,0,1:0:0:0:
409,164,75722,1,0,1:0:0:0:
419,200,75801,1,0,1:0:0:0:
428,237,75879,6,0,P|364:184|273:222,1,188.999994232178,6|0,3:2|0:0,0:0:0:0:
238,229,76194,2,0,L|219:169,1,62.9999980773926,0|0,1:0|0:0,0:0:0:0:
106,338,76352,6,0,B|166:317|166:317|230:335|230:335|314:313,1,188.999994232178,6|0,3:2|0:0,0:0:0:0:
325,320,76668,2,0,L|316:384,1,62.9999980773926,0|0,1:0|0:0,0:0:0:0:
137,232,76827,6,0,B|90:163|147:100|147:100|205:155|293:112,1,283.499991348267,6|0,3:2|0:0,0:0:0:0:
321,63,77458,6,0,P|345:104|345:140,1,80.9999975280763,2|0,0:0|0:0,0:0:0:0:
307,214,77774,1,8,0:3:0:0:
400,257,77932,1,0,3:0:0:0:
412,246,78011,1,0,3:0:0:0:
423,234,78090,1,0,3:0:0:0:
429,219,78169,1,0,3:0:0:0:
436,204,78248,1,0,3:0:0:0:
437,187,78327,1,0,3:0:0:0:
429,162,78406,6,0,P|350:158|282:70,1,188.999994232178,6|0,3:2|0:0,0:0:0:0:
275,39,78721,2,0,L|346:23,1,62.9999980773926,0|0,1:0|0:0,0:0:0:0:
233,173,78879,6,0,B|168:195|168:195|33:146,1,188.999994232178,6|0,3:2|0:0,0:0:0:0:
18,164,79194,2,0,L|40:237,1,62.9999980773926,0|0,1:0|0:0,0:0:0:0:
171,319,79352,6,0,B|203:298|217:275|217:275|265:325|350:340,1,188.999994232178,6|0,3:2|0:0,0:0:0:0:
353,316,79668,5,0,1:0:0:0:
224,384,79826,1,8,0:3:0:0:
103,279,79984,1,8,0:3:0:0:
12,367,80142,1,0,3:0:0:0:
12,367,80221,1,0,3:0:0:0:
12,367,80300,1,0,3:0:0:0:
171,319,80458,1,2,0:0:0:0:
67,190,80616,1,8,0:3:0:0:
87,351,80773,1,8,0:3:0:0:
270,170,80931,6,0,P|230:124|150:123,1,125.999996154785,14|0,0:0|0:0,0:0:0:0:
171,319,81247,1,0,3:0:0:0:
419,235,81405,6,0,L|400:93,1,125.999996154785,14|0,0:0|0:0,0:0:0:0:
485,333,81721,1,0,3:0:0:0:
241,278,81879,6,0,P|281:232|361:231,1,125.999996154785,14|0,0:0|0:0,0:0:0:0:
142,205,82194,1,0,3:0:0:0:
328,349,82352,6,0,L|343:215,1,125.999996154785,14|0,0:0|0:0,0:0:0:0:
251,52,82668,1,0,3:0:0:0:
123,285,82826,6,0,P|191:300|246:272,1,125.999996154785,14|0,0:0|0:0,0:0:0:0:
368,44,83142,2,0,P|300:29|245:57,1,125.999996154785,14|0,0:0|0:0,0:0:0:0:
401,278,83458,5,6,3:2:0:0:
311,107,83616,1,0,3:0:0:0:
292,346,83773,5,0,3:0:0:0:
190,115,83931,1,0,3:0:0:0:
182,384,84089,5,0,1:0:0:0:
74,126,84247,1,0,1:0:0:0:
298,361,84405,5,0,1:0:0:0:
167,96,84563,1,0,1:0:0:0:
63,384,84721,5,10,0:0:0:0:
371,177,84879,1,14,0:0:0:0:
336,105,85984,5,2,0:0:0:0:
255,116,86141,1,0,0:0:0:0:
241,196,86299,1,0,0:0:0:0:
313,234,86457,1,0,0:0:0:0:
371,177,86615,5,2,0:0:0:0:
244,278,86931,1,2,0:0:0:0:
382,362,87247,6,0,L|387:287,1,53.9999983520508,2|0,0:0|0:0,0:0:0:0:
445,242,87562,1,0,0:0:0:0:
445,242,87721,2,0,P|394:217|333:234,1,107.999996704102,2|0,0:0|0:0,0:0:0:0:
251,253,88194,1,0,0:0:0:0:
276,179,88352,1,0,0:0:0:0:
170,86,88510,5,2,0:0:0:0:
227,28,88668,1,0,0:0:0:0:
308,28,88826,1,0,0:0:0:0:
365,85,88984,1,2,0:0:0:0:
365,85,89300,5,2,0:0:0:0:
339,162,89457,1,0,0:0:0:0:
392,224,89615,1,0,0:0:0:0:
473,217,89773,1,2,0:0:0:0:
473,217,90089,5,2,0:0:0:0:
398,217,90247,1,0,0:0:0:0:
323,217,90405,1,0,0:0:0:0:
248,217,90562,1,2,0:0:0:0:
248,217,90878,5,0,0:0:0:0:
190,273,91036,2,0,L|128:267,1,53.9999983520508,2|0,0:0|0:0,0:0:0:0:
70,219,91352,1,0,0:0:0:0:
112,151,91510,1,0,0:0:0:0:
51,95,91668,5,2,0:0:0:0:
181,191,91984,1,2,0:0:0:0:
64,297,92300,6,0,L|69:363,1,53.9999983520508,2|0,0:0|0:0,0:0:0:0:
167,378,92616,1,0,0:0:0:0:
167,378,92773,2,0,L|297:353,1,107.999996704102,2|0,0:0|0:0,0:0:0:0:
354,370,93247,1,0,0:0:0:0:
399,303,93405,1,0,0:0:0:0:
490,381,93563,6,0,L|515:266,1,107.999996704102,2|0,0:0|0:0,0:0:0:0:
476,173,94037,1,0,0:0:0:0:
476,173,94194,2,0,P|421:171|365:148,1,107.999996704102,2|0,0:0|0:0,0:0:0:0:
255,24,94826,6,0,P|295:48|309:117,1,107.999996704102,2|0,0:0|0:0,0:0:0:0:
247,168,95299,1,0,0:0:0:0:
247,168,95457,2,0,L|137:166,1,107.999996704102,2|0,0:0|0:0,0:0:0:0:
47,286,95931,1,0,1:0:0:0:
27,257,96010,1,0,1:0:0:0:
5,230,96089,1,4,1:3:0:0:
5,230,96405,5,8,0:0:0:0:
300,299,96563,1,8,0:0:0:0:
37,363,96721,1,8,0:0:0:0:
327,189,96879,1,8,0:0:0:0:
17,377,97194,5,6,0:0:0:0:
256,192,97273,12,0,99879,0:0:0:0:
