osu file format v14

[General]
AudioFilename: audio.mp3
AudioLeadIn: 0
PreviewTime: 65067
Countdown: 0
SampleSet: Soft
StackLeniency: 0.4
Mode: 0
LetterboxInBreaks: 0
WidescreenStoryboard: 1

[Editor]
Bookmarks: 23230,36292,48945,65067,78333
DistanceSpacing: 1
BeatDivisor: 4
GridSize: 8
TimelineZoom: 1

[Metadata]
Title:Floating up
TitleUnicode:Floating up
Artist:KOTOKO
ArtistUnicode:KOTOKO
Creator:tomatas95
Version:Normal
Source:カルマルカ*サークル
Tags:opening op vn galgame freesongs eroge visual novel saga planets karumaruka circle japanese short version ver video game pop
BeatmapID:2474977
BeatmapSetID:1185397

[Difficulty]
HPDrainRate:3
CircleSize:3
OverallDifficulty:4.5
ApproachRate:5.5
SliderMultiplier:1
SliderTickRate:1

[Events]
//Background and Video events
0,0,"sidecharacterwhy.jpg",0,0
Video,-366,"Natsu.avi"
//Break Periods
//Storyboard Layer 0 (Background)
//Storyboard Layer 1 (Fail)
//Storyboard Layer 2 (Pass)
//Storyboard Layer 3 (Foreground)
//Storyboard Layer 4 (Overlay)
//Storyboard Sound Samples

[TimingPoints]
3231,408.163265306122,4,2,1,60,1,0
6496,-100,4,2,2,60,0,0
6904,-100,4,2,1,60,0,0
9761,-100,4,2,2,70,0,0
10169,-100,4,2,1,70,0,0
22822,-100,4,2,1,55,0,0
32618,-100,4,2,4,55,0,0
34047,-100,4,2,2,55,0,0
34251,-100,4,2,1,60,0,0
34455,-100,4,2,1,60,0,0
34863,-100,4,2,2,60,0,0
34965,-100,4,2,1,60,0,0
35271,-100,4,2,1,60,0,0
35475,-100,4,2,2,60,0,0
35679,-100,4,2,1,55,0,0
42414,-100,4,2,2,55,0,0
42822,-100,4,2,1,55,0,0
45679,-100,4,2,4,50,0,0
46088,-100,4,2,4,60,0,0
47108,-100,4,2,2,60,0,0
47516,-100,4,2,1,60,0,0
47720,-100,4,2,1,65,0,0
48128,-100,4,2,1,70,0,0
48333,-100,4,2,1,70,0,0
48945,-100,4,2,2,65,0,0
49353,-100,4,2,1,65,0,0
58741,-100,4,2,2,65,0,0
58945,-100,4,2,1,65,0,0
59149,-100,4,2,1,65,0,0
59353,-100,4,2,2,65,0,0
59761,-100,4,2,1,65,0,0
60169,-100,4,2,2,65,0,0
60577,-100,4,2,1,65,0,0
60986,-100,4,2,2,65,0,0
61394,-100,4,2,1,65,0,0
64251,-100,4,2,2,65,0,0
64455,-100,4,2,1,65,0,0
64659,-100,4,2,1,65,0,0
65271,-90.9090909090909,4,2,2,80,0,1
65475,-90.9090909090909,4,2,1,80,0,1
71802,-90.9090909090909,4,2,2,80,0,1
72210,-90.9090909090909,4,2,1,80,0,1
75475,-90.9090909090909,4,2,4,80,0,1
77108,-90.9090909090909,4,2,1,80,0,1
78128,-90.9090909090909,4,2,1,80,0,0
78333,-90.9090909090909,4,2,1,80,0,1
84863,-90.9090909090909,4,2,2,80,0,1
85271,-90.9090909090909,4,2,1,80,0,1
87924,-90.9090909090909,4,2,1,80,0,0
88128,-90.9090909090909,4,2,1,80,0,1
92975,-90.9090909090909,4,2,1,80,0,0
93026,-100,4,2,2,80,0,1
93077,-100,4,2,2,80,0,0
93230,-100,4,2,2,65,0,0
93434,-100,4,2,2,65,0,0
93435,-100,4,2,1,65,0,0
106088,-100,4,2,1,45,0,0
117924,-100,4,2,1,5,0,0

[Colours]
Combo1 : 255,180,157
Combo2 : 170,170,255
Combo3 : 117,224,255
Combo4 : 214,111,253

[HitObjects]
124,102,3231,6,0,L|232:95,1,100,6|0,3:2|1:0,2:0:0:0:
316,57,4047,2,0,L|309:165,1,100,2|0,1:2|1:0,2:0:0:0:
306,206,4659,1,2,3:2:0:0:
251,289,5067,1,2,2:0:0:0:
327,353,5475,2,0,P|366:343|435:358,1,100,2|0,2:0|3:0,2:0:0:0:
473,363,6088,2,0,L|475:295,1,50,2|2,1:2|3:2,2:0:0:0:
481,263,6496,6,0,P|484:228|451:148,1,100,4|0,3:2|1:0,2:0:0:0:
384,107,7312,2,0,P|338:92|279:110,1,100,0|0,1:0|1:0,2:0:0:0:
246,129,7924,1,2,3:2:0:0:
171,62,8333,1,2,2:0:0:0:
86,116,8741,1,2,2:0:0:0:
73,164,8945,2,0,L|65:232,1,50,10|10,2:0|2:0,2:0:0:0:
71,263,9353,2,0,L|79:331,1,50,10|10,2:0|2:0,2:0:0:0:
98,357,9761,6,0,P|141:363|202:339,1,100,6|2,3:2|1:2,2:0:0:0:
276,288,10577,2,0,L|281:338,2,50,2|2|2,3:2|2:0|1:2,2:0:0:0:
267,238,11190,1,2,2:0:0:0:
269,138,11598,1,2,2:0:0:0:
363,172,12006,2,0,L|371:51,1,100,2|2,2:0|2:0,2:0:0:0:
388,25,12618,2,0,L|447:20,1,50,2|2,1:2|2:0,2:0:0:0:
481,45,13026,6,0,P|495:76|483:154,1,100,2|2,3:2|1:2,2:0:0:0:
397,175,13843,2,0,P|389:223|405:270,1,100,2|0,3:2|1:0,2:0:0:0:
443,302,14455,1,2,2:0:0:0:
368,368,14863,1,2,2:0:0:0:
282,315,15271,2,0,L|270:194,1,100,2|2,2:0|2:0,2:0:0:0:
269,165,15884,2,0,L|272:96,1,50,2|2,1:0|1:0,2:0:0:0:
273,65,16292,6,0,B|236:50|236:50|168:82,1,100,6|2,3:2|1:2,2:0:0:0:
101,135,17108,2,0,L|111:200,2,50,2|2|2,3:2|2:0|1:2,2:0:0:0:
76,91,17720,1,2,2:0:0:0:
6,163,18128,1,2,2:0:0:0:
26,261,18537,2,0,L|133:269,1,100,2|2,2:0|2:0,2:0:0:0:
175,263,19149,2,0,L|224:259,1,50,0|0,1:0|2:0,2:0:0:0:
263,227,19557,6,0,B|289:205|289:205|291:121,1,100,4|0,3:2|1:0,2:0:0:0:
261,42,20373,1,2,3:2:0:0:
358,18,20782,1,0,1:0:0:0:
382,115,21190,2,0,L|431:106,2,50,2|2|2,3:2|2:0|1:2,2:0:0:0:
345,149,21802,1,2,2:0:0:0:
270,215,22210,2,0,L|273:264,1,50,0|2,1:0|3:2,2:0:0:0:
278,314,22618,1,0,1:0:0:0:
286,363,22822,5,4,3:2:0:0:
382,335,23230,2,0,L|390:223,1,100,0|2,1:0|3:1,2:0:0:0:
421,196,23843,2,0,L|425:131,1,50,0|0,2:0|1:0,2:0:0:0:
433,97,24251,1,2,2:1:0:0:
347,45,24659,2,0,L|297:48,1,50,2|0,2:1|1:0,2:0:0:0:
247,53,25067,2,0,P|239:89|256:152,1,100,2|2,2:1|2:0,0:0:0:0:
283,189,25679,1,0,1:0:0:0:
239,279,26088,5,0,3:0:0:0:
142,303,26496,2,0,P|147:255|133:204,1,100,2|0,1:0|3:0,2:0:0:0:
98,170,27108,2,0,L|90:58,1,100,2|2,2:1|2:1,2:0:0:0:
169,6,27924,1,2,2:1:0:0:
231,84,28333,2,0,L|226:184,1,100,2|0,2:1|2:0,2:0:0:0:
217,233,28945,2,0,L|219:290,1,50,0|0,1:0|1:0,2:0:0:0:
231,331,29353,5,6,3:2:0:0:
337,329,29761,2,0,L|340:263,1,50,0|2,1:0|2:1,2:0:0:0:
366,236,30169,1,0,3:0:0:0:
398,198,30373,2,0,L|500:204,2,100,2|2|0,2:1|2:1|2:0,2:0:0:0:
347,193,31394,2,0,P|301:170|266:116,1,100,2|0,1:0|3:0,0:0:0:0:
280,32,32210,2,0,L|343:25,1,50,0|0,1:0|2:0,2:0:0:0:
378,16,32618,5,2,3:1:0:0:
458,75,33026,1,2,3:1:0:0:
407,161,33435,1,2,3:1:0:0:
465,241,33843,1,2,3:1:0:0:
443,286,34047,6,0,B|414:287|414:287|386:281|386:281|331:285,1,100,6|0,1:2|1:0,2:0:0:0:
251,322,34863,2,0,B|250:293|250:293|256:265|256:265|256:207,1,100,4|0,1:2|1:0,2:0:0:0:
256,172,35475,2,0,L|200:167,1,50,4|0,3:2|1:0,2:0:0:0:
155,167,35884,5,2,3:1:0:0:
70,220,36292,2,0,P|55:185|66:119,1,100,2|2,1:1|3:1,2:0:0:0:
87,81,36904,2,0,L|136:76,1,50,0|0,2:0|1:0,2:0:0:0:
185,66,37312,1,2,2:1:0:0:
275,108,37720,2,0,L|334:101,1,50,2|0,2:1|1:0,2:0:0:0:
368,79,38128,2,0,L|466:94,1,100,2|2,2:0|2:1,2:0:0:0:
504,126,38741,1,2,1:0:0:0:
431,195,39149,5,2,3:2:0:0:
336,228,39557,2,0,P|292:217|226:234,1,100,0|0,1:0|3:0,2:0:0:0:
204,262,40169,2,0,L|102:267,1,100,2|2,2:1|2:1,2:0:0:0:
14,312,40986,1,2,2:1:0:0:
96,367,41394,2,0,L|198:372,1,100,2|0,2:1|2:0,2:0:0:0:
245,373,42006,2,0,L|255:314,1,50,0|0,1:0|1:0,2:0:0:0:
262,274,42414,5,4,3:2:0:0:
330,201,42822,2,0,L|322:135,2,50,0|2|0,1:0|2:1|3:0,2:0:0:0:
345,248,43435,1,2,2:1:0:0:
407,325,43843,2,0,P|445:289|459:224,1,100,2|0,2:1|0:0,2:0:0:0:
456,194,44455,1,0,1:0:0:0:
420,159,44659,2,0,L|312:142,1,100,2|2,2:1|2:1,2:0:0:0:
271,143,45271,1,2,1:0:0:0:
200,213,45679,5,6,3:1:0:0:
115,158,46088,1,2,1:0:0:0:
26,204,46496,2,0,L|16:133,1,50,2|2,3:1|2:1,2:0:0:0:
9,105,46904,1,0,1:0:0:0:
27,58,47108,6,0,B|73:40|73:40|141:55,1,100,6|2,3:2|3:2,2:0:0:0:
167,72,47720,1,2,3:2:0:0:
168,222,48333,1,0,1:0:0:0:
212,245,48537,2,0,L|261:237,1,50,2|0,3:2|1:0,2:0:0:0:
307,216,48945,6,0,P|348:208|406:227,1,100,12|8,3:2|2:0,2:0:0:0:
454,307,49761,2,0,P|478:289|496:208,1,100,10|8,2:0|2:0,2:0:0:0:
495,174,50373,1,2,2:1:0:0:
474,128,50577,2,0,L|485:22,1,100,8|8,2:0|2:0,2:0:0:0:
386,5,51394,1,8,2:0:0:0:
308,68,51802,1,8,2:0:0:0:
213,31,52210,6,0,P|175:21|102:46,1,100,8|8,2:0|2:0,2:0:0:0:
80,125,53026,2,0,L|76:237,1,100,8|8,2:0|2:0,2:0:0:0:
71,274,53639,1,2,3:1:0:0:
71,323,53843,2,0,P|113:307|184:329,1,100,8|8,2:0|2:0,2:0:0:0:
247,374,54659,1,8,2:0:0:0:
305,292,55067,2,0,L|300:238,1,50,8|0,2:0|3:0,2:0:0:0:
290,193,55475,6,0,B|319:178|319:178|398:206,1,100,12|8,3:2|2:0,2:0:0:0:
442,280,56292,2,0,P|468:253|478:194,1,100,8|8,2:0|2:0,2:0:0:0:
472,143,56904,2,0,L|457:42,1,100,6|0,3:2|2:0,2:0:0:0:
431,1,57516,1,8,2:0:0:0:
290,53,58128,1,2,3:0:0:0:
239,57,58333,2,0,L|185:51,1,50,2|8,1:0|2:0,2:0:0:0:
139,45,58741,6,0,B|120:63|120:63|120:154,1,100,4|8,3:2|2:0,2:0:0:0:
114,186,59353,1,4,3:2:0:0:
135,283,59761,2,0,L|194:268,1,50,2|8,3:0|2:0,2:0:0:0:
233,268,60169,2,0,L|340:295,1,100,4|2,3:2|3:0,2:0:0:0:
377,307,60782,1,8,2:0:0:0:
377,307,60986,1,4,3:2:0:0:
415,214,61394,1,2,2:1:0:0:
365,126,61802,1,0,1:0:0:0:
331,89,62006,6,0,L|218:100,2,100,0|0|0,3:0|3:0|3:0,2:0:0:0:
416,37,63230,1,0,3:0:0:0:
452,71,63435,2,0,L|467:182,1,100,6|2,3:2|3:1,2:0:0:0:
472,219,64047,1,2,3:1:0:0:
457,266,64251,1,6,1:2:0:0:
402,350,64659,1,2,1:0:0:0:
315,300,65067,5,0,1:0:0:0:
341,251,65271,2,0,L|346:193,1,55.0000016784668,6|2,3:2|2:0,2:0:0:0:
431,127,65884,1,2,2:0:0:0:
439,72,66088,2,0,L|434:14,1,55.0000016784668,2|2,3:2|2:0,2:0:0:0:
325,4,66700,2,0,P|310:43|326:119,1,110.000003356934,2|0,2:0|2:0,2:0:0:0:
344,158,67312,1,0,1:0:0:0:
358,210,67516,2,0,P|369:263|353:315,1,110.000003356934,2|0,2:0|2:0,2:0:0:0:
313,353,68128,1,2,1:0:0:0:
203,343,68537,5,0,3:0:0:0:
116,275,68945,2,0,L|-5:283,2,110.000003356934,2|2|0,1:2|3:2|1:0,2:0:0:0:
161,243,69965,2,0,P|214:232|265:250,1,110.000003356934,2|2,2:0|2:0,2:0:0:0:
304,289,70577,2,0,P|355:307|408:296,1,110.000003356934,2|0,1:2|3:0,2:0:0:0:
482,214,71394,2,0,L|473:142,1,55.0000016784668,2|0,1:3|1:0,2:0:0:0:
442,115,71802,6,0,L|448:41,2,55.0000016784668,4|0|0,3:2|2:0|1:0,2:0:0:0:
407,157,72414,2,0,P|353:169|300:156,1,110.000003356934,2|2,2:0|2:0,2:0:0:0:
267,112,73026,1,0,1:0:0:0:
161,143,73435,2,0,L|84:134,1,55.0000016784668,2|0,3:1|2:0,2:0:0:0:
60,105,73843,1,2,1:2:0:0:
19,142,74047,2,0,P|7:175|25:266,1,110.000003356934,2|2,2:0|2:0,2:0:0:0:
35,299,74659,1,0,1:0:0:0:
121,366,75067,5,0,3:0:0:0:
206,296,75475,2,0,L|318:311,2,110.000003356934,2|2|2,1:0|3:1|1:0,2:0:0:0:
156,271,76496,2,0,P|139:228|156:148,1,110.000003356934,2|0,1:0|2:0,2:0:0:0:
165,114,77108,1,0,1:0:0:0:
244,37,77516,1,0,3:0:0:0:
296,54,77720,2,0,L|361:42,1,55.0000016784668,0|0,1:0|1:0,2:0:0:0:
404,38,78128,5,0,1:0:0:0:
446,73,78333,2,0,L|458:138,1,55.0000016784668,6|2,3:2|2:0,2:0:0:0:
466,236,78945,1,0,2:0:0:0:
443,286,79149,2,0,L|431:351,1,55.0000016784668,2|2,3:2|0:2,2:0:0:0:
323,343,79761,2,0,P|307:288|326:228,1,110.000003356934,2|2,2:0|2:0,2:0:0:0:
355,196,80373,1,0,1:0:0:0:
347,141,80577,2,0,P|292:125|232:144,1,110.000003356934,2|2,2:0|2:1,2:0:0:0:
198,170,81190,1,0,1:0:0:0:
125,87,81598,5,2,3:0:0:0:
27,137,82006,2,0,L|41:259,2,110.000003356934,2|2|0,1:2|3:2|1:0,2:0:0:0:
68,101,83026,2,0,P|111:86|183:108,1,110.000003356934,2|0,2:0|2:0,2:0:0:0:
206,143,83639,2,0,L|381:158,1,165.000005035401,2|2,1:0|2:3,2:0:0:0:
425,161,84455,1,0,1:3:0:0:
390,265,84863,6,0,L|401:387,2,110.000003356934,6|2|2,3:2|1:2|3:2,2:0:0:0:
370,157,86088,1,2,1:2:0:0:
325,124,86292,2,0,P|276:113|209:137,1,110.000003356934,2|0,2:0|2:0,2:0:0:0:
181,168,86904,1,2,1:0:0:0:
129,185,87108,2,0,P|108:134|116:79,1,110.000003356934,2|0,2:0|3:0,2:0:0:0:
149,39,87720,1,2,3:1:0:0:
257,55,88128,6,0,B|292:51|292:51|323:62|323:62|376:59,2,110.000003356934,4|10|10,3:2|2:0|2:0,2:0:0:0:
149,39,89353,1,10,2:0:0:0:
96,22,89557,1,0,3:0:0:0:
56,60,89761,2,0,L|45:182,1,110.000003356934,4|10,1:2|2:0,2:0:0:0:
43,279,90577,1,8,2:0:0:0:
95,296,90782,1,0,3:0:0:0:
147,280,90986,2,0,L|216:265,1,55.0000016784668,8|0,2:0|3:0,2:0:0:0:
255,267,91394,6,0,L|270:336,2,55.0000016784668,4|8|2,3:2|2:0|3:2,2:0:0:0:
205,168,92210,2,0,L|191:102,1,55.0000016784668,2|8,3:2|2:0,2:0:0:0:
154,75,92618,2,0,L|168:9,1,55.0000016784668,8|8,2:0|2:0,2:0:0:0:
214,10,93026,6,0,P|259:-1|328:13,1,100,4|2,3:2|1:2,2:0:0:0:
395,61,93843,2,0,L|459:47,2,50,2|2|2,3:2|2:0|1:2,2:0:0:0:
360,96,94455,1,2,2:0:0:0:
324,190,94863,1,2,2:0:0:0:
381,268,95271,2,0,P|339:287|275:270,1,100,2|2,2:0|2:0,2:0:0:0:
240,260,95884,2,0,L|169:267,1,50,2|2,1:2|2:0,2:0:0:0:
140,266,96292,5,2,3:2:0:0:
92,353,96700,1,2,1:2:0:0:
17,293,97108,2,0,L|7:192,1,100,2|0,3:2|1:0,2:0:0:0:
5,143,97720,1,2,2:0:0:0:
15,43,98128,1,2,2:0:0:0:
95,102,98537,2,0,P|143:112|191:100,1,100,2|2,2:0|2:0,2:0:0:0:
211,53,99149,2,0,L|280:59,1,50,2|2,1:0|1:0,2:0:0:0:
287,99,99557,6,0,L|386:90,1,100,4|2,3:2|1:2,2:0:0:0:
481,57,100373,2,0,L|477:2,2,50,2|2|2,3:2|2:0|1:2,2:0:0:0:
488,106,100986,1,2,2:0:0:0:
423,182,101394,1,2,2:0:0:0:
346,115,101802,2,0,P|302:103|244:117,1,100,2|2,2:0|2:0,2:0:0:0:
202,129,102414,2,0,L|197:178,1,50,0|2,1:0|2:0,2:0:0:0:
186,231,102822,5,4,3:2:0:0:
159,327,103230,1,2,1:0:0:0:
256,304,103639,2,0,L|362:313,1,100,2|2,3:2|1:2,2:0:0:0:
403,325,104251,1,2,2:0:0:0:
481,263,104659,1,2,2:0:0:0:
417,181,105067,1,2,2:0:0:0:
458,152,105271,2,0,L|461:85,1,50,2|2,3:0|2:0,2:0:0:0:
435,58,105679,2,0,L|433:8,1,50,2|2,1:0|1:0,2:0:0:0:
382,4,106088,6,0,L|272:-2,2,100,6|0|0,3:2|3:0|3:0,2:0:0:0:
373,103,107312,1,0,3:0:0:0:
373,152,107516,2,0,L|371:202,1,50,2|0,2:1|3:0,2:0:0:0:
343,297,108128,2,0,L|293:294,1,50,2|2,3:1|2:1,2:0:0:0:
245,309,108537,2,0,P|205:318|139:302,1,100,2|2,3:1|3:1,2:0:0:0:
76,236,109353,6,0,L|69:136,2,100,2|0|0,3:1|3:0|3:0,2:0:0:0:
147,306,110577,1,0,3:0:0:0:
197,306,110782,2,0,L|246:309,1,50,2|0,2:1|3:0,2:0:0:0:
341,342,111394,1,0,3:0:0:0:
330,242,111802,2,0,L|338:183,1,50,2|0,3:0|0:0,2:0:0:0:
306,152,112210,2,0,L|298:93,1,50,2|0,3:0|0:0,2:0:0:0:
335,67,112618,6,0,L|438:81,2,100,2|0|0,3:0|3:0|3:0,2:0:0:0:
239,36,113843,1,0,3:0:0:0:
196,62,114047,2,0,L|192:129,1,50,2|0,2:1|3:0,2:0:0:0:
117,177,114659,2,0,L|120:226,1,50,0|2,3:0|2:1,2:0:0:0:
124,276,115067,1,0,3:0:0:0:
181,359,115475,1,0,3:0:0:0:
257,294,115884,6,0,L|364:311,2,100,0|0|0,3:0|3:0|3:0,2:0:0:0:
200,211,117108,1,0,3:0:0:0:
216,163,117312,2,0,B|216:133|216:133|237:86|237:86|233:1,1,150,2|0,3:2|2:0,2:0:0:0:
