osu file format v14

[General]
AudioFilename: audio.mp3
AudioLeadIn: 0
PreviewTime: 65067
Countdown: 0
SampleSet: Soft
StackLeniency: 0.2
Mode: 0
LetterboxInBreaks: 0
WidescreenStoryboard: 1

[Editor]
Bookmarks: 15577,48946,65272,77006,78334,88129,93027,99149,106089,117312
DistanceSpacing: 1
BeatDivisor: 4
GridSize: 32
TimelineZoom: 1

[Metadata]
Title:Floating up
TitleUnicode:Floating up
Artist:KOTOKO
ArtistUnicode:KOTOKO
Creator:tomatas95
Version:Natsu
Source:カルマルカ*サークル
Tags:opening op vn galgame freesongs eroge visual novel saga planets karumaruka circle japanese short version ver video game pop
BeatmapID:2513083
BeatmapSetID:1185397

[Difficulty]
HPDrainRate:6
CircleSize:4
OverallDifficulty:7.5
ApproachRate:8.5
SliderMultiplier:1.4
SliderTickRate:1

[Events]
//Background and Video events
0,0,"BESTWAIFUBG.jpg",0,0
Video,-366,"Natsu.avi"
//Break Periods
//Storyboard Layer 0 (Background)
//Storyboard Layer 1 (Fail)
//Storyboard Layer 2 (Pass)
//Storyboard Layer 3 (Foreground)
//Storyboard Layer 4 (Overlay)
//Storyboard Sound Samples

[TimingPoints]
3231,408.163265306122,4,2,1,60,1,0
3231,-80,4,2,1,60,0,0
6496,-80,4,2,2,60,0,0
6904,-80,4,2,1,60,0,0
9761,-76.9230769230769,4,2,2,70,0,0
10169,-76.9230769230769,4,2,1,70,0,0
22822,-90.9090909090909,4,2,1,55,0,0
32618,-90.9090909090909,4,2,4,55,0,0
34047,-90.9090909090909,4,2,2,55,0,0
34251,-90.9090909090909,4,2,1,60,0,0
34863,-90.9090909090909,4,2,2,60,0,0
34965,-90.9090909090909,4,2,1,60,0,0
35475,-90.9090909090909,4,2,2,60,0,0
35679,-90.9090909090909,4,2,1,55,0,0
42414,-83.3333333333333,4,2,2,55,0,0
42822,-83.3333333333333,4,2,1,55,0,0
45679,-83.3333333333333,4,2,4,50,0,0
46088,-83.3333333333333,4,2,4,60,0,0
47108,-83.3333333333333,4,2,2,60,0,0
47516,-83.3333333333333,4,2,1,60,0,0
47720,-83.3333333333333,4,2,1,65,0,0
48128,-83.3333333333333,4,2,1,70,0,0
48945,-83.3333333333333,4,2,2,65,0,0
49353,-83.3333333333333,4,2,1,65,0,0
58741,-83.3333333333333,4,2,2,65,0,0
58945,-83.3333333333333,4,2,1,65,0,0
59353,-83.3333333333333,4,2,2,65,0,0
59761,-83.3333333333333,4,2,1,65,0,0
60169,-83.3333333333333,4,2,2,65,0,0
60577,-83.3333333333333,4,2,1,65,0,0
60986,-83.3333333333333,4,2,2,65,0,0
61394,-83.3333333333333,4,2,1,65,0,0
64251,-83.3333333333333,4,2,2,65,0,0
64455,-83.3333333333333,4,2,1,65,0,0
65271,-83.3333333333333,4,2,2,80,0,1
65475,-74.0740740740741,4,2,1,80,0,1
71802,-74.0740740740741,4,2,2,80,0,1
72210,-74.0740740740741,4,2,1,80,0,1
75475,-74.0740740740741,4,2,4,80,0,1
77108,-74.0740740740741,4,2,1,80,0,1
78230,-74.0740740740741,4,2,1,80,0,0
78333,-74.0740740740741,4,2,1,80,0,1
84863,-74.0740740740741,4,2,2,80,0,1
85271,-74.0740740740741,4,2,1,80,0,1
88026,-74.0740740740741,4,2,1,80,0,0
88128,-74.0740740740741,4,2,1,80,0,1
93026,-80,4,2,2,80,0,0
93230,-80,4,2,2,65,0,0
93435,-80,4,2,1,65,0,0
106088,-125,4,2,1,45,0,0
117924,-125,4,2,1,5,0,0

[Colours]
Combo1 : 233,222,150
Combo2 : 135,188,248
Combo3 : 255,255,36
Combo4 : 255,155,106

[HitObjects]
12,164,3026,6,0,L|50:134,1,35,2|2,2:0|2:0,2:0:0:0:
180,46,3231,6,0,L|189:155,1,87.5,6|0,3:2|2:0,2:0:0:0:
320,76,3639,2,0,L|259:167,1,87.5,0|0,1:0|2:0,2:0:0:0:
405,214,4047,2,0,L|296:228,1,87.5,2|0,1:2|3:0,2:0:0:0:
149,208,4455,1,0,1:0:0:0:
302,311,4659,6,0,L|380:348,1,87.5,2|2,3:2|1:0,2:0:0:0:
318,225,5067,2,0,L|401:198,1,87.5,2|0,2:0|1:0,2:0:0:0:
221,354,5475,1,2,2:0:0:0:
149,208,5679,1,0,1:0:0:0:
123,309,5884,1,0,3:0:0:0:
69,148,6088,1,2,1:2:0:0:
43,249,6293,1,2,3:2:0:0:
95,47,6496,6,0,L|204:61,1,87.5,4|0,3:2|2:0,2:0:0:0:
337,126,6904,2,0,L|228:140,1,87.5,0|0,1:0|2:0,2:0:0:0:
445,38,7312,1,0,1:0:0:0:
337,126,7516,1,2,3:2:0:0:
438,234,7720,1,0,1:0:0:0:
372,353,7924,6,0,L|282:340,1,87.5,2|2,3:2|1:0,2:0:0:0:
173,261,8333,2,0,L|263:248,1,87.5,2|0,2:0|1:0,2:0:0:0:
387,183,8741,1,2,2:0:0:0:
208,111,8945,1,10,2:0:0:0:
169,131,9047,1,10,2:0:0:0:
141,165,9149,1,10,2:0:0:0:
128,206,9251,1,10,2:0:0:0:
130,253,9353,2,0,L|184:264,1,43.75,10|10,2:0|2:0,2:0:0:0:
337,331,9557,2,0,L|283:342,1,43.75,10|10,2:0|2:0,2:0:0:0:
308,145,9761,6,0,L|331:49,1,90.9999958343508,6|0,3:2|2:0,2:0:0:0:
393,188,10169,2,0,L|477:136,1,90.9999958343508,2|0,1:2|2:0,2:0:0:0:
308,247,10577,1,2,3:2:0:0:
208,111,10782,1,2,2:0:0:0:
108,247,10986,1,2,1:2:0:0:
208,111,11190,6,0,L|215:-1,1,90.9999958343508,2|2,2:0|3:2,2:0:0:0:
136,162,11598,2,0,L|58:81,1,90.9999958343508,2|2,2:0|1:2,2:0:0:0:
294,166,12006,1,2,2:0:0:0:
294,166,12108,1,2,2:1:0:0:
294,166,12210,1,2,3:2:0:0:
347,35,12414,1,2,2:0:0:0:
423,219,12618,1,2,1:2:0:0:
478,90,12822,1,2,2:0:0:0:
322,271,13026,6,0,P|291:305|233:328,1,90.9999958343508,2|0,3:2|2:0,2:0:0:0:
56,249,13435,2,0,P|87:215|145:192,1,90.9999958343508,2|0,1:2|2:0,2:0:0:0:
251,324,13843,1,2,3:2:0:0:
299,158,14047,1,2,2:0:0:0:
251,324,14251,1,0,1:0:0:0:
127,196,14455,6,0,P|118:148|136:92,1,90.9999958343508,2|2,2:0|3:2,2:0:0:0:
56,249,14863,2,0,P|19:216|0:161,1,90.9999958343508,2|2,2:0|1:2,2:0:0:0:
211,216,15271,2,0,P|244:180|374:162,1,181.999991668702,2|2,2:0|2:0,2:0:0:0:
391,182,15782,5,2,2:1:0:0:
421,190,15884,1,2,1:0:0:0:
464,178,15986,1,2,2:1:0:0:
501,118,16088,1,2,1:0:0:0:
471,54,16190,1,2,2:1:0:0:
387,17,16292,6,0,L|293:33,1,90.9999958343508,6|0,3:2|2:0,2:0:0:0:
153,85,16700,2,0,L|247:101,1,90.9999958343508,2|0,1:2|2:0,2:0:0:0:
9,16,17108,1,2,3:2:0:0:
153,85,17312,1,2,2:0:0:0:
9,171,17516,1,2,1:2:0:0:
153,85,17720,6,0,P|170:129|167:187,1,90.9999958343508,2|2,2:0|3:2,2:0:0:0:
280,274,18128,2,0,P|280:228|297:186,1,90.9999958343508,2|0,2:0|1:0,2:0:0:0:
159,367,18537,1,2,2:0:0:0:
159,367,18639,1,2,2:1:0:0:
159,367,18741,1,2,3:2:0:0:
66,245,18945,1,2,2:0:0:0:
188,153,19149,1,0,1:0:0:0:
280,274,19353,1,0,2:0:0:0:
66,245,19557,6,0,L|51:145,1,90.9999958343508,4|0,3:2|2:0,2:0:0:0:
201,63,19965,2,0,L|186:163,1,90.9999958343508,0|0,1:0|2:0,2:0:0:0:
339,223,20373,2,0,L|324:123,1,90.9999958343508,2|2,3:2|2:0,2:0:0:0:
466,17,20782,2,0,L|451:117,1,90.9999958343508,0|0,1:0|2:0,2:0:0:0:
446,148,21088,1,2,2:1:0:0:
446,148,21190,5,2,3:2:0:0:
327,28,21394,1,2,2:0:0:0:
207,147,21598,1,2,1:2:0:0:
326,267,21802,2,0,L|317:363,1,90.9999958343508,2|2,2:0|3:2,2:0:0:0:
212,192,22210,2,0,L|203:123,1,45.4999979171754,0|0,1:0|1:0,2:0:0:0:
201,110,22414,1,2,3:2:0:0:
132,293,22618,1,0,1:0:0:0:
13,76,22822,6,0,P|52:67|95:77,1,77.0000023498536,4|0,3:2|2:0,2:0:0:0:
201,110,23230,2,0,L|278:106,1,77.0000023498536,0|0,1:0|2:0,2:0:0:0:
316,102,23537,1,0,2:0:0:0:
354,104,23639,2,0,P|369:137|368:193,1,77.0000023498536,2|0,3:1|2:0,2:0:0:0:
287,290,24047,1,0,1:0:0:0:
287,290,24251,6,0,P|352:262|432:292,1,154.000004699707,2|2,2:1|2:1,2:0:0:0:
512,374,24863,1,0,1:0:0:0:
427,287,25067,2,0,L|434:100,1,154.000004699707,2|2,2:1|2:0,2:0:0:0:
416,0,25679,1,0,1:0:0:0:
351,66,25884,1,0,2:0:0:0:
286,132,26088,6,0,L|208:125,1,77.0000023498536,0|0,3:0|2:0,2:0:0:0:
102,36,26496,2,0,P|90:75|100:118,1,77.0000023498536,2|0,1:0|2:0,2:0:0:0:
118,141,26802,1,0,2:0:0:0:
139,177,26904,2,0,P|144:214|133:250,1,77.0000023498536,0|2,3:0|2:1,2:0:0:0:
46,327,27312,1,0,1:0:0:0:
166,341,27516,6,0,L|259:353,1,77.0000023498536,2|0,2:1|3:0,2:0:0:0:
133,252,27924,2,0,L|213:213,1,77.0000023498536,2|0,2:1|1:0,2:0:0:0:
371,155,28333,1,2,2:1:0:0:
318,270,28537,1,0,3:0:0:0:
202,218,28741,1,0,2:0:0:0:
257,103,28945,1,0,1:0:0:0:
318,270,29149,1,0,1:0:0:0:
349,82,29353,6,0,L|434:71,1,77.0000023498536,6|0,3:2|2:0,2:0:0:0:
512,158,29761,1,0,1:0:0:0:
393,194,29965,1,2,2:1:0:0:
426,73,30169,1,0,3:0:0:0:
473,237,30373,2,0,L|488:318,1,77.0000023498536,2|0,2:1|1:0,2:0:0:0:
380,350,30782,6,0,P|330:307|230:308,1,154.000004699707,2|0,2:1|2:0,2:0:0:0:
149,373,31394,2,0,L|135:292,1,77.0000023498536,2|0,1:0|2:0,2:0:0:0:
87,201,31802,1,0,3:0:0:0:
147,110,32006,1,0,2:0:0:0:
302,212,32210,1,0,1:0:0:0:
253,116,32414,1,0,2:0:0:0:
243,302,32618,5,2,3:1:0:0:
147,110,33026,1,2,3:1:0:0:
339,14,33435,1,2,3:1:0:0:
435,206,33843,1,2,3:1:0:0:
296,157,34047,6,0,L|283:62,1,77.0000023498536,6|0,1:2|3:0,2:0:0:0:
164,0,34455,1,0,1:0:0:0:
157,37,34557,1,0,2:0:0:0:
150,75,34659,1,0,3:0:0:0:
283,233,34863,1,4,1:2:0:0:
289,195,34965,1,0,1:0:0:0:
296,157,35067,1,0,3:0:0:0:
131,215,35271,1,0,1:0:0:0:
169,208,35373,1,0,1:0:0:0:
207,202,35475,1,4,3:2:0:0:
63,122,35679,1,0,1:0:0:0:
57,160,35781,1,0,1:0:0:0:
50,198,35884,6,0,L|37:300,1,77.0000023498536,2|0,3:1|2:0,2:0:0:0:
128,366,36292,2,0,P|168:373|216:361,1,77.0000023498536,2|0,1:1|2:0,2:0:0:0:
238,341,36598,1,0,2:0:0:0:
272,324,36700,2,0,L|363:330,1,77.0000023498536,2|0,3:1|2:0,2:0:0:0:
456,339,37108,1,0,1:0:0:0:
367,234,37312,6,0,P|299:211|215:258,1,154.000004699707,2|2,2:1|2:1,2:0:0:0:
203,366,37924,1,0,1:0:0:0:
93,319,38128,2,0,L|87:228,1,77.0000023498536,2|0,0:0|3:0,2:0:0:0:
44,148,38537,1,2,2:1:0:0:
211,128,38741,1,2,1:0:0:0:
120,77,38945,1,2,2:1:0:0:
190,231,39149,6,0,L|294:239,1,77.0000023498536,2|0,3:2|2:0,2:0:0:0:
370,298,39557,2,0,P|383:257|374:219,1,77.0000023498536,0|2,1:0|2:1,2:0:0:0:
351,195,39863,1,0,2:0:0:0:
333,160,39965,2,0,L|339:54,1,77.0000023498536,0|2,3:0|2:1,2:0:0:0:
425,0,40373,1,0,1:0:0:0:
512,108,40577,6,0,P|473:118|424:102,1,77.0000023498536,2|0,2:1|3:0,2:0:0:0:
258,162,40986,2,0,P|297:152|346:168,1,77.0000023498536,2|0,2:1|1:0,2:0:0:0:
285,275,41394,1,2,2:1:0:0:
333,160,41598,1,0,3:0:0:0:
446,209,41802,1,0,2:0:0:0:
398,323,42006,1,0,1:0:0:0:
333,160,42210,1,0,1:0:0:0:
159,280,42414,6,0,L|64:291,1,83.9999974365235,4|0,3:2|2:0,2:0:0:0:
189,135,42822,1,0,1:0:0:0:
304,305,43026,1,2,2:1:0:0:
159,280,43230,1,0,3:0:0:0:
333,160,43435,2,0,P|376:151|437:176,1,83.9999974365235,2|0,2:1|1:0,2:0:0:0:
324,39,43843,1,2,2:1:0:0:
324,39,43945,1,2,2:0:0:0:
324,39,44047,6,0,P|235:17|158:42,1,167.999994873047,0|0,3:0|1:0,2:0:0:0:
64,129,44659,2,0,P|53:87|64:34,1,83.9999974365235,2|0,2:1|3:0,2:0:0:0:
158,184,45067,2,0,P|168:225|157:278,1,83.9999974365235,2|2,2:1|1:0,2:0:0:0:
76,334,45475,1,0,2:0:0:0:
64,129,45679,5,6,3:1:0:0:
256,352,46088,1,2,1:0:0:0:
448,129,46496,1,2,3:1:0:0:
352,240,46700,2,0,L|361:328,1,83.9999974365235,2|0,2:1|1:0,2:0:0:0:
223,122,47108,6,0,L|214:34,1,83.9999974365235,6|0,3:2|2:0,2:0:0:0:
159,279,47516,1,2,3:2:0:0:
99,108,47720,1,2,3:2:0:0:
42,284,47924,1,2,3:2:0:0:
223,122,48128,1,2,2:0:0:0:
248,107,48230,1,0,1:0:0:0:
276,100,48332,1,0,1:0:0:0:
306,102,48434,1,0,1:0:0:0:
333,112,48537,2,0,L|347:159,1,41.9999987182618,2|0,3:2|2:0,2:0:0:0:
447,256,48741,2,0,L|460:209,1,41.9999987182618,0|0,1:0|1:0,2:0:0:0:
364,336,48945,6,0,P|318:306|198:323,1,167.999994873047,12|8,3:2|2:0,2:0:0:0:
55,373,49557,1,2,2:1:0:0:
99,204,49761,2,0,L|119:310,1,83.9999974365235,10|0,2:0|3:0,2:0:0:0:
3,199,50169,1,8,2:0:0:0:
86,88,50373,1,2,2:1:0:0:
195,209,50577,6,0,L|301:189,1,83.9999974365235,8|0,2:0|2:0,2:0:0:0:
422,104,50986,2,0,L|316:84,1,83.9999974365235,8|0,2:0|2:0,2:0:0:0:
422,234,51394,2,0,L|528:214,1,83.9999974365235,8|2,2:0|3:2,2:0:0:0:
336,263,51802,1,8,2:0:0:0:
422,104,52006,1,2,3:1:0:0:
476,347,52210,6,0,P|434:354|394:343,1,83.9999974365235,8|0,2:0|2:0,2:0:0:0:
254,267,52618,2,0,P|295:274|335:263,1,83.9999974365235,8|0,2:0|2:0,2:0:0:0:
504,218,53026,2,0,P|462:225|422:214,1,83.9999974365235,8|0,2:0|3:0,2:0:0:0:
337,85,53435,1,8,2:0:0:0:
335,262,53639,1,2,3:1:0:0:
225,98,53843,6,0,L|123:112,1,83.9999974365235,8|0,2:0|2:0,2:0:0:0:
255,261,54251,2,0,L|241:159,1,83.9999974365235,8|2,2:0|2:1,2:0:0:0:
92,291,54659,2,0,L|194:277,1,83.9999974365235,8|2,2:0|3:1,2:0:0:0:
74,152,55067,1,8,2:0:0:0:
175,279,55271,1,0,3:0:0:0:
118,35,55475,6,0,B|178:7|178:7|294:22,1,167.999994873047,12|8,3:2|2:0,2:0:0:0:
418,18,56088,1,0,2:0:0:0:
351,141,56292,2,0,L|344:247,1,83.9999974365235,8|0,2:0|3:0,2:0:0:0:
342,369,56700,1,8,2:0:0:0:
465,252,56904,6,0,B|472:179|472:179|418:87,1,167.999994873047,6|0,3:2|2:0,2:0:0:0:
278,20,57516,1,8,2:0:0:0:
225,131,57720,1,8,2:0:0:0:
219,172,57822,1,8,2:0:0:0:
214,214,57924,1,8,2:0:0:0:
209,378,58128,1,2,3:0:0:0:
96,288,58333,1,2,1:0:0:0:
293,299,58537,1,8,2:0:0:0:
334,305,58639,1,8,2:0:0:0:
376,310,58741,1,4,3:2:0:0:
512,153,58945,5,2,2:3:0:0:
495,355,59149,1,8,2:0:0:0:
368,167,59353,1,4,3:2:0:0:
23,377,59761,5,2,3:0:0:0:
77,141,59965,1,8,2:0:0:0:
248,322,60169,1,4,3:2:0:0:
493,27,60577,5,2,3:0:0:0:
367,246,60782,1,8,2:0:0:0:
192,10,60986,2,0,L|173:94,1,83.9999974365235,4|0,3:2|2:0,2:0:0:0:
238,236,61394,2,0,L|257:152,1,83.9999974365235,2|0,2:1|1:0,2:0:0:0:
328,56,61802,1,0,1:0:0:0:
328,56,62006,6,0,P|371:45|422:60,1,83.9999974365235,0|0,3:0|2:0,2:0:0:0:
492,162,62414,2,0,P|449:151|398:166,1,83.9999974365235,0|0,3:0|2:0,2:0:0:0:
312,259,62822,2,0,P|355:248|406:263,1,83.9999974365235,0|0,3:0|2:0,2:0:0:0:
463,370,63230,1,0,3:0:0:0:
312,259,63435,6,0,B|237:239|237:239|135:282,1,167.999994873047,6|2,3:2|3:1,2:0:0:0:
0,355,64047,1,2,3:1:0:0:
61,183,64251,2,0,L|51:299,1,83.9999974365235,6|0,1:2|3:0,2:0:0:0:
5,62,64659,1,2,1:0:0:0:
168,149,64863,1,0,1:0:0:0:
209,157,64965,1,0,1:0:0:0:
250,166,65067,2,0,L|314:154,1,41.9999987182618,0|0,1:0|1:0,2:0:0:0:
469,118,65271,5,6,3:2:0:0:
416,333,65475,2,0,L|392:205,1,94.5000003604889,2|0,2:0|1:0,2:0:0:0:
324,48,65884,1,2,2:0:0:0:
282,272,66088,1,2,3:2:0:0:
163,25,66292,2,0,L|145:117,1,94.5000003604889,2|0,2:0|1:0,2:0:0:0:
55,292,66700,6,0,P|91:242|218:224,1,189.000000720978,2|0,2:0|2:0,2:0:0:0:
341,331,67312,1,0,1:0:0:0:
326,163,67516,2,0,L|334:42,1,94.5000003604889,2|0,2:0|3:0,2:0:0:0:
431,200,67924,1,0,2:0:0:0:
229,129,68128,1,2,1:0:0:0:
341,331,68333,1,2,2:1:0:0:
341,331,68435,1,2,2:1:0:0:
341,331,68537,6,0,L|240:340,1,94.5000003604889,0|0,3:0|2:0,2:0:0:0:
168,184,68945,2,0,L|176:278,1,94.5000003604889,2|0,1:2|2:0,2:0:0:0:
34,361,69353,2,0,L|128:352,1,94.5000003604889,2|0,3:2|2:0,2:0:0:0:
168,184,69761,1,0,1:0:0:0:
341,331,69965,6,0,P|350:276|476:228,1,189.000000720978,2|2,2:0|2:0,2:0:0:0:
512,335,70577,1,2,1:2:0:0:
417,145,70782,2,0,P|374:154|316:194,1,94.5000003604889,0|0,2:0|3:0,2:0:0:0:
341,331,71190,1,0,2:0:0:0:
194,204,71394,1,2,1:3:0:0:
350,355,71598,1,0,1:0:0:0:
125,282,71802,6,0,L|27:272,1,94.5000003604889,4|0,3:2|2:0,2:0:0:0:
89,380,72210,1,0,1:0:0:0:
85,187,72414,2,0,L|282:172,1,189.000000720978,2|2,2:0|2:0,2:0:0:0:
316,175,72924,1,2,2:1:0:0:
316,175,73026,1,0,1:0:0:0:
152,99,73230,1,0,2:0:0:0:
188,275,73435,5,2,3:1:0:0:
261,93,73639,1,0,2:0:0:0:
186,295,73843,1,2,1:2:0:0:
57,121,74047,2,0,P|60:72|181:2,1,189.000000720978,2|2,2:0|2:0,2:0:0:0:
261,93,74659,1,0,1:0:0:0:
416,9,74863,1,0,2:0:0:0:
416,9,74965,1,2,2:1:0:0:
416,9,75067,6,0,L|409:113,1,94.5000003604889,0|0,3:0|2:0,2:0:0:0:
416,307,75475,2,0,P|371:293|315:308,1,94.5000003604889,2|0,1:0|2:0,2:0:0:0:
117,169,75884,2,0,P|162:183|218:168,1,94.5000003604889,2|0,3:1|2:0,2:0:0:0:
316,22,76292,1,2,1:0:0:0:
326,303,76496,6,0,P|270:335|138:308,1,189.000000720978,2|0,1:0|2:0,2:0:0:0:
37,164,77108,1,0,1:0:0:0:
27,362,77312,1,0,2:0:0:0:
143,186,77516,5,0,3:0:0:0:
182,159,77618,1,0,1:0:0:0:
227,149,77720,1,0,1:0:0:0:
274,155,77822,1,0,1:0:0:0:
315,178,77924,2,0,L|340:231,1,47.2500001802444,0|0,1:0|1:0,2:0:0:0:
432,362,78128,2,0,L|456:308,1,47.2500001802444,0|0,1:0|1:0,2:0:0:0:
512,189,78333,5,6,3:2:0:0:
315,178,78537,2,0,L|295:79,1,94.5000003604889,2|2,2:0|1:2,2:0:0:0:
236,259,78945,1,0,2:0:0:0:
200,26,79149,1,2,3:2:0:0:
113,212,79353,2,0,L|131:304,1,94.5000003604889,2|0,2:0|1:0,2:0:0:0:
401,294,79761,6,0,P|366:258|216:274,1,189.000000720978,2|2,2:0|2:0,2:0:0:0:
131,304,80373,1,0,1:0:0:0:
273,163,80577,2,0,P|318:160|379:178,1,94.5000003604889,2|0,2:0|3:0,2:0:0:0:
495,261,80986,1,2,2:1:0:0:
495,261,81088,1,2,2:1:0:0:
495,261,81190,1,0,1:0:0:0:
441,92,81394,1,2,2:1:0:0:
441,92,81496,1,2,2:1:0:0:
441,92,81598,6,0,L|342:79,1,94.5000003604889,2|0,3:0|2:0,2:0:0:0:
208,183,82006,2,0,L|307:170,1,94.5000003604889,2|0,1:2|2:0,2:0:0:0:
167,269,82414,2,0,L|68:256,1,94.5000003604889,2|0,3:2|2:0,2:0:0:0:
289,304,82822,1,0,1:0:0:0:
191,81,83026,6,0,L|166:268,1,189.000000720978,2|0,2:0|2:0,2:0:0:0:
301,170,83639,2,0,L|314:71,1,94.5000003604889,2|0,1:0|2:3,2:0:0:0:
400,216,84047,1,0,3:0:0:0:
457,91,84251,1,2,2:3:0:0:
457,311,84455,1,0,1:3:0:0:
512,186,84659,1,0,1:3:0:0:
346,314,84863,6,0,P|298:326|241:312,1,94.5000003604889,6|0,3:2|2:0,2:0:0:0:
124,196,85271,2,0,P|172:208|229:194,1,94.5000003604889,2|0,1:2|2:0,2:0:0:0:
373,83,85679,2,0,P|325:95|268:81,1,94.5000003604889,2|0,3:2|2:0,2:0:0:0:
138,0,86088,1,2,1:2:0:0:
42,134,86292,1,2,2:0:0:0:
42,134,86394,1,2,2:1:0:0:
42,134,86496,6,0,L|33:249,1,94.5000003604889,0|0,3:0|2:0,2:0:0:0:
16,366,86904,1,2,1:0:0:0:
153,298,87108,2,0,L|268:289,1,94.5000003604889,2|0,2:0|3:0,2:0:0:0:
439,269,87516,1,0,3:0:0:0:
226,98,87720,1,2,3:1:0:0:
418,77,87924,1,0,3:0:0:0:
247,290,88128,6,0,L|256:405,1,94.5000003604889,4|0,3:2|2:0,2:0:0:0:
343,134,88537,2,0,L|334:249,1,94.5000003604889,10|0,2:0|2:0,2:0:0:0:
218,3,88945,2,0,L|227:118,1,94.5000003604889,10|0,2:0|3:0,2:0:0:0:
247,290,89353,1,10,2:0:0:0:
117,160,89557,1,2,2:0:0:0:
296,137,89761,6,0,P|342:130|387:143,1,94.5000003604889,4|0,1:2|2:0,2:0:0:0:
247,290,90169,2,0,P|291:303|338:296,1,94.5000003604889,10|2,2:0|2:0,2:0:0:0:
73,165,90577,2,0,P|119:158|164:171,1,94.5000003604889,8|2,2:0|3:2,2:0:0:0:
247,290,90986,1,8,2:0:0:0:
211,94,91190,1,0,3:0:0:0:
29,340,91394,6,0,L|21:234,1,94.5000003604889,4|8,3:2|2:0,2:0:0:0:
31,59,91802,1,2,3:2:0:0:
164,171,92006,1,8,2:0:0:0:
205,186,92108,1,8,2:0:0:0:
251,172,92210,1,2,3:2:0:0:
408,45,92414,5,8,2:0:0:0:
428,57,92516,1,8,2:0:0:0:
455,84,92618,1,8,2:0:0:0:
475,130,92720,1,8,2:0:0:0:
472,190,92822,1,8,2:0:0:0:
438,251,92924,1,8,2:0:0:0:
364,280,93026,6,0,L|264:295,1,87.5,4|0,3:2|2:0,2:0:0:0:
109,334,93435,2,0,L|209:349,1,87.5,2|0,1:2|2:0,2:0:0:0:
40,212,93843,1,2,3:2:0:0:
109,334,94047,1,2,2:0:0:0:
185,151,94251,1,2,1:2:0:0:
277,292,94455,6,0,P|320:296|378:281,1,87.5,2|2,2:0|3:2,2:0:0:0:
185,151,94863,2,0,P|142:155|84:140,1,87.5,2|2,2:0|1:2,2:0:0:0:
291,52,95271,1,2,2:0:0:0:
291,52,95373,1,2,2:1:0:0:
291,52,95475,1,2,3:2:0:0:
390,158,95679,1,2,2:0:0:0:
284,257,95884,1,2,1:2:0:0:
185,151,96088,1,2,2:0:0:0:
371,74,96292,6,0,L|490:82,1,87.5,2|0,3:2|2:0,2:0:0:0:
371,251,96700,2,0,L|252:259,1,87.5,2|0,1:2|2:0,2:0:0:0:
103,310,97108,1,2,3:2:0:0:
185,151,97312,1,2,2:0:0:0:
202,318,97516,1,0,1:0:0:0:
185,151,97720,6,0,L|193:32,1,87.5,2|2,2:0|3:2,2:0:0:0:
107,185,98128,2,0,L|48:80,1,87.5,2|2,2:0|1:2,2:0:0:0:
254,192,98537,1,2,2:0:0:0:
279,43,98741,5,2,3:2:0:0:
295,32,98843,1,2,2:0:0:0:
341,16,98945,1,2,2:0:0:0:
396,27,99047,1,2,2:0:0:0:
447,78,99149,2,2,L|438:129,1,43.75,2|2,1:0|2:0,2:0:0:0:
373,260,99353,2,2,L|364:209,1,43.75,2|2,1:0|1:0,2:0:0:0:
269,48,99557,6,0,P|226:39|168:49,1,87.5,4|0,3:2|2:0,2:0:0:0:
149,71,99863,1,0,2:0:0:0:
128,109,99965,2,0,L|119:220,1,87.5,2|0,1:2|2:0,2:0:0:0:
126,367,100373,1,2,3:2:0:0:
120,196,100577,1,2,2:0:0:0:
265,276,100782,1,2,1:2:0:0:
109,282,100986,6,0,L|7:265,1,87.5,2|2,2:0|3:2,2:0:0:0:
313,269,101394,2,0,L|226:283,1,87.5,2|0,2:0|1:0,2:0:0:0:
426,353,101802,1,2,2:0:0:0:
426,353,101904,1,2,2:1:0:0:
426,353,102006,1,2,3:2:0:0:
313,269,102210,1,2,2:0:0:0:
397,156,102414,1,0,1:0:0:0:
510,240,102618,1,2,2:0:0:0:
411,254,102822,6,0,P|395:211|401:149,1,87.5,4|0,3:2|2:0,2:0:0:0:
256,52,103230,2,0,P|255:95|240:136,1,87.5,2|0,1:0|2:0,2:0:0:0:
209,168,103537,1,2,2:1:0:0:
168,183,103639,2,0,L|64:171,1,87.5,2|0,3:2|2:0,2:0:0:0:
2,50,104047,1,2,1:2:0:0:
12,225,104251,6,0,L|24:329,1,87.5,2|0,2:0|3:0,2:0:0:0:
168,183,104659,2,0,L|157:269,1,87.5,2|0,2:0|1:0,2:0:0:0:
253,79,105067,1,2,2:0:0:0:
256,283,105271,5,2,3:0:0:0:
276,291,105373,1,2,2:0:0:0:
307,298,105475,1,2,2:0:0:0:
352,297,105577,1,2,2:0:0:0:
411,257,105679,2,0,L|420:207,1,43.75,2|2,1:0|2:0,2:0:0:0:
497,126,105884,2,0,L|504:169,1,43.75,2|2,1:0|2:0,2:0:0:0:
430,48,106088,6,0,B|379:30|379:30|308:49,1,112,6|0,3:2|3:0,2:0:0:0:
222,31,106700,2,0,L|214:2,2,28,2|0|0,2:1|2:0|3:0,2:0:0:0:
262,125,107108,1,2,2:1:0:0:
162,90,107312,1,0,3:0:0:0:
199,191,107516,6,0,L|195:267,1,56,2|0,2:1|3:0,2:0:0:0:
170,347,107924,1,2,2:1:0:0:
104,257,108128,2,0,L|108:181,1,56,2|2,3:1|2:1,2:0:0:0:
162,90,108537,1,2,3:1:0:0:
179,68,108741,1,2,2:1:0:0:
94,20,108945,1,2,3:1:0:0:
77,42,109149,1,2,2:1:0:0:
10,141,109353,6,0,P|7:175|16:207,1,56,2|2,3:1|2:1,2:0:0:0:
46,291,109761,1,0,3:0:0:0:
67,308,109965,1,2,2:1:0:0:
138,245,110169,1,0,3:0:0:0:
117,228,110373,1,2,2:1:0:0:
167,335,110577,1,0,3:0:0:0:
96,209,110782,6,0,L|105:136,1,56,2|0,2:1|3:0,2:0:0:0:
121,53,111190,1,2,2:1:0:0:
187,131,111394,2,0,L|260:122,1,56,0|2,3:0|2:1,2:0:0:0:
286,118,111700,1,0,2:0:0:0:
286,118,111802,2,0,L|297:77,3,28,2|0|0|0,3:0|0:0|0:0|2:3,2:0:0:0:
231,203,112210,1,2,3:0:0:0:
225,221,112312,1,0,0:0:0:0:
222,241,112414,1,0,0:0:0:0:
224,260,112516,1,0,0:0:0:0:
230,281,112618,6,0,L|306:288,1,56,2|2,3:0|2:1,2:0:0:0:
379,301,113026,1,0,3:0:0:0:
337,219,113230,1,2,2:1:0:0:
429,230,113435,2,0,L|432:148,1,56,0|2,3:0|2:1,2:0:0:0:
411,84,113843,1,0,3:0:0:0:
334,163,114047,6,0,L|336:218,1,56,2|0,2:1|3:0,2:0:0:0:
321,353,114455,1,2,2:1:0:0:
230,281,114659,2,0,L|227:225,1,56,0|2,3:0|2:1,2:0:0:0:
269,114,115067,1,0,3:0:0:0:
260,87,115271,1,2,2:1:0:0:
209,178,115475,1,0,3:0:0:0:
218,205,115679,1,2,2:1:0:0:
244,63,115884,6,0,L|174:57,1,56,0|2,3:0|2:1,2:0:0:0:
96,22,116292,1,0,3:0:0:0:
84,47,116496,1,2,2:1:0:0:
124,159,116700,1,0,3:0:0:0:
136,134,116904,1,2,2:1:0:0:
70,71,117108,1,0,3:0:0:0:
112,184,117312,6,0,B|127:198|127:198|137:178|137:178|156:199|156:199|173:167|196:216|219:179|265:194,1,168,2|0,3:2|2:0,2:0:0:0:
