osu file format v14

[General]
AudioFilename: audio.mp3
AudioLeadIn: 0
PreviewTime: 65067
Countdown: 0
SampleSet: Soft
StackLeniency: 0.4
Mode: 0
LetterboxInBreaks: 0
WidescreenStoryboard: 1

[Editor]
Bookmarks: 25067,38333
DistanceSpacing: 1
BeatDivisor: 4
GridSize: 8
TimelineZoom: 1

[Metadata]
Title:Floating up
TitleUnicode:Floating up
Artist:KOTOKO
ArtistUnicode:KOTOKO
Creator:tomatas95
Version:Light Insane
Source:カルマルカ*サークル
Tags:opening op vn galgame freesongs eroge visual novel saga planets karumaruka circle japanese short version ver video game pop
BeatmapID:2477613
BeatmapSetID:1185397

[Difficulty]
HPDrainRate:5
CircleSize:3.7
OverallDifficulty:7
ApproachRate:8
SliderMultiplier:1.5
SliderTickRate:1

[Events]
//Background and Video events
0,0,"SECONDBESTBGPOG.jpg",0,0
Video,-366,"Natsu.avi"
//Break Periods
//Storyboard Layer 0 (Background)
//Storyboard Layer 1 (Fail)
//Storyboard Layer 2 (Pass)
//Storyboard Layer 3 (Foreground)
//Storyboard Layer 4 (Overlay)
//Storyboard Sound Samples

[TimingPoints]
3231,408.163265306122,4,2,1,60,1,0
3231,-90.9090909090909,4,2,1,60,0,0
6496,-90.9090909090909,4,2,2,60,0,0
6904,-90.9090909090909,4,2,1,60,0,0
9761,-83.3333333333333,4,2,2,70,0,0
10169,-83.3333333333333,4,2,1,70,0,0
22822,-100,4,2,1,55,0,0
32618,-100,4,2,4,55,0,0
34047,-100,4,2,2,55,0,0
34251,-100,4,2,1,60,0,0
34863,-100,4,2,2,60,0,0
34965,-100,4,2,1,60,0,0
35475,-100,4,2,2,60,0,0
35679,-100,4,2,1,55,0,0
42414,-100,4,2,2,55,0,0
42822,-100,4,2,1,55,0,0
45679,-100,4,2,4,50,0,0
46088,-100,4,2,4,60,0,0
47108,-100,4,2,2,60,0,0
47516,-100,4,2,1,60,0,0
47720,-100,4,2,1,65,0,0
48128,-100,4,2,1,70,0,0
48945,-83.3333333333333,4,2,2,65,0,0
49353,-83.3333333333333,4,2,1,65,0,0
58741,-83.3333333333333,4,2,2,65,0,0
58945,-83.3333333333333,4,2,1,65,0,0
59353,-83.3333333333333,4,2,2,65,0,0
59761,-83.3333333333333,4,2,1,65,0,0
60169,-83.3333333333333,4,2,2,65,0,0
60577,-83.3333333333333,4,2,1,65,0,0
60986,-83.3333333333333,4,2,2,65,0,0
61394,-83.3333333333333,4,2,1,65,0,0
64251,-83.3333333333333,4,2,2,65,0,0
64455,-83.3333333333333,4,2,1,65,0,0
64659,-83.3333333333333,4,2,1,65,0,0
65271,-83.3333333333333,4,2,2,80,0,1
65475,-76.9230769230769,4,2,1,80,0,1
71802,-76.9230769230769,4,2,2,80,0,1
72210,-76.9230769230769,4,2,1,80,0,1
75475,-76.9230769230769,4,2,4,80,0,1
77108,-76.9230769230769,4,2,1,80,0,1
78230,-76.9230769230769,4,2,1,80,0,0
78333,-76.9230769230769,4,2,1,80,0,1
84863,-76.9230769230769,4,2,2,80,0,1
85271,-76.9230769230769,4,2,1,80,0,1
88026,-76.9230769230769,4,2,1,80,0,0
88128,-76.9230769230769,4,2,1,80,0,1
93026,-83.3333333333333,4,2,2,80,0,0
93230,-83.3333333333333,4,2,2,65,0,0
93434,-83.3333333333333,4,2,2,65,0,0
93435,-83.3333333333333,4,2,1,65,0,0
106088,-125,4,2,1,45,0,0
117924,-125,4,2,1,5,0,0

[Colours]
Combo1 : 255,220,113
Combo2 : 151,247,128
Combo3 : 117,224,255
Combo4 : 251,113,123

[HitObjects]
187,54,3231,6,0,L|193:156,1,82.5000025177003,6|0,3:2|2:0,2:0:0:0:
290,227,3639,2,0,L|284:125,1,82.5000025177003,0|0,1:0|2:0,2:0:0:0:
274,22,4047,1,2,1:2:0:0:
285,144,4251,1,0,3:0:0:0:
396,11,4455,1,0,1:0:0:0:
407,133,4659,6,0,L|413:235,1,82.5000025177003,2|2,3:2|1:0,2:0:0:0:
506,312,5067,2,0,L|500:210,1,82.5000025177003,2|0,2:0|1:0,2:0:0:0:
419,360,5475,2,0,P|379:367|328:354,1,82.5000025177003,2|0,2:0|1:0,2:0:0:0:
240,281,5884,1,0,3:0:0:0:
338,358,6088,1,2,1:2:0:0:
330,235,6292,1,2,3:2:0:0:
250,372,6496,6,0,L|161:363,1,82.5000025177003,4|0,3:2|2:0,2:0:0:0:
48,281,6904,2,0,L|137:272,1,82.5000025177003,0|0,1:0|2:0,2:0:0:0:
235,188,7312,1,0,1:0:0:0:
130,272,7516,1,2,3:2:0:0:
46,167,7720,1,0,1:0:0:0:
151,83,7924,6,0,P|191:74|251:86,1,82.5000025177003,2|2,3:2|1:0,2:0:0:0:
315,192,8333,2,0,P|275:183|215:195,1,82.5000025177003,2|0,2:0|1:0,2:0:0:0:
130,272,8741,1,2,2:0:0:0:
242,349,8945,2,0,L|281:360,3,41.2500012588501,10|10|10|10,2:0|2:0|2:0|2:0,2:0:0:0:
327,374,9353,1,10,2:0:0:0:
366,363,9455,1,10,2:0:0:0:
397,336,9557,1,10,2:0:0:0:
413,299,9659,1,10,2:0:0:0:
412,258,9761,6,0,L|423:134,1,89.9999972534181,6|0,3:2|2:0,2:0:0:0:
321,281,10169,2,0,L|310:157,1,89.9999972534181,2|0,1:2|2:0,2:0:0:0:
304,64,10577,1,2,3:2:0:0:
313,191,10782,1,2,2:0:0:0:
177,73,10986,1,2,1:2:0:0:
186,200,11190,6,0,P|140:192|91:209,1,89.9999972534181,2|2,2:0|3:2,2:0:0:0:
234,276,11598,2,0,P|280:268|329:285,1,89.9999972534181,2|2,2:0|1:2,2:0:0:0:
198,356,12006,2,0,P|116:334|22:378,1,179.999994506836,2|2,2:0|2:0,2:0:0:0:
0,245,12618,1,2,1:2:0:0:
50,127,12822,1,2,2:0:0:0:
175,74,13026,6,0,L|271:88,1,89.9999972534181,2|0,3:2|2:0,2:0:0:0:
186,200,13435,2,0,L|275:187,1,89.9999972534181,2|0,1:2|2:0,2:0:0:0:
399,148,13843,1,2,3:2:0:0:
275,187,14047,1,2,2:0:0:0:
314,311,14251,1,0,1:0:0:0:
438,272,14455,6,0,L|520:233,1,89.9999972534181,2|2,2:0|3:2,2:0:0:0:
399,148,14863,2,0,L|416:51,1,89.9999972534181,2|2,2:0|1:2,2:0:0:0:
275,187,15271,2,0,L|160:42,1,179.999994506836,2|2,2:0|2:0,2:0:0:0:
44,10,15884,1,2,1:0:0:0:
24,39,15986,1,2,2:1:0:0:
12,73,16088,1,2,1:0:0:0:
10,109,16190,1,2,2:1:0:0:
17,144,16292,6,0,L|24:251,1,89.9999972534181,6|0,3:2|2:0,2:0:0:0:
110,367,16700,2,0,L|115:277,1,89.9999972534181,2|0,1:2|2:0,2:0:0:0:
123,163,17108,1,2,3:2:0:0:
115,277,17312,1,2,2:0:0:0:
237,170,17516,1,2,1:2:0:0:
230,285,17720,6,0,P|276:277|323:293,1,89.9999972534181,2|2,2:0|3:2,2:0:0:0:
461,193,18128,2,0,P|415:185|368:201,1,89.9999972534181,2|0,2:0|1:0,2:0:0:0:
204,73,18537,2,0,P|248:55|372:84,1,179.999994506836,2|2,2:0|2:0,2:0:0:0:
461,193,19149,1,0,1:0:0:0:
498,66,19353,1,0,2:0:0:0:
458,218,19557,6,0,P|439:285|332:328,1,179.999994506836,4|0,3:2|1:0,2:0:0:0:
232,276,20169,1,0,2:0:0:0:
232,276,20373,2,0,L|228:176,1,89.9999972534181,2|2,3:2|2:0,2:0:0:0:
73,177,20782,2,0,L|148:225,1,89.9999972534181,2|2,3:2|2:0,2:0:0:0:
152,92,21190,5,2,3:2:0:0:
229,187,21394,1,2,2:0:0:0:
247,15,21598,1,2,1:2:0:0:
324,110,21802,2,0,L|336:210,1,89.9999972534181,2|2,2:0|3:2,2:0:0:0:
379,361,22210,1,0,1:0:0:0:
379,361,22312,1,0,1:0:0:0:
379,361,22414,1,2,3:2:0:0:
451,240,22618,1,0,1:0:0:0:
290,290,22822,6,0,P|250:299|192:289,1,75,4|0,3:2|2:0,2:0:0:0:
123,235,23230,2,0,L|118:120,1,112.5,0|0,1:0|2:0,2:0:0:0:
120,75,23639,2,0,P|80:67|31:87,1,75,2|0,3:1|2:0,2:0:0:0:
18,186,24047,1,0,1:0:0:0:
18,186,24251,6,0,L|26:350,1,150,2|2,2:1|2:1,2:0:0:0:
123,379,24863,1,0,1:0:0:0:
238,315,25067,2,0,L|249:132,1,150,2|2,2:1|2:0,2:0:0:0:
256,46,25679,1,0,1:0:0:0:
375,55,25884,1,0,2:0:0:0:
363,181,26088,6,0,L|362:263,1,75,0|0,3:0|2:0,2:0:0:0:
303,340,26496,2,0,P|355:361|428:333,1,112.5,2|0,1:0|2:0,2:0:0:0:
447,319,26904,2,0,L|448:237,1,75,0|2,3:0|2:1,2:0:0:0:
459,112,27312,1,0,1:0:0:0:
363,181,27516,6,0,L|272:173,1,75,2|0,2:1|3:0,2:0:0:0:
199,102,27924,2,0,L|290:94,1,75,2|0,2:1|1:0,2:0:0:0:
179,188,28333,2,0,L|12:170,1,150,2|0,2:1|2:0,2:0:0:0:
97,285,28945,1,0,1:0:0:0:
179,188,29149,1,0,1:0:0:0:
231,331,29353,6,0,B|271:318|271:318|312:333|312:333|389:331,1,150,6|0,3:2|1:0,2:0:0:0:
471,282,29965,1,2,2:1:0:0:
471,282,30169,2,0,L|473:190,1,75,0|2,3:0|2:1,2:0:0:0:
473,85,30577,1,0,1:0:0:0:
391,156,30782,6,0,P|324:137|238:168,1,150,2|0,2:1|2:0,2:0:0:0:
162,237,31394,2,0,L|155:136,1,75,2|0,1:0|2:0,2:0:0:0:
60,131,31802,1,0,3:0:0:0:
60,30,32006,1,0,2:0:0:0:
157,0,32210,1,0,1:0:0:0:
217,82,32414,1,0,2:0:0:0:
157,163,32618,5,2,3:1:0:0:
293,347,33026,1,2,3:1:0:0:
477,211,33435,1,2,3:1:0:0:
341,27,33843,1,2,3:1:0:0:
317,187,34047,6,0,L|217:179,1,75,6|0,1:2|3:0,2:0:0:0:
151,132,34455,2,0,L|147:217,1,75,0|0,1:0|3:0,2:0:0:0:
140,333,34863,1,4,1:2:0:0:
140,333,34965,1,0,1:0:0:0:
140,333,35067,1,0,3:0:0:0:
58,235,35271,1,0,1:0:0:0:
58,235,35373,1,0,1:0:0:0:
58,235,35475,1,4,3:2:0:0:
148,129,35679,1,0,1:0:0:0:
148,129,35782,1,0,1:0:0:0:
148,129,35884,6,0,L|151:22,1,75,2|0,3:1|2:0,2:0:0:0:
243,178,36292,2,0,P|286:186|351:162,1,112.5,2|0,1:1|2:0,2:0:0:0:
388,134,36700,2,0,L|392:223,1,75,2|0,3:1|2:0,2:0:0:0:
404,334,37108,1,0,1:0:0:0:
487,240,37312,6,0,P|508:185|485:96,1,150,2|2,2:1|2:1,2:0:0:0:
381,32,37924,1,0,1:0:0:0:
381,32,38128,2,0,L|222:37,1,150,2|2,0:0|2:1,2:0:0:0:
174,137,38741,1,2,1:0:0:0:
231,36,38945,1,2,2:1:0:0:
292,156,39149,6,0,L|288:230,1,75,2|0,3:2|2:0,2:0:0:0:
275,344,39557,2,0,P|224:327|158:356,1,112.5,0|0,1:0|2:0,2:0:0:0:
120,365,39965,2,0,L|114:265,1,75,0|2,3:0|2:1,2:0:0:0:
77,173,40373,1,0,1:0:0:0:
188,246,40577,6,0,L|267:228,1,75,2|0,2:1|3:0,2:0:0:0:
158,171,40986,2,0,L|209:108,1,75,2|0,2:1|1:0,2:0:0:0:
77,173,41394,2,0,L|40:14,1,150,2|0,2:1|2:0,2:0:0:0:
144,3,42006,1,0,1:0:0:0:
205,112,42210,1,0,1:0:0:0:
307,23,42414,6,0,B|337:50|337:50|339:169,1,150,4|0,3:2|1:0,2:0:0:0:
318,301,43026,1,2,2:1:0:0:
419,236,43230,1,0,3:0:0:0:
318,301,43435,2,0,L|213:304,1,75,2|0,2:1|1:0,2:0:0:0:
192,192,43843,1,2,2:1:0:0:
192,192,43945,1,2,2:0:0:0:
192,192,44047,6,0,L|197:101,1,75,0|0,3:0|2:0,2:0:0:0:
152,0,44455,1,0,1:0:0:0:
96,133,44659,2,0,P|85:171|91:216,1,75,2|0,2:1|3:0,2:0:0:0:
183,264,45067,2,0,P|194:226|188:181,1,75,2|2,2:1|1:0,2:0:0:0:
96,133,45475,1,0,2:0:0:0:
227,42,45679,5,6,3:1:0:0:
492,152,46088,1,2,1:0:0:0:
240,276,46496,1,2,3:1:0:0:
321,362,46700,2,0,L|398:348,1,75,2|0,2:1|1:0,2:0:0:0:
512,249,47108,6,0,B|450:224|450:224|365:255,1,150,6|2,3:2|3:2,2:0:0:0:
321,362,47720,1,2,3:2:0:0:
240,276,47924,1,2,3:2:0:0:
162,379,48128,1,2,2:0:0:0:
162,379,48230,1,0,1:0:0:0:
162,379,48333,2,0,L|73:369,1,75,0|2,1:0|3:2,2:0:0:0:
20,243,48741,1,0,1:0:0:0:
20,243,48843,1,0,1:0:0:0:
20,243,48945,6,0,B|19:196|19:196|44:139|44:139|40:59,1,179.999994506836,12|8,3:2|2:0,2:0:0:0:
108,218,49557,1,2,2:1:0:0:
108,218,49761,2,0,L|202:209,1,89.9999972534181,10|0,2:0|3:0,2:0:0:0:
293,126,50169,1,8,2:0:0:0:
299,259,50373,1,2,2:1:0:0:
393,179,50577,6,0,L|405:66,1,89.9999972534181,8|0,2:0|2:0,2:0:0:0:
299,259,50986,2,0,L|287:146,1,89.9999972534181,8|0,2:0|2:0,2:0:0:0:
402,354,51394,2,0,L|414:241,1,89.9999972534181,8|2,2:0|3:2,2:0:0:0:
496,182,51802,1,8,2:0:0:0:
402,89,52006,1,2,3:1:0:0:
402,89,52108,1,0,2:0:0:0:
402,89,52210,6,0,L|280:81,1,89.9999972534181,8|0,2:0|2:0,2:0:0:0:
199,175,52618,2,0,L|321:167,1,89.9999972534181,8|0,2:0|2:0,2:0:0:0:
204,273,53026,2,0,L|82:265,1,89.9999972534181,8|0,2:0|3:0,2:0:0:0:
26,162,53435,1,8,2:0:0:0:
16,288,53639,1,2,3:1:0:0:
122,181,53843,6,0,P|120:136|14:62,1,179.999994506836,8|8,2:0|2:0,2:0:0:0:
26,162,54455,1,2,2:1:0:0:
173,50,54659,2,0,L|267:60,1,89.9999972534181,8|2,2:0|3:1,2:0:0:0:
407,58,55067,1,8,2:0:0:0:
314,160,55271,1,0,3:0:0:0:
498,222,55475,6,0,B|455:223|455:223|404:251|404:251|304:248,1,179.999994506836,12|8,3:2|2:0,2:0:0:0:
214,170,56088,1,0,2:0:0:0:
214,170,56292,2,0,L|210:275,1,89.9999972534181,8|0,2:0|3:0,2:0:0:0:
146,365,56700,1,8,2:0:0:0:
35,280,56904,6,0,B|36:232|36:232|53:200|53:200|56:96,1,179.999994506836,6|0,3:2|2:0,2:0:0:0:
119,3,57516,1,8,2:0:0:0:
227,97,57720,1,8,2:0:0:0:
227,97,57822,1,8,2:0:0:0:
227,97,57924,2,0,L|323:89,1,89.9999972534181,8|2,2:0|3:0,2:0:0:0:
417,0,58333,1,2,1:0:0:0:
454,152,58537,1,8,2:0:0:0:
454,152,58639,1,8,2:0:0:0:
454,152,58741,6,0,L|466:250,1,89.9999972534181,4|2,3:2|2:3,2:0:0:0:
448,364,59149,1,8,2:0:0:0:
317,277,59353,6,0,L|306:187,1,89.9999972534181,4|0,3:2|2:0,2:0:0:0:
230,84,59761,1,2,3:0:0:0:
150,200,59965,1,8,2:0:0:0:
69,68,60169,6,0,L|61:158,1,89.9999972534181,4|0,3:2|2:0,2:0:0:0:
61,327,60577,1,2,3:0:0:0:
150,200,60782,1,8,2:0:0:0:
257,351,60986,6,0,L|347:361,1,89.9999972534181,4|0,3:2|2:0,2:0:0:0:
221,263,61394,2,0,L|289:204,1,89.9999972534181,2|0,2:1|1:0,2:0:0:0:
409,144,61802,1,0,1:0:0:0:
397,258,62006,5,0,3:0:0:0:
394,277,62414,1,0,3:0:0:0:
391,296,62822,1,0,3:0:0:0:
388,315,63230,1,0,3:0:0:0:
512,214,63435,6,0,P|521:163|453:51,1,179.999994506836,6|2,3:2|3:1,0:0:0:0:
358,0,64047,1,2,3:1:0:0:
261,98,64251,2,0,L|245:292,1,179.999994506836,6|2,1:2|1:0,2:0:0:0:
165,364,64863,1,0,1:0:0:0:
134,371,64965,1,0,1:0:0:0:
103,368,65067,1,0,1:0:0:0:
74,356,65169,1,0,1:0:0:0:
51,338,65271,5,6,3:2:0:0:
1,187,65475,2,0,L|22:86,1,97.4999955368044,2|0,2:0|1:0,2:0:0:0:
112,12,65884,1,2,2:0:0:0:
142,153,66088,1,2,3:2:0:0:
232,0,66292,2,0,L|253:96,1,97.4999955368044,2|0,2:0|1:0,2:0:0:0:
232,242,66700,6,0,P|311:218|420:256,1,194.999991073609,2|0,2:0|2:0,2:0:0:0:
501,368,67312,1,0,1:0:0:0:
502,229,67516,2,0,L|486:32,1,194.999991073609,2|0,2:0|2:0,2:0:0:0:
391,141,68128,1,2,1:0:0:0:
303,32,68333,1,2,2:1:0:0:
303,32,68435,1,2,2:1:0:0:
303,32,68537,6,0,P|255:24|203:36,1,97.4999955368044,0|0,3:0|2:0,2:0:0:0:
106,159,68945,2,0,P|154:151|206:163,1,97.4999955368044,2|0,1:2|2:0,2:0:0:0:
309,275,69353,2,0,P|261:267|209:279,1,97.4999955368044,2|0,3:2|2:0,2:0:0:0:
110,365,69761,1,0,1:0:0:0:
0,258,69965,6,0,P|-16:208|36:78,1,194.999991073609,2|2,2:0|2:0,2:0:0:0:
130,0,70577,1,2,1:2:0:0:
202,120,70782,2,0,L|206:217,1,97.4999955368044,0|0,2:0|3:0,2:0:0:0:
155,368,71190,1,0,2:0:0:0:
283,275,71394,1,2,1:3:0:0:
126,271,71598,1,0,1:0:0:0:
252,368,71802,6,0,L|361:363,1,97.4999955368044,4|0,3:2|0:0,0:0:0:0:
450,269,72210,1,0,1:0:0:0:
295,254,72414,2,0,P|259:175|302:72,1,194.999991073609,2|2,2:0|2:0,2:0:0:0:
334,49,72924,1,2,2:1:0:0:
334,49,73026,1,0,1:0:0:0:
387,168,73230,1,0,2:0:0:0:
512,62,73435,6,0,L|505:195,1,97.4999955368044,2|0,3:1|2:0,2:0:0:0:
512,289,73843,1,2,1:2:0:0:
398,254,74047,2,0,P|347:245|296:256,1,97.4999955368044,2|0,2:0|3:0,2:0:0:0:
222,348,74455,2,0,P|174:356|126:347,1,97.4999955368044,2|0,2:0|1:0,2:0:0:0:
28,260,74863,1,0,2:0:0:0:
116,132,75067,6,0,L|217:110,1,97.4999955368044,0|0,3:0|2:0,2:0:0:0:
95,208,75475,2,0,L|181:263,1,97.4999955368044,2|0,1:0|2:0,2:0:0:0:
46,98,75884,2,0,L|68:-2,1,97.4999955368044,2|0,3:1|2:0,2:0:0:0:
3,186,76292,1,2,1:0:0:0:
177,260,76496,6,0,P|220:235|383:263,1,194.999991073609,2|0,1:0|2:0,2:0:0:0:
456,353,77108,2,0,L|465:252,1,97.4999955368044,0|0,1:0|2:0,2:0:0:0:
450,126,77516,2,0,L|428:63,3,48.7499977684022,0|0|0|0,3:0|1:0|1:0|1:0,2:0:0:0:
407,42,77924,1,0,1:0:0:0:
377,24,78026,1,0,1:0:0:0:
344,15,78128,1,0,1:0:0:0:
310,13,78230,1,0,1:0:0:0:
277,20,78332,5,6,3:2:0:0:
190,163,78537,2,0,L|173:283,1,97.4999955368044,2|2,2:0|1:2,2:0:0:0:
136,382,78945,1,0,2:0:0:0:
245,320,79149,1,2,3:2:0:0:
92,223,79353,2,0,L|78:126,1,97.4999955368044,2|0,2:0|1:0,2:0:0:0:
176,259,79761,6,0,P|217:215|362:222,1,194.999991073609,2|2,2:0|2:0,2:0:0:0:
420,316,80373,1,0,1:0:0:0:
460,177,80577,2,0,L|470:71,1,97.4999955368044,2|0,2:0|3:0,2:0:0:0:
369,0,80986,1,2,2:1:0:0:
372,126,81190,1,0,1:0:0:0:
250,16,81394,1,2,2:1:0:0:
250,16,81496,1,2,2:1:0:0:
250,16,81598,6,0,L|247:117,1,97.4999955368044,2|0,3:0|2:0,2:0:0:0:
172,232,82006,2,0,P|219:221|283:239,1,97.4999955368044,2|0,1:2|2:0,2:0:0:0:
385,337,82414,2,0,P|338:326|274:344,1,97.4999955368044,2|0,3:2|2:0,2:0:0:0:
173,384,82822,1,0,1:0:0:0:
50,292,83026,6,0,L|43:177,1,97.4999955368044,2|0,2:0|3:0,2:0:0:0:
34,42,83435,1,0,2:0:0:0:
143,150,83639,2,0,P|200:129|336:161,1,194.999991073609,2|0,1:0|3:0,2:0:0:0:
396,267,84251,1,2,2:3:0:0:
489,152,84455,1,0,1:3:0:0:
395,289,84659,1,0,1:3:0:0:
408,121,84863,6,0,P|402:71|426:15,1,97.4999955368044,6|0,3:2|2:0,2:0:0:0:
328,155,85271,2,0,P|300:112|297:51,1,97.4999955368044,2|0,1:2|2:0,2:0:0:0:
277,223,85679,2,0,P|231:200|197:150,1,97.4999955368044,2|0,3:2|2:0,2:0:0:0:
153,49,86088,1,2,1:2:0:0:
76,161,86292,6,0,P|71:215|164:323,1,194.999991073609,2|0,2:0|2:0,2:0:0:0:
269,354,86904,1,2,1:0:0:0:
277,223,87108,2,0,L|289:104,1,97.4999955368044,2|0,2:0|3:0,2:0:0:0:
298,0,87516,1,0,3:0:0:0:
412,142,87720,1,2,3:1:0:0:
426,14,87924,1,0,3:0:0:0:
286,125,88128,6,0,L|169:110,1,97.4999955368044,4|0,3:2|2:0,2:0:0:0:
94,219,88537,2,0,L|211:204,1,97.4999955368044,10|0,2:0|2:0,2:0:0:0:
291,314,88945,2,0,L|174:299,1,97.4999955368044,10|0,2:0|3:0,2:0:0:0:
94,219,89353,1,10,2:0:0:0:
82,357,89557,1,2,2:0:0:0:
0,238,89761,6,0,L|16:114,1,97.4999955368044,4|0,1:2|2:0,2:0:0:0:
89,14,90169,1,10,2:0:0:0:
12,141,90373,1,2,2:0:0:0:
152,95,90577,2,0,L|252:113,1,97.4999955368044,8|2,2:0|3:2,2:0:0:0:
399,224,90986,2,0,L|303:241,1,97.4999955368044,8|0,2:0|3:0,2:0:0:0:
348,46,91394,6,0,L|328:160,1,97.4999955368044,4|8,3:2|2:0,2:0:0:0:
303,241,91802,1,2,3:2:0:0:
214,157,92006,1,8,2:0:0:0:
214,157,92108,1,8,2:0:0:0:
214,157,92210,2,0,L|97:139,1,97.4999955368044,2|8,3:2|2:0,2:0:0:0:
72,147,92516,1,8,2:0:0:0:
50,167,92618,1,8,2:0:0:0:
35,191,92720,1,8,2:0:0:0:
25,219,92822,1,8,2:0:0:0:
23,248,92924,1,8,2:0:0:0:
28,277,93026,6,0,P|75:263|195:304,1,179.999994506836,4|2,3:2|1:2,2:0:0:0:
310,363,93639,1,0,2:0:0:0:
316,221,93843,1,2,3:2:0:0:
421,293,94047,1,2,2:0:0:0:
388,116,94251,1,2,1:2:0:0:
493,188,94455,6,0,L|501:79,1,89.9999972534181,2|2,2:0|3:2,2:0:0:0:
412,202,94863,2,0,L|382:96,1,89.9999972534181,2|2,2:0|1:2,2:0:0:0:
316,221,95271,2,0,L|211:75,1,179.999994506836,2|2,2:0|2:0,2:0:0:0:
92,11,95884,1,2,1:2:0:0:
28,129,96088,1,2,2:0:0:0:
146,193,96292,6,0,P|153:241|134:292,1,89.9999972534181,2|0,3:2|2:0,2:0:0:0:
283,355,96700,2,0,P|271:311|278:267,1,89.9999972534181,2|0,1:2|2:0,2:0:0:0:
348,159,97108,1,2,3:2:0:0:
278,267,97312,1,2,2:0:0:0:
445,239,97516,1,0,1:0:0:0:
372,341,97720,6,0,L|271:356,1,89.9999972534181,2|2,2:0|3:2,2:0:0:0:
188,253,98128,2,0,L|289:268,1,89.9999972534181,2|2,2:0|1:2,2:0:0:0:
348,159,98537,1,2,2:0:0:0:
217,91,98741,2,0,L|203:148,3,44.999998626709,2|2|2|2,3:2|2:0|2:0|2:0,2:1:0:0:
186,179,99149,1,2,1:0:0:0:
156,189,99251,1,2,2:0:0:0:
125,189,99353,1,2,1:0:0:0:
95,179,99455,1,2,1:0:0:0:
70,160,99557,6,0,L|59:42,1,89.9999972534181,4|0,3:2|2:0,2:0:0:0:
186,179,99965,2,0,L|177:268,1,89.9999972534181,2|0,1:2|2:0,2:0:0:0:
326,55,100373,1,2,3:2:0:0:
186,179,100577,1,2,2:0:0:0:
194,47,100782,1,2,1:2:0:0:
310,179,100986,6,0,L|423:162,1,89.9999972534181,2|2,2:0|3:2,2:0:0:0:
266,282,101394,2,0,L|153:265,1,89.9999972534181,2|0,2:0|1:0,2:0:0:0:
292,379,101802,2,0,L|476:343,1,179.999994506836,2|2,2:0|2:0,2:0:0:0:
496,207,102414,1,0,1:0:0:0:
468,344,102618,1,2,2:0:0:0:
379,177,102822,6,0,P|364:130|379:67,1,89.9999972534181,4|0,3:2|2:0,2:0:0:0:
314,266,103230,2,0,P|277:240|233:231,1,89.9999972534181,2|0,1:0|2:0,2:0:0:0:
121,297,103639,1,2,3:2:0:0:
233,231,103843,1,0,2:0:0:0:
167,119,104047,1,2,1:2:0:0:
55,185,104251,6,0,L|39:93,1,89.9999972534181,2|0,2:0|3:0,2:0:0:0:
151,207,104659,2,0,L|167:115,1,89.9999972534181,2|0,2:0|1:0,2:0:0:0:
213,274,105067,1,2,2:0:0:0:
256,357,105271,2,0,L|308:340,3,44.999998626709,2|2|2|2,3:0|2:0|2:0|2:0,2:0:0:0:
338,325,105679,1,2,1:0:0:0:
365,309,105781,1,2,2:0:0:0:
395,302,105883,1,2,1:0:0:0:
427,303,105985,1,2,2:0:0:0:
456,313,106088,6,0,L|464:237,1,60,6|2,3:2|2:1,2:0:0:0:
465,152,106496,1,0,3:0:0:0:
374,193,106700,2,0,L|382:238,2,30,2|0|0,2:1|2:0|3:0,2:0:0:0:
298,131,107108,2,0,L|233:127,1,60,2|0,2:1|3:0,2:0:0:0:
154,201,107516,6,0,L|213:204,1,60,2|0,2:1|3:0,2:0:0:0:
71,142,107924,1,2,2:1:0:0:
71,142,108128,2,0,L|66:217,1,60,2|2,3:1|2:1,2:0:0:0:
60,300,108537,1,2,3:1:0:0:
60,300,108741,1,2,2:1:0:0:
142,356,108945,1,2,3:1:0:0:
142,356,109149,1,2,2:1:0:0:
213,278,109353,6,0,P|246:273|284:281,1,60,2|2,3:1|2:1,2:0:0:0:
394,352,109761,2,0,P|361:357|323:349,1,60,0|2,3:0|2:1,2:0:0:0:
272,276,110169,1,0,3:0:0:0:
349,214,110373,1,2,2:1:0:0:
349,214,110578,1,0,3:0:0:0:
256,178,110782,6,0,L|250:105,1,60,2|0,2:1|3:0,2:0:0:0:
241,9,111190,1,2,2:1:0:0:
326,65,111394,2,0,L|399:59,1,60,0|2,3:0|2:1,2:0:0:0:
475,83,111802,2,0,L|487:127,3,30,2|0|0|0,3:0|2:3|0:0|0:0,2:0:0:0:
495,151,112210,2,0,L|507:195,3,30,2|0|0|0,3:0|0:0|0:0|0:0,2:0:0:0:
510,224,112618,6,0,L|435:218,1,60,2|2,3:0|2:1,2:0:0:0:
359,208,113026,1,0,3:0:0:0:
335,293,113230,2,0,L|345:327,2,30,2|0|0,2:1|2:0|3:0,2:0:0:0:
260,226,113639,1,2,2:1:0:0:
206,299,113843,1,0,3:0:0:0:
110,227,114047,6,0,L|104:299,1,60,2|0,2:1|3:0,2:0:0:0:
16,326,114455,1,2,2:1:0:0:
16,326,114659,2,0,L|22:254,1,60,0|2,3:0|2:1,2:0:0:0:
25,170,115067,1,0,3:0:0:0:
25,170,115271,1,2,2:1:0:0:
102,99,115475,1,0,3:0:0:0:
102,99,115679,1,2,2:1:0:0:
161,174,115884,6,0,L|226:179,1,60,0|2,3:0|2:1,2:0:0:0:
283,267,116292,2,0,L|218:262,1,60,0|2,3:0|2:1,2:0:0:0:
332,188,116700,1,0,3:0:0:0:
332,188,116904,1,2,2:1:0:0:
387,276,117108,1,0,3:0:0:0:
451,194,117312,6,0,B|430:152|430:152|460:113|460:113|440:71|449:19,1,180,2|0,3:2|2:0,2:0:0:0:
