osu file format v14

[General]
AudioFilename: audio.mp3
AudioLeadIn: 0
PreviewTime: 65067
Countdown: 0
SampleSet: Soft
StackLeniency: 0.4
Mode: 0
LetterboxInBreaks: 0
WidescreenStoryboard: 1

[Editor]
Bookmarks: 3231,16292,22822,48945,65271,78333,93026,106088
DistanceSpacing: 1
BeatDivisor: 4
GridSize: 32
TimelineZoom: 1.3

[Metadata]
Title:Floating up
TitleUnicode:Floating up
Artist:KOTOKO
ArtistUnicode:KOTOKO
Creator:tomatas95
Version:Hard
Source:カルマルカ*サークル
Tags:opening op vn galgame freesongs eroge visual novel saga planets karumaruka circle japanese short version ver video game pop
BeatmapID:2473782
BeatmapSetID:1185397

[Difficulty]
HPDrainRate:4
CircleSize:3.5
OverallDifficulty:6
ApproachRate:7.5
SliderMultiplier:1.4
SliderTickRate:1

[Events]
//Background and Video events
0,0,"SunsetJustnokiss.jpg",0,0
Video,-366,"Natsu.avi"
//Break Periods
//Storyboard Layer 0 (Background)
//Storyboard Layer 1 (Fail)
//Storyboard Layer 2 (Pass)
//Storyboard Layer 3 (Foreground)
//Storyboard Layer 4 (Overlay)
//Storyboard Sound Samples

[TimingPoints]
3231,408.163265306122,4,2,1,60,1,0
6496,-100,4,2,2,60,0,0
6904,-100,4,2,1,60,0,0
9761,-90.9090909090909,4,2,2,70,0,0
10169,-90.9090909090909,4,2,1,70,0,0
22822,-111.111111111111,4,2,1,55,0,0
32618,-111.111111111111,4,2,4,55,0,0
34047,-111.111111111111,4,2,2,55,0,0
34251,-111.111111111111,4,2,1,60,0,0
34863,-111.111111111111,4,2,2,60,0,0
34965,-111.111111111111,4,2,1,60,0,0
35067,-111.111111111111,4,2,1,60,0,0
35475,-111.111111111111,4,2,2,60,0,0
35577,-111.111111111111,4,2,2,55,0,0
35679,-111.111111111111,4,2,1,55,0,0
42414,-111.111111111111,4,2,2,55,0,0
42822,-111.111111111111,4,2,1,55,0,0
45679,-111.111111111111,4,2,4,50,0,0
46088,-111.111111111111,4,2,4,60,0,0
47108,-111.111111111111,4,2,2,60,0,0
47414,-111.111111111111,4,2,2,5,0,0
47516,-111.111111111111,4,2,2,60,0,0
47720,-111.111111111111,4,2,1,65,0,0
48128,-111.111111111111,4,2,1,70,0,0
48945,-100,4,2,2,65,0,0
49353,-100,4,2,1,65,0,0
58741,-100,4,2,2,65,0,0
58945,-100,4,2,1,65,0,0
59353,-100,4,2,2,65,0,0
59659,-100,4,2,2,5,0,0
59761,-100,4,2,1,65,0,0
60169,-100,4,2,2,65,0,0
60475,-100,4,2,2,5,0,0
60577,-100,4,2,1,65,0,0
60986,-100,4,2,2,65,0,0
61394,-100,4,2,1,65,0,0
64251,-100,4,2,2,65,0,0
64455,-100,4,2,2,65,0,0
64659,-100,4,2,1,65,0,0
65271,-100,4,2,2,80,0,1
65475,-83.3333333333333,4,2,1,80,0,1
71802,-83.3333333333333,4,2,2,80,0,1
72210,-83.3333333333333,4,2,1,80,0,1
75475,-83.3333333333333,4,2,4,80,0,1
77108,-83.3333333333333,4,2,1,80,0,1
77516,-83.3333333333333,4,2,1,60,0,1
77720,-83.3333333333333,4,2,1,65,0,1
77924,-83.3333333333333,4,2,1,70,0,1
78128,-83.3333333333333,4,2,1,75,0,1
78230,-83.3333333333333,4,2,1,80,0,0
78333,-83.3333333333333,4,2,1,80,0,1
84863,-83.3333333333333,4,2,2,80,0,1
85271,-83.3333333333333,4,2,1,80,0,1
88026,-83.3333333333333,4,2,1,80,0,0
88128,-83.3333333333333,4,2,1,80,0,1
92414,-83.3333333333333,4,2,1,60,0,1
92618,-83.3333333333333,4,2,1,65,0,1
92822,-83.3333333333333,4,2,1,70,0,1
92975,-83.3333333333333,4,2,1,70,0,0
93026,-100,4,2,2,75,0,0
93230,-100,4,2,2,65,0,0
93434,-100,4,2,2,65,0,0
93435,-100,4,2,1,65,0,0
93843,-90.9090909090909,4,2,1,65,0,0
106088,-100,4,2,1,45,0,0
117924,-100,4,2,1,5,0,0

[Colours]
Combo1 : 255,220,113
Combo2 : 151,247,128
Combo3 : 117,224,255
Combo4 : 255,255,0

[HitObjects]
97,123,3231,6,0,P|129:127|185:113,1,70,6|0,3:2|2:0,2:0:0:0:
247,29,3639,2,0,P|215:25|159:39,1,70,0|0,1:0|2:0,2:0:0:0:
275,136,4047,2,0,L|268:285,1,140,2|0,1:2|1:0,2:0:0:0:
218,352,4659,6,0,L|119:349,1,70,2|2,3:2|1:0,2:0:0:0:
268,275,5067,2,0,L|355:269,1,70,2|0,2:0|1:0,2:0:0:0:
426,186,5475,2,0,L|339:180,1,70,2|0,2:0|1:0,2:0:0:0:
265,167,5884,1,0,3:0:0:0:
279,76,6088,1,2,1:2:0:0:
370,90,6292,1,2,3:2:0:0:
265,167,6496,6,0,B|207:153|207:153|114:188,1,140,4|0,3:2|1:0,0:0:0:0:
61,242,7108,1,0,2:0:0:0:
25,152,7312,2,0,P|33:92|108:41,1,140,0|0,1:0|1:0,0:0:0:0:
188,72,7924,2,0,L|278:62,1,70,2|2,3:2|1:0,2:0:0:0:
320,163,8333,2,0,L|250:155,1,70,2|0,2:0|1:0,2:0:0:0:
201,233,8741,1,2,2:0:0:0:
263,302,8945,2,0,L|303:315,3,35,10|10|10|10,2:0|2:0|2:0|2:0,2:0:0:0:
335,290,9353,2,0,L|375:303,3,35,10|10|10|10,2:0|2:0|2:0|2:0,2:0:0:0:
418,297,9761,6,0,B|415:248|415:248|439:213|439:213|436:135,1,154.000004699707,6|2,3:2|1:2,2:0:0:0:
452,51,10373,1,0,2:0:0:0:
359,88,10577,2,0,L|272:79,1,77.0000023498536,2|2,3:2|2:0,2:0:0:0:
187,45,10986,1,2,1:2:0:0:
209,142,11190,6,0,L|201:218,1,77.0000023498536,2|2,2:0|3:2,2:0:0:0:
114,268,11598,2,0,L|106:191,1,77.0000023498536,2|2,2:0|1:2,2:0:0:0:
25,131,12006,2,0,L|10:289,1,154.000004699707,2|2,2:0|2:0,2:0:0:0:
70,363,12618,1,2,1:2:0:0:
114,268,12822,1,2,2:0:0:0:
179,343,13026,6,0,P|221:337|258:347,1,77.0000023498536,2|0,3:2|2:0,2:0:0:0:
299,239,13435,2,0,P|257:245|220:235,1,77.0000023498536,2|0,1:2|2:0,2:0:0:0:
263,147,13843,2,0,P|331:130|410:171,1,154.000004699707,2|0,3:2|1:0,2:0:0:0:
490,217,14455,6,0,L|498:124,1,77.0000023498536,2|2,2:0|3:2,2:0:0:0:
411,88,14863,2,0,L|403:181,1,77.0000023498536,2|2,2:0|1:2,2:0:0:0:
312,203,15271,2,0,L|320:110,1,77.0000023498536,2|2,2:0|3:2,2:0:0:0:
309,35,15679,1,2,2:0:0:0:
309,35,15782,1,2,2:1:0:0:
309,35,15884,1,2,1:0:0:0:
220,82,16088,1,2,1:0:0:0:
100,19,16292,6,0,B|76:55|76:55|79:173,1,154.000004699707,6|2,3:2|1:2,2:0:0:0:
97,264,16904,1,0,2:0:0:0:
164,190,17108,2,0,P|204:183|248:192,1,77.0000023498536,2|2,3:2|2:0,2:0:0:0:
296,270,17516,1,2,1:2:0:0:
371,204,17720,6,0,L|458:196,1,77.0000023498536,2|2,2:0|3:2,2:0:0:0:
488,288,18128,2,0,L|401:280,1,77.0000023498536,2|0,2:0|1:0,2:0:0:0:
383,377,18537,2,0,L|470:369,1,77.0000023498536,2|2,2:0|3:2,2:0:0:0:
411,280,18945,1,2,2:0:0:0:
447,196,19149,1,0,1:0:0:0:
373,131,19353,1,0,0:2:0:0:
436,46,19557,6,0,B|371:23|371:23|270:56,1,154.000004699707,4|0,3:2|1:0,2:0:0:0:
253,142,20169,1,0,2:0:0:0:
169,93,20373,2,0,L|146:12,1,77.0000023498536,2|2,3:2|2:0,2:0:0:0:
82,145,20782,2,0,L|103:219,1,77.0000023498536,0|0,1:0|2:0,2:0:0:0:
190,268,21190,5,2,3:2:0:0:
167,361,21394,1,2,2:0:0:0:
71,367,21598,1,2,1:2:0:0:
34,278,21802,2,0,L|12:203,1,77.0000023498536,2|2,2:0|3:2,2:0:0:0:
16,106,22210,1,0,1:0:0:0:
16,106,22312,1,0,1:0:0:0:
16,106,22414,1,2,3:2:0:0:
99,168,22618,1,0,1:0:0:0:
101,51,22822,5,4,3:2:0:0:
315,9,23230,2,0,P|359:-2|417:17,1,94.499997116089,0|0,1:0|2:0,2:0:0:0:
442,46,23639,2,0,L|449:119,1,62.9999980773926,2|0,3:1|2:0,2:0:0:0:
460,199,24047,1,0,1:0:0:0:
460,199,24251,6,0,P|469:255|409:323,1,125.999996154785,2|2,2:1|2:1,2:0:0:0:
343,356,24863,1,0,1:0:0:0:
264,305,25067,2,0,P|232:300|194:307,1,62.9999980773926,2|0,2:1|3:0,2:0:0:0:
108,350,25475,2,0,L|100:266,1,62.9999980773926,2|0,2:0|1:0,2:0:0:0:
78,186,25884,1,0,2:0:0:0:
172,214,26088,5,0,3:0:0:0:
345,121,26496,2,0,P|356:85|325:12,1,94.499997116089,2|2,1:0|2:1,2:0:0:0:
299,14,26904,2,0,L|222:6,1,62.9999980773926,0|2,3:0|2:1,2:0:0:0:
144,51,27312,1,0,1:0:0:0:
144,51,27516,6,0,P|108:58|69:44,1,62.9999980773926,2|0,2:1|3:0,2:0:0:0:
34,139,27924,2,0,P|70:132|110:147,1,62.9999980773926,2|0,2:1|1:0,2:0:0:0:
177,187,28333,2,0,P|128:228|50:222,1,125.999996154785,2|0,2:1|2:0,2:0:0:0:
34,139,28945,1,0,1:0:0:0:
82,51,29149,1,0,1:0:0:0:
208,108,29353,5,6,3:2:0:0:
405,92,29761,2,0,L|407:22,1,62.9999980773926,0|2,1:0|2:1,2:0:0:0:
315,7,30169,1,0,3:0:0:0:
310,105,30373,2,0,L|312:175,1,62.9999980773926,2|0,2:1|1:0,2:0:0:0:
285,270,30782,6,0,P|332:255|412:285,1,125.999996154785,2|0,2:1|2:0,2:0:0:0:
498,332,31394,2,0,L|496:262,1,62.9999980773926,2|0,1:0|2:0,2:0:0:0:
489,177,31802,1,0,3:0:0:0:
396,185,32006,1,0,2:0:0:0:
404,278,32210,1,0,1:0:0:0:
496,269,32414,1,0,2:0:0:0:
396,185,32618,5,2,3:1:0:0:
281,52,33026,1,2,3:1:0:0:
146,166,33435,1,2,3:1:0:0:
261,300,33843,1,2,3:1:0:0:
184,255,34047,6,0,P|155:251|102:269,1,62.9999980773926,6|0,1:2|3:0,2:0:0:0:
26,282,34455,2,0,L|19:211,1,62.9999980773926,0|0,1:0|3:0,2:0:0:0:
122,257,34863,2,0,L|128:319,1,62.9999980773926,4|0,1:2|3:0,2:0:0:0:
103,168,35271,2,0,L|107:128,2,31.4999990386963,0|0|4,1:0|1:0|3:2,2:0:0:0:
63,48,35679,1,0,1:0:0:0:
63,48,35782,1,0,1:0:0:0:
63,48,35884,5,2,3:1:0:0:
236,136,36292,2,0,P|228:169|257:240,1,94.499997116089,2|0,1:1|2:0,2:0:0:0:
276,250,36700,2,0,L|338:256,1,62.9999980773926,2|0,3:1|2:0,2:0:0:0:
426,233,37108,1,0,1:0:0:0:
356,165,37312,6,0,P|359:106|419:46,1,125.999996154785,2|2,2:1|2:1,2:0:0:0:
479,9,37924,1,0,1:0:0:0:
503,93,38128,2,0,L|496:179,1,62.9999980773926,2|0,2:0|3:0,2:0:0:0:
488,238,38537,2,0,L|402:231,1,62.9999980773926,2|2,2:1|1:0,2:0:0:0:
342,252,38945,1,2,2:1:0:0:
356,165,39149,5,2,3:2:0:0:
263,368,39557,2,0,P|219:350|174:360,1,94.499997116089,0|0,1:0|2:0,2:0:0:0:
128,360,39965,2,0,L|65:365,1,62.9999980773926,0|2,3:0|2:1,2:0:0:0:
25,283,40373,1,0,1:0:0:0:
25,283,40577,6,0,P|14:246|21:212,1,62.9999980773926,2|0,2:1|3:0,2:0:0:0:
89,161,40986,2,0,P|92:129|82:100,1,62.9999980773926,2|0,2:1|1:0,2:0:0:0:
15,42,41394,2,0,P|53:18|146:43,1,125.999996154785,2|0,2:1|2:0,2:0:0:0:
201,87,42006,1,0,1:0:0:0:
263,18,42210,1,0,1:0:0:0:
281,140,42414,5,4,3:2:0:0:
241,343,42822,2,0,P|275:336|306:348,1,62.9999980773926,0|2,1:0|2:1,0:0:0:0:
397,356,43230,1,0,3:0:0:0:
382,256,43435,2,0,L|384:170,1,62.9999980773926,2|0,2:1|1:0,2:0:0:0:
467,154,43843,1,2,2:1:0:0:
467,154,43945,1,2,2:0:0:0:
467,154,44047,6,0,L|463:236,1,62.9999980773926,0|0,3:0|2:0,2:0:0:0:
462,313,44455,1,0,1:0:0:0:
382,256,44659,2,0,P|346:249|316:256,1,62.9999980773926,2|0,2:1|3:0,2:0:0:0:
266,327,45067,2,0,P|235:332|204:325,1,62.9999980773926,2|2,2:1|1:0,2:0:0:0:
126,268,45475,1,0,2:0:0:0:
71,370,45679,5,6,3:1:0:0:
8,204,46088,1,2,1:0:0:0:
174,142,46496,1,2,3:1:0:0:
241,198,46700,2,0,L|306:191,1,62.9999980773926,2|0,2:1|1:0,2:0:0:0:
373,75,47108,6,0,B|374:109|374:109|391:129|391:129|392:202,1,125.999996154785,6|2,3:2|3:2,2:0:0:0:
388,282,47720,1,2,3:2:0:0:
300,279,47924,1,2,3:2:0:0:
303,191,48128,2,0,L|308:135,2,31.4999990386963,2|0|0,2:0|1:0|1:0,0:0:0:0:
219,223,48537,1,2,3:2:0:0:
193,94,48741,1,0,1:0:0:0:
193,94,48843,1,0,1:0:0:0:
193,94,48945,6,0,B|241:92|241:92|268:71|268:71|328:72,1,140,12|8,3:2|2:0,2:0:0:0:
400,19,49557,1,2,2:1:0:0:
462,84,49761,2,0,L|459:153,1,70,10|0,2:0|3:0,2:0:0:0:
421,236,50169,1,8,2:0:0:0:
511,223,50373,1,2,2:1:0:0:
379,163,50577,6,0,L|301:152,1,70,8|0,2:0|2:0,2:0:0:0:
273,251,50986,2,0,L|351:240,1,70,8|0,2:0|2:0,2:0:0:0:
353,352,51394,2,0,L|275:341,1,70,8|2,2:0|3:2,2:0:0:0:
196,300,51802,1,8,2:0:0:0:
273,251,52006,1,2,3:1:0:0:
182,209,52210,6,0,P|173:175|177:140,1,70,8|0,2:0|2:0,2:0:0:0:
320,70,52618,2,0,P|295:94|263:108,1,70,8|0,2:0|2:0,2:0:0:0:
129,20,53026,2,0,P|162:29|190:49,1,70,8|0,2:0|3:0,2:0:0:0:
176,140,53435,1,8,2:0:0:0:
95,97,53639,1,2,3:1:0:0:
51,183,53843,6,0,P|45:222|53:264,1,70,8|0,2:0|2:0,2:0:0:0:
196,254,54251,2,0,P|165:229|124:215,1,70,8|2,2:0|2:1,2:0:0:0:
62,344,54659,2,0,P|98:329|131:301,1,70,8|2,2:0|3:1,2:0:0:0:
196,254,55067,1,8,2:0:0:0:
257,336,55271,1,0,3:0:0:0:
335,244,55475,6,0,B|342:202|342:202|328:153|328:153|344:86,1,140,12|8,3:2|2:0,2:0:0:0:
340,9,56088,1,0,2:0:0:0:
255,59,56292,2,0,L|185:52,1,70,8|0,2:0|3:0,2:0:0:0:
96,21,56700,1,8,2:0:0:0:
111,160,56904,6,0,P|161:139|256:175,1,140,6|0,3:2|2:0,2:0:0:0:
293,243,57516,2,0,L|301:327,1,70,8|8,2:0|2:0,2:0:0:0:
313,364,57822,1,8,2:0:0:0:
313,364,57924,1,8,2:0:0:0:
391,305,58128,1,2,3:0:0:0:
476,354,58333,1,2,1:0:0:0:
477,230,58537,1,8,2:0:0:0:
477,230,58639,1,8,2:0:0:0:
477,230,58741,6,0,L|486:137,1,70,4|2,3:2|2:3,2:0:0:0:
473,45,59149,1,8,2:0:0:0:
377,108,59353,1,4,3:2:0:0:
156,19,59761,5,2,3:0:0:0:
102,130,59965,1,8,2:0:0:0:
39,26,60169,1,4,3:2:0:0:
19,247,60577,5,2,3:0:0:0:
102,130,60782,1,8,2:0:0:0:
140,265,60986,2,0,L|209:268,1,70,4|0,3:2|2:0,2:0:0:0:
307,194,61394,2,0,L|236:190,1,70,2|0,2:1|1:0,2:0:0:0:
360,278,61802,6,0,P|391:243|385:139,1,140,0|0,1:0|2:0,2:0:0:0:
314,104,62414,2,0,L|238:100,1,70,0|0,3:0|2:0,2:0:0:0:
322,18,62822,2,0,L|398:22,1,70,0|0,3:0|2:0,2:0:0:0:
472,64,63230,1,0,3:0:0:0:
393,153,63435,6,0,B|396:195|396:195|416:231|416:231|418:298,1,140,6|2,3:2|3:1,2:0:0:0:
384,381,64047,1,2,3:1:0:0:
307,280,64251,2,0,P|273:273|215:285,1,70,6|0,1:2|3:0,2:0:0:0:
177,364,64659,1,2,1:0:0:0:
139,260,64863,1,0,1:0:0:0:
78,353,65067,1,0,1:0:0:0:
78,353,65169,1,0,1:0:0:0:
78,353,65271,5,6,3:2:0:0:
49,223,65475,2,0,L|53:120,1,83.9999974365235,2|0,2:0|1:0,2:0:0:0:
106,42,65884,1,2,2:0:0:0:
177,113,66088,1,2,3:2:0:0:
276,21,66292,2,0,L|379:25,1,83.9999974365235,2|0,2:0|1:0,2:0:0:0:
494,108,66700,6,0,L|301:115,1,167.999994873047,2|0,2:0|2:0,2:0:0:0:
256,180,67312,1,0,1:0:0:0:
345,245,67516,2,0,P|308:278|190:269,1,167.999994873047,2|0,2:0|2:0,2:0:0:0:
141,179,68128,1,2,1:0:0:0:
49,245,68333,1,2,2:1:0:0:
49,245,68435,1,2,2:1:0:0:
49,245,68537,6,0,L|46:333,1,83.9999974365235,0|0,3:0|2:0,2:0:0:0:
138,372,68945,2,0,P|181:365|230:375,1,83.9999974365235,2|0,1:2|2:0,2:0:0:0:
355,258,69353,2,0,P|282:286|196:253,1,167.999994873047,2|0,3:2|1:0,2:0:0:0:
153,178,69965,1,2,2:0:0:0:
153,178,70067,1,2,2:1:0:0:
153,178,70169,6,0,L|157:75,1,83.9999974365235,0|2,3:0|2:0,2:0:0:0:
224,19,70577,2,0,B|273:15|273:15|323:34|323:34|401:23,1,167.999994873047,2|0,1:2|3:0,2:0:0:0:
481,78,71190,2,0,L|478:168,1,83.9999974365235,0|2,2:0|1:3,2:0:0:0:
471,265,71598,1,0,1:0:0:0:
370,193,71802,5,4,3:2:0:0:
370,193,72006,2,0,L|373:103,1,83.9999974365235,0|0,2:0|1:0,2:0:0:0:
274,132,72414,2,0,L|265:299,1,167.999994873047,2|2,2:0|2:0,2:0:0:0:
265,346,72924,1,2,2:1:0:0:
265,346,73026,1,0,1:0:0:0:
179,293,73230,1,0,2:0:0:0:
71,337,73435,6,0,L|68:249,1,83.9999974365235,2|0,3:1|2:0,2:0:0:0:
99,152,73843,1,2,1:2:0:0:
192,189,74047,2,0,L|280:186,1,83.9999974365235,2|0,2:0|3:0,2:0:0:0:
335,95,74455,2,0,L|251:91,1,83.9999974365235,2|0,2:0|1:0,2:0:0:0:
153,67,74863,1,0,2:0:0:0:
99,152,75067,6,0,L|91:248,1,83.9999974365235,0|0,3:0|2:0,2:0:0:0:
57,358,75475,2,0,P|100:348|149:357,1,83.9999974365235,2|0,1:0|2:0,2:0:0:0:
264,354,75884,2,0,P|233:321|217:274,1,83.9999974365235,2|0,3:1|2:0,2:0:0:0:
190,173,76292,1,2,1:0:0:0:
276,74,76496,6,0,P|356:52|440:83,1,167.999994873047,2|0,1:0|2:0,2:0:0:0:
473,173,77108,2,0,L|474:262,1,83.9999974365235,0|0,1:0|2:0,2:0:0:0:
401,327,77516,2,0,L|405:380,3,41.9999987182618,0|0|0|0,3:0|1:0|1:0|1:0,2:0:0:0:
349,300,77924,2,0,L|345:247,3,41.9999987182618,0|0|0|0,1:0|1:0|1:0|1:0,2:0:0:0:
320,349,78333,5,6,3:2:0:0:
224,268,78537,2,0,L|133:259,1,83.9999974365235,2|2,2:0|1:2,2:0:0:0:
40,271,78945,1,0,2:0:0:0:
77,367,79149,1,2,3:2:0:0:
140,259,79353,2,0,L|149:168,1,83.9999974365235,2|0,2:0|1:0,2:0:0:0:
148,50,79761,6,0,P|221:28|310:61,1,167.999994873047,2|2,2:0|2:0,2:0:0:0:
381,122,80373,1,0,1:0:0:0:
305,182,80577,2,0,P|232:204|143:171,1,167.999994873047,2|2,2:0|2:1,2:0:0:0:
83,91,81190,1,0,1:0:0:0:
19,175,81394,1,2,2:1:0:0:
19,175,81496,1,2,2:1:0:0:
19,175,81598,6,0,L|10:266,1,83.9999974365235,2|0,3:0|2:0,2:0:0:0:
47,368,82006,2,0,P|95:375|141:358,1,83.9999974365235,2|0,1:2|2:0,0:0:0:0:
186,263,82414,2,0,P|227:255|267:266,1,83.9999974365235,2|0,3:2|2:0,0:0:0:0:
341,351,82822,1,0,1:0:0:0:
351,215,83026,6,0,L|356:18,1,167.999994873047,2|0,2:0|2:0,0:0:0:0:
465,0,83639,2,0,L|470:197,1,167.999994873047,2|0,1:0|3:0,0:0:0:0:
485,281,84251,2,0,P|439:268|391:285,1,83.9999974365235,2|0,2:3|1:3,0:0:0:0:
331,348,84659,1,0,1:3:0:0:
272,246,84863,6,0,B|272:197|272:197|295:160|295:160|294:78,1,167.999994873047,6|2,3:2|1:2,2:0:0:0:
227,9,85475,1,0,2:0:0:0:
167,90,85679,2,0,L|75:85,1,83.9999974365235,2|0,3:2|2:0,2:0:0:0:
7,18,86088,1,2,1:2:0:0:
1,118,86292,6,0,L|6:315,1,167.999994873047,2|0,2:0|2:0,0:0:0:0:
81,352,86904,1,2,1:0:0:0:
170,303,87108,2,0,P|213:282|337:306,1,167.999994873047,2|0,2:0|3:0,2:0:0:0:
415,349,87720,1,2,3:1:0:0:
481,273,87924,1,0,3:0:0:0:
424,146,88128,6,0,B|381:132|381:132|320:154|320:154|257:137,1,167.999994873047,4|10,3:2|2:0,2:0:0:0:
154,121,88741,1,0,2:0:0:0:
154,121,88945,2,0,L|148:213,1,83.9999974365235,10|0,2:0|3:0,2:0:0:0:
128,312,89353,1,10,2:0:0:0:
224,260,89557,1,2,2:0:0:0:
69,239,89761,6,0,L|63:147,1,83.9999974365235,4|0,1:2|2:0,2:0:0:0:
80,47,90169,2,0,P|122:40|169:48,1,83.9999974365235,10|2,2:0|2:0,2:0:0:0:
239,123,90577,2,0,P|280:128|321:121,1,83.9999974365235,8|2,2:0|3:2,2:0:0:0:
396,40,90986,1,8,2:0:0:0:
447,136,91190,1,0,3:0:0:0:
381,256,91394,6,0,P|319:235|211:262,1,167.999994873047,4|2,3:2|3:2,2:0:0:0:
140,328,92006,1,8,2:0:0:0:
140,328,92108,1,8,2:0:0:0:
140,328,92210,2,0,L|52:332,1,83.9999974365235,2|8,3:2|2:0,2:0:0:0:
22,236,92618,1,8,2:0:0:0:
17,215,92720,1,8,2:0:0:0:
16,194,92822,1,8,2:0:0:0:
21,174,92924,1,8,2:0:0:0:
35,154,93026,6,0,P|89:132|177:161,1,140,4|2,3:2|1:2,2:0:0:0:
241,203,93639,1,0,2:0:0:0:
288,123,93843,2,0,L|400:120,1,77.0000023498536,2|2,3:2|2:0,2:0:0:0:
455,121,94251,1,2,1:2:0:0:
507,204,94455,6,0,L|501:302,1,77.0000023498536,2|2,2:0|3:2,2:0:0:0:
419,340,94863,2,0,L|414:263,1,77.0000023498536,2|2,2:0|1:2,2:0:0:0:
330,205,95271,2,0,L|325:281,1,77.0000023498536,2|2,2:0|3:2,2:0:0:0:
283,364,95679,1,2,2:0:0:0:
200,322,95884,1,2,1:2:0:0:
242,239,96088,1,2,2:0:0:0:
159,164,96292,6,0,P|148:201|149:240,1,77.0000023498536,2|0,3:2|2:0,2:0:0:0:
242,239,96700,2,0,P|253:202|252:163,1,77.0000023498536,2|0,1:2|2:0,2:0:0:0:
205,83,97108,1,2,3:2:0:0:
159,164,97312,1,2,2:0:0:0:
105,88,97516,1,0,1:0:0:0:
55,165,97720,6,0,P|49:203|59:254,1,77.0000023498536,2|2,2:0|3:2,2:0:0:0:
109,314,98128,2,0,P|146:319|184:314,1,77.0000023498536,2|2,2:0|1:2,2:0:0:0:
239,239,98537,1,2,2:0:0:0:
302,306,98741,2,0,L|365:294,3,38.5000011749268,2|2|2|2,3:2|2:0|2:0|2:0,2:0:0:0:
378,273,99149,2,0,L|441:261,3,38.5000011749268,2|2|2|2,1:0|2:0|1:0|1:0,2:0:0:0:
451,236,99557,6,0,B|445:197|445:197|461:152|461:152|444:83,1,154.000004699707,4|2,3:2|1:2,2:0:0:0:
380,20,100169,1,0,2:0:0:0:
329,97,100373,2,0,L|248:92,1,77.0000023498536,2|2,3:2|2:0,2:0:0:0:
170,47,100782,1,2,1:2:0:0:
180,138,100986,6,0,L|176:238,1,77.0000023498536,2|2,2:0|3:2,2:0:0:0:
262,249,101394,2,0,L|266:149,1,77.0000023498536,2|0,2:0|1:0,2:0:0:0:
184,310,101802,2,0,P|241:345|324:326,1,154.000004699707,2|2,2:0|2:0,2:0:0:0:
385,261,102414,1,0,1:0:0:0:
411,350,102618,1,2,2:0:0:0:
471,256,102822,6,0,P|474:213|458:163,1,77.0000023498536,4|0,3:2|2:0,2:0:0:0:
375,137,103230,2,0,P|366:99|370:61,1,77.0000023498536,2|0,1:0|2:0,2:0:0:0:
446,0,103639,1,2,3:2:0:0:
460,91,103843,1,0,2:0:0:0:
370,61,104047,1,2,1:2:0:0:
292,127,104251,6,0,L|195:133,1,77.0000023498536,2|0,2:0|3:0,2:0:0:0:
170,212,104659,2,0,L|267:218,1,77.0000023498536,2|0,2:0|1:0,2:0:0:0:
337,233,105067,1,2,2:0:0:0:
278,304,105271,2,0,L|229:319,3,38.5000011749268,2|2|2|2,3:0|2:0|2:0|2:0,2:0:0:0:
196,328,105679,2,0,L|147:343,3,38.5000011749268,2|2|2|2,1:0|2:0|1:0|2:0,2:0:0:0:
117,344,106088,6,0,P|98:298|122:200,1,140,6|0,3:2|3:0,2:0:0:0:
194,166,106700,1,2,2:1:0:0:
194,166,106904,2,0,L|199:82,1,70,0|2,3:0|2:1,2:0:0:0:
242,21,107312,1,0,3:0:0:0:
305,86,107516,6,0,P|341:90|375:78,1,70,2|0,2:1|3:0,2:0:0:0:
439,11,107924,1,2,2:1:0:0:
480,97,108128,2,0,L|477:185,1,70,2|2,3:1|2:1,2:0:0:0:
390,227,108537,2,0,L|389:140,1,70,2|2,3:1|2:1,2:0:0:0:
299,100,108945,2,0,L|296:188,1,70,2|2,3:1|2:1,2:0:0:0:
287,275,109353,6,0,P|220:254|137:289,1,140,2|0,3:1|3:0,2:0:0:0:
82,327,109965,1,2,2:1:0:0:
163,366,110169,2,0,L|239:374,1,70,0|2,3:0|2:1,2:0:0:0:
323,364,110577,1,0,3:0:0:0:
287,275,110782,6,0,P|281:229|293:180,1,70,2|0,2:1|3:0,2:0:0:0:
345,130,111190,1,2,2:1:0:0:
401,201,111394,2,0,L|476:192,1,70,0|2,3:0|2:1,2:0:0:0:
498,106,111802,2,0,L|461:85,3,35,2|0|0|0,3:0|2:3|2:3|2:3,0:0:0:0:
430,61,112210,2,0,L|393:40,3,35,2|0|0|0,3:0|2:3|0:0|2:3,0:0:0:0:
356,30,112618,6,0,B|306:27|306:27|273:39|273:39|206:39,1,140,2|0,3:0|3:0,2:0:0:0:
129,20,113230,1,2,2:1:0:0:
157,106,113435,2,0,L|147:181,1,70,0|2,3:0|2:1,2:0:0:0:
123,263,113843,1,0,3:0:0:0:
59,200,114047,6,0,P|57:162|68:119,1,70,2|0,2:1|3:0,2:0:0:0:
157,106,114455,1,2,2:1:0:0:
232,157,114659,2,0,P|266:163|301:152,1,70,0|2,3:0|2:1,2:0:0:0:
293,17,115067,2,0,P|270:43|262:79,1,70,0|2,3:0|2:1,2:0:0:0:
383,139,115475,2,0,P|371:106|344:81,1,70,0|2,3:0|2:1,2:0:0:0:
346,234,115884,6,0,L|338:332,1,70,0|2,3:0|2:1,2:0:0:0:
254,356,116292,2,0,L|248:286,1,70,0|2,3:0|2:1,2:0:0:0:
165,233,116700,2,0,L|159:302,1,70,0|2,3:0|2:1,2:0:0:0:
106,384,117108,1,0,3:0:0:0:
51,295,117312,6,0,B|61:259|61:259|37:234|37:234|64:214|64:214|23:177|39:116,1,210,2|0,3:2|2:0,2:0:0:0:
