osu file format v14

[General]
AudioFilename: audio.mp3
AudioLeadIn: 0
PreviewTime: 65067
Countdown: 0
SampleSet: Soft
StackLeniency: 0.3
Mode: 0
LetterboxInBreaks: 0
WidescreenStoryboard: 1

[Editor]
Bookmarks: 10577,10679,10884,10986,48946,65272,77006,78334,88129,93027,106089,117312
DistanceSpacing: 1
BeatDivisor: 4
GridSize: 8
TimelineZoom: 1

[Metadata]
Title:Floating up
TitleUnicode:Floating up
Artist:KOTOKO
ArtistUnicode:KOTOKO
Creator:tomatas95
Version:FreeSongs' Summer Holiday
Source:カルマルカ*サークル
Tags:opening op vn galgame freesongs eroge visual novel saga planets karumaruka circle japanese short version ver video game pop
BeatmapID:2497787
BeatmapSetID:1185397

[Difficulty]
HPDrainRate:6
CircleSize:4
OverallDifficulty:8
ApproachRate:8.5
SliderMultiplier:1.4
SliderTickRate:1

[Events]
//Background and Video events
0,0,"ikimashooooouu.jpg",0,0
Video,-366,"Natsu.avi"
//Break Periods
//Storyboard Layer 0 (Background)
//Storyboard Layer 1 (Fail)
//Storyboard Layer 2 (Pass)
//Storyboard Layer 3 (Foreground)
//Storyboard Layer 4 (Overlay)
//Storyboard Sound Samples

[TimingPoints]
3231,408.163265306122,4,2,1,60,1,0
4047,-200,4,2,1,60,0,0
4659,-100,4,2,1,60,0,0
5475,-200,4,2,1,60,0,0
6496,-100,4,2,2,60,0,0
6904,-100,4,2,1,60,0,0
7312,-200,4,2,1,60,0,0
7924,-100,4,2,1,60,0,0
9761,-66.6666666666667,4,2,2,70,0,0
10169,-66.6666666666667,4,2,1,70,0,0
10577,-133.333333333333,4,2,1,70,0,0
11190,-66.6666666666667,4,2,1,70,0,0
12006,-133.333333333333,4,2,1,70,0,0
13026,-66.6666666666667,4,2,1,70,0,0
13843,-133.333333333333,4,2,1,70,0,0
14455,-66.6666666666667,4,2,1,70,0,0
15271,-133.333333333333,4,2,1,70,0,0
16292,-66.6666666666667,4,2,1,70,0,0
17108,-133.333333333333,4,2,1,70,0,0
17720,-66.6666666666667,4,2,1,70,0,0
18537,-133.333333333333,4,2,1,70,0,0
19149,-66.6666666666667,4,2,1,70,0,0
22822,-100,4,2,1,55,0,0
32618,-100,4,2,4,55,0,0
34047,-100,4,2,2,55,0,0
34251,-100,4,2,1,60,0,0
34863,-100,4,2,2,60,0,0
34965,-100,4,2,1,60,0,0
35475,-100,4,2,2,60,0,0
35577,-100,4,2,2,55,0,0
35679,-100,4,2,1,55,0,0
42414,-100,4,2,2,55,0,0
42822,-100,4,2,1,55,0,0
45679,-100,4,2,4,50,0,0
46088,-100,4,2,4,60,0,0
47108,-100,4,2,2,60,0,0
47414,-100,4,2,2,5,0,0
47516,-100,4,2,2,60,0,0
47720,-100,4,2,1,65,0,0
48128,-100,4,2,1,70,0,0
48945,-100,4,2,2,65,0,0
49353,-100,4,2,1,65,0,0
50577,-90.9090909090909,4,2,1,65,0,0
56904,-100,4,2,1,65,0,0
58741,-100,4,2,2,65,0,0
58945,-100,4,2,1,65,0,0
59353,-80,4,2,2,65,0,0
59659,-80,4,2,2,5,0,0
59761,-80,4,2,1,65,0,0
60169,-80,4,2,2,65,0,0
60475,-80,4,2,2,5,0,0
60577,-80,4,2,1,65,0,0
60986,-80,4,2,2,65,0,0
61394,-80,4,2,1,65,0,0
64251,-80,4,2,2,65,0,0
64659,-80,4,2,1,65,0,0
65067,-74.0740740740741,4,2,1,65,0,0
65271,-74.0740740740741,4,2,2,80,0,1
65475,-74.0740740740741,4,2,1,80,0,1
71802,-74.0740740740741,4,2,2,80,0,1
72210,-74.0740740740741,4,2,1,80,0,1
75475,-74.0740740740741,4,2,4,80,0,1
77108,-74.0740740740741,4,2,1,80,0,1
77516,-74.0740740740741,4,2,1,60,0,1
77720,-74.0740740740741,4,2,1,65,0,1
77924,-74.0740740740741,4,2,1,70,0,1
78128,-74.0740740740741,4,2,1,75,0,1
78230,-74.0740740740741,4,2,1,80,0,0
78333,-74.0740740740741,4,2,1,80,0,1
84863,-74.0740740740741,4,2,2,80,0,1
85271,-74.0740740740741,4,2,1,80,0,1
88026,-74.0740740740741,4,2,1,80,0,0
88128,-74.0740740740741,4,2,1,80,0,1
92414,-74.0740740740741,4,2,1,60,0,1
92618,-74.0740740740741,4,2,1,65,0,1
92822,-74.0740740740741,4,2,1,70,0,1
93026,-83.3333333333333,4,2,2,75,0,0
93230,-83.3333333333333,4,2,2,65,0,0
93435,-83.3333333333333,4,2,1,65,0,0
93843,-166.666666666667,4,2,1,65,0,0
94455,-83.3333333333333,4,2,1,65,0,0
95271,-166.666666666667,4,2,1,65,0,0
96292,-83.3333333333333,4,2,1,65,0,0
97108,-166.666666666667,4,2,1,65,0,0
97720,-83.3333333333333,4,2,1,65,0,0
99557,-100,4,2,1,65,0,0
100373,-200,4,2,1,65,0,0
100986,-100,4,2,1,65,0,0
101802,-200,4,2,1,65,0,0
102822,-100,4,2,1,65,0,0
103639,-200,4,2,1,65,0,0
104251,-100,4,2,1,65,0,0
106087,-100,4,2,1,45,0,0
107516,-133.333333333333,4,2,1,45,0,0

[Colours]
Combo1 : 233,222,150
Combo2 : 135,188,248
Combo3 : 222,173,208
Combo4 : 197,148,237

[HitObjects]
72,192,3231,6,0,P|104:184|144:192,1,70,6|0,3:2|2:0,2:0:0:0:
232,304,3639,2,0,P|209:280|196:241,1,70,0|0,1:0|2:0,2:0:0:0:
249,110,4047,6,0,P|239:141|213:172,1,70,2|0,1:2|1:0,2:0:0:0:
214,31,4659,6,0,P|246:23|286:31,1,70,2|2,3:2|1:0,2:0:0:0:
164,101,5067,2,0,P|141:77|127:38,1,70,2|0,2:0|1:0,2:0:0:0:
249,110,5475,6,0,P|239:141|213:172,1,70,2|0,2:0|3:0,2:0:0:0:
139,190,6088,1,2,1:2:0:0:
196,245,6292,1,2,3:2:0:0:
190,379,6496,6,0,P|212:353|224:320,1,70,4|0,3:2|2:0,2:0:0:0:
342,256,6904,2,0,P|307:249|273:256,1,70,0|0,1:0|2:0,2:0:0:0:
161,185,7312,6,0,P|173:218|196:245,1,70,0|0,1:0|1:0,2:0:0:0:
342,256,7924,6,0,P|364:229|376:196,1,70,2|2,3:2|1:0,2:0:0:0:
313,64,8333,2,0,P|278:57|244:64,1,70,2|0,2:0|1:0,2:0:0:0:
161,185,8741,1,2,2:0:0:0:
96,120,8945,6,0,L|40:128,1,35,10|10,2:0|2:0,2:0:0:0:
80,200,9149,2,0,L|24:208,1,35,10|10,2:0|2:0,2:0:0:0:
64,280,9353,1,10,2:0:0:0:
59,296,9455,1,10,2:0:0:0:
54,313,9557,1,10,2:0:0:0:
50,330,9659,1,10,2:0:0:0:
48,344,9761,6,0,B|104:328|104:328|168:344,1,105.000004005432,6|0,3:2|2:0,2:0:0:0:
216,176,10169,2,0,B|232:232|232:232|216:296,1,105.000004005432,2|0,1:2|2:0,2:0:0:0:
384,344,10577,6,0,B|328:360|328:360|264:344,1,105.000004005432,2|2,3:2|1:2,2:0:0:0:
368,176,11190,6,0,B|409:216|409:216|428:279,1,105.000004005432,2|2,2:0|3:2,2:0:0:0:
230,273,11598,2,0,B|244:216|244:216|290:169,1,105.000004005432,2|2,2:0|1:2,2:0:0:0:
384,344,12006,6,0,B|328:360|328:360|264:344,1,105.000004005432,2|2,2:0|2:0,2:0:0:0:
368,176,12618,1,2,1:2:0:0:
328,256,12822,1,2,2:0:0:0:
363,74,13026,6,0,B|379:130|379:130|363:194,1,105.000004005432,2|0,3:2|2:0,2:0:0:0:
184,136,13435,2,0,B|240:120|240:120|285:131,1,105.000004005432,2|0,1:2|2:0,2:0:0:0:
246,315,13843,6,0,B|230:259|230:259|241:213,1,105.000004005432,2|0,3:2|1:0,2:0:0:0:
99,91,14455,6,0,B|88:137|88:137|104:193,1,105.000004005432,2|2,2:0|3:2,2:0:0:0:
286,132,14863,2,0,B|240:120|240:120|184:136,1,105.000004005432,2|2,2:0|1:2,2:0:0:0:
244,314,15271,6,0,B|256:269|256:269|240:213,1,105.000004005432,2|2,2:0|2:0,2:0:0:0:
62,276,15884,5,2,1:0:0:0:
87,268,15986,1,2,2:1:0:0:
112,261,16088,1,2,1:0:0:0:
137,264,16190,1,2,2:1:0:0:
163,271,16292,6,0,L|280:304,1,105.000004005432,6|0,3:2|2:0,2:0:0:0:
285,131,16700,2,0,L|401:163,1,105.000004005432,2|0,1:2|2:0,2:0:0:0:
160,160,17108,6,0,L|58:131,1,105.000004005432,2|2,3:2|1:2,2:0:0:0:
216,80,17720,6,0,P|248:120|248:192,1,105.000004005432,2|2,2:0|3:2,2:0:0:0:
61,146,18128,2,0,P|112:139|160:160,1,105.000004005432,2|0,2:0|1:0,2:0:0:0:
41,313,18537,6,0,P|60:264|101:234,1,105.000004005432,2|2,2:0|2:0,2:0:0:0:
298,263,19149,1,0,1:0:0:0:
253,172,19353,1,0,0:2:0:0:
235,340,19557,6,0,P|184:347|105:216,1,210.000008010865,4|0,3:2|1:0,2:0:0:0:
253,172,20169,1,0,2:0:0:0:
193,256,20373,5,2,3:2:0:0:
185,240,20577,1,2,2:0:0:0:
167,131,20782,1,0,1:0:0:0:
159,147,20986,1,0,2:0:0:0:
9,88,21190,5,2,3:2:0:0:
185,56,21394,1,2,2:0:0:0:
97,72,21598,1,2,1:2:0:0:
257,112,21802,2,0,B|274:182|274:182|268:221,1,105.000004005432,2|2,2:0|3:2,2:0:0:0:
9,88,22210,6,0,L|108:69,1,52.5000020027161,0|0,1:0|1:0,2:0:0:0:
97,72,22414,1,2,3:2:0:0:
185,56,22618,1,0,1:0:0:0:
8,192,22822,6,0,B|46:181|46:181|143:204,1,140,4|0,3:2|1:0,2:0:0:0:
48,264,23435,1,0,2:0:0:0:
80,272,23537,1,0,2:0:0:0:
112,280,23639,2,0,P|136:320|136:360,1,70,2|0,3:1|2:0,2:0:0:0:
32,352,24047,1,0,1:0:0:0:
208,272,24251,6,0,B|246:261|246:261|360:288,1,140,2|2,2:1|2:1,2:0:0:0:
248,344,24863,1,0,1:0:0:0:
408,224,25067,2,0,P|432:264|432:304,1,70,2|0,2:1|3:0,2:0:0:0:
408,120,25475,2,0,P|432:80|432:40,2,70,2|0|0,2:0|1:0|2:0,2:0:0:0:
344,56,26088,6,0,B|321:105|321:105|337:217,1,140,0|2,3:0|1:0,2:0:0:0:
408,120,26700,1,2,2:1:0:0:
413,152,26802,1,2,2:1:0:0:
418,184,26904,2,0,P|414:221|378:268,1,70,0|2,3:0|2:1,2:0:0:0:
203,261,27312,1,0,1:0:0:0:
324,121,27516,6,0,B|335:201,1,70,2|0,2:1|3:0,2:0:0:0:
203,261,27924,2,0,B|214:180,1,70,2|0,2:1|1:0,2:0:0:0:
176,112,28333,2,0,B|125:95|125:95|40:112,1,140,2|0,2:1|2:0,2:0:0:0:
232,40,28945,5,0,1:0:0:0:
198,253,29149,1,0,1:0:0:0:
320,56,29353,6,0,L|392:48,1,70,6|0,3:2|2:0,2:0:0:0:
88,96,29761,1,0,1:0:0:0:
176,112,29965,1,2,2:1:0:0:
264,128,30169,1,0,3:0:0:0:
352,144,30373,2,0,L|424:136,1,70,2|0,2:1|1:0,2:0:0:0:
232,208,30782,6,0,L|72:184,1,140,2|0,2:1|2:0,2:0:0:0:
26,79,31394,2,0,P|81:120|93:188,1,140,2|0,1:0|3:0,2:0:0:0:
24,264,32006,1,0,2:0:0:0:
8,168,32210,1,0,1:0:0:0:
184,104,32414,1,0,2:0:0:0:
120,288,32618,5,2,3:1:0:0:
112,296,33026,5,2,3:1:0:0:
104,304,33435,5,2,3:1:0:0:
96,312,33843,5,2,3:1:0:0:
328,288,34047,2,0,L|408:280,1,70,6|0,1:2|3:0,2:0:0:0:
216,328,34455,1,0,1:0:0:0:
376,176,34659,5,0,3:0:0:0:
410,172,34761,1,0,1:0:0:0:
445,169,34863,1,4,1:2:0:0:
449,186,34965,1,0,1:0:0:0:
453,203,35067,1,0,3:0:0:0:
408,64,35271,5,0,1:0:0:0:
442,60,35373,1,0,1:0:0:0:
477,57,35475,2,0,L|516:52,1,35,4|0,3:2|2:0,2:0:0:0:
444,168,35679,2,0,L|479:162,1,35,0|0,1:0|1:0,2:0:0:0:
396,281,35884,6,0,P|329:286|283:237,1,140,2|2,3:1|1:1,2:0:0:0:
316,89,36496,2,0,L|282:96,1,35,0|0,2:0|2:0,2:0:0:0:
258,103,36700,1,2,3:1:0:0:
399,72,36904,1,0,2:0:0:0:
357,215,37108,1,0,1:0:0:0:
192,141,37312,6,0,P|181:105|261:25,1,140,2|2,2:1|2:1,2:0:0:0:
399,72,37924,1,0,1:0:0:0:
357,215,38128,2,0,P|350:247|360:283,1,70,2|0,2:0|3:0,2:0:0:0:
223,236,38537,2,0,P|230:202|221:169,2,70,2|2|2,2:1|1:0|2:1,2:0:0:0:
259,103,39149,6,0,P|192:98|146:147,1,140,2|0,3:2|1:0,2:0:0:0:
179,295,39761,2,0,L|145:288,1,35,2|0,2:1|2:0,2:0:0:0:
121,281,39965,1,0,3:0:0:0:
262,312,40169,1,2,2:1:0:0:
220,169,40373,1,0,1:0:0:0:
55,243,40577,6,0,P|44:279|62:332,1,70,2|0,2:1|3:0,2:0:0:0:
262,312,40986,2,0,P|273:276|255:223,1,70,2|0,2:1|1:0,2:0:0:0:
220,169,41393,2,0,B|166:179|166:179|121:174|97:136,1,140,2|0,2:1|2:0,2:0:0:0:
100,36,42006,1,0,1:0:0:0:
122,281,42210,1,0,1:0:0:0:
171,93,42414,6,0,L|256:80,1,70,4|0,3:2|2:0,2:0:0:0:
315,169,42822,1,0,1:0:0:0:
222,183,43026,1,2,2:1:0:0:
36,250,43231,1,0,3:0:0:0:
130,233,43435,2,0,L|120:164,1,70,2|0,2:1|1:0,2:0:0:0:
272,274,43843,1,2,2:1:0:0:
272,274,44047,6,0,P|201:284|201:284,1,70,0|0,3:0|2:0,2:0:0:0:
222,183,44455,1,0,1:0:0:0:
312,133,44659,2,0,L|325:218,1,70,2|0,2:1|3:0,2:0:0:0:
171,93,45067,2,0,L|240:82,1,70,2|2,2:1|1:0,2:0:0:0:
100,36,45475,1,0,2:0:0:0:
131,234,45679,6,0,L|118:149,1,70,6|0,3:1|2:0,2:0:0:0:
272,274,46088,2,0,P|201:284|201:284,1,70,2|0,1:0|2:0,2:0:0:0:
345,324,46496,1,2,3:1:0:0:
312,133,46700,2,0,L|325:218,1,70,2|0,2:1|1:0,2:0:0:0:
171,93,47108,6,0,B|253:78|253:78|287:43,1,105,6|0,3:2|2:0,2:0:0:0:
294,31,47516,1,2,3:2:0:0:
432,128,47720,1,2,3:2:0:0:
432,128,47924,1,2,3:2:0:0:
464,0,48128,5,2,2:0:0:0:
429,5,48230,1,0,1:0:0:0:
394,10,48333,2,0,L|376:64,1,35,0|0,1:0|1:0,2:0:0:0:
322,202,48537,5,2,3:2:0:0:
317,167,48639,1,0,1:0:0:0:
312,133,48741,1,0,1:0:0:0:
326,123,48843,1,0,1:0:0:0:
341,114,48945,5,12,3:2:0:0:
296,35,49149,1,0,2:0:0:0:
205,35,49353,5,8,2:0:0:0:
296,193,49557,1,2,2:1:0:0:
159,114,49761,5,10,2:0:0:0:
205,193,49965,1,0,3:0:0:0:
205,35,50169,5,8,2:0:0:0:
205,193,50373,1,2,2:1:0:0:
136,265,50577,6,0,L|119:340,1,77.0000023498536,8|0,2:0|2:0,2:0:0:0:
296,193,50986,2,0,L|271:301,1,77.0000023498536,8|0,2:0|2:0,2:0:0:0:
170,107,51394,2,0,L|149:198,1,77.0000023498536,8|2,2:0|3:2,2:0:0:0:
330,35,51802,1,8,2:0:0:0:
296,193,52006,1,2,3:1:0:0:
170,107,52210,6,0,L|86:88,1,77.0000023498536,8|0,2:0|2:0,2:0:0:0:
296,193,52618,2,0,L|202:213,1,77.0000023498536,8|0,2:0|2:0,2:0:0:0:
330,35,53026,2,0,L|250:17,1,77.0000023498536,8|0,2:0|3:0,2:0:0:0:
395,168,53435,1,8,2:0:0:0:
220,209,53639,1,2,3:1:0:0:
395,168,53843,6,0,L|470:151,1,77.0000023498536,8|0,2:0|2:0,2:0:0:0:
414,52,54251,1,8,2:0:0:0:
254,18,54455,2,0,L|330:35,1,77.0000023498536,2|8,2:1|2:0,2:0:0:0:
220,210,54863,2,0,L|319:186,1,77.0000023498536,2|8,3:1|2:0,2:0:0:0:
290,289,55271,1,0,3:0:0:0:
410,91,55475,5,12,3:2:0:0:
320,121,55679,1,0,2:0:0:0:
230,92,55884,5,8,2:0:0:0:
140,122,56088,1,0,2:0:0:0:
230,278,56292,5,8,2:0:0:0:
320,249,56496,1,0,3:0:0:0:
230,92,56700,5,8,2:0:0:0:
410,91,56904,2,0,P|360:37|279:36,1,140,6|0,3:2|2:0,2:0:0:0:
320,249,57516,1,8,2:0:0:0:
230,92,57720,5,8,2:0:0:0:
195,94,57822,1,8,2:0:0:0:
160,96,57924,1,8,2:0:0:0:
320,249,58128,1,2,3:0:0:0:
320,121,58333,1,2,1:0:0:0:
104,185,58537,5,8,2:0:0:0:
139,185,58639,1,8,2:0:0:0:
174,185,58741,1,4,3:2:0:0:
40,297,58945,1,2,2:3:0:0:
40,73,59149,1,8,2:0:0:0:
190,265,59353,6,0,B|223:261|242:234|242:234|281:227|325:251,1,131.25,4|0,3:2|2:0,2:0:0:0:
341,261,59761,1,2,3:0:0:0:
104,185,59965,1,8,2:0:0:0:
358,45,60169,6,0,B|378:52|389:82|389:82|368:119|377:183,1,131.25,4|0,3:2|2:0,2:0:0:0:
391,200,60577,1,2,3:0:0:0:
160,96,60782,1,8,2:0:0:0:
366,283,60986,6,0,L|470:259,1,87.5,4|0,3:2|2:0,2:0:0:0:
131,78,61394,2,0,L|27:102,1,87.5,2|0,2:1|1:0,2:0:0:0:
256,192,61802,1,0,1:0:0:0:
256,192,61904,12,0,63230,3:0:0:0:
328,80,63435,6,0,B|352:112|352:112|336:248,1,175,6|2,3:2|3:1,2:0:0:0:
320,328,64047,1,2,3:1:0:0:
153,336,64251,6,0,B|185:312|185:312|320:328,1,175,6|2,1:2|1:0,2:0:0:0:
64,318,64863,1,0,1:0:0:0:
72,294,64965,1,0,1:0:0:0:
80,270,65067,6,0,L|158:238,1,47.2500001802444,0|0,1:0|1:0,2:0:0:0:
276,0,65271,2,0,L|264:84,1,47.2500001802444,6|0,3:2|2:0,2:0:0:0:
100,78,65475,2,0,L|167:131,1,47.2500001802444,2|0,2:0|2:0,2:0:0:0:
256,192,65679,1,0,1:0:0:0:
269,46,65884,6,0,L|263:97,1,47.2500001802444,2|0,2:0|2:0,2:0:0:0:
137,107,66088,2,0,L|178:138,1,47.2500001802444,2|0,3:2|2:0,2:0:0:0:
123,252,66292,2,0,L|169:232,1,47.2500001802444,2|0,2:0|2:0,2:0:0:0:
377,183,66496,1,0,1:0:0:0:
377,183,66700,6,0,B|393:143|393:143|253:192,1,189.000000720978,2|0,2:0|2:0,2:0:0:0:
331,268,67312,1,0,1:0:0:0:
434,72,67516,2,0,B|480:98|479:151|479:151|445:240,1,189.000000720978,2|0,2:0|2:0,2:0:0:0:
331,268,68128,1,2,1:0:0:0:
355,37,68333,1,2,2:1:0:0:
271,64,68537,6,0,L|153:53,1,94.5000003604889,0|0,3:0|2:0,2:0:0:0:
70,192,68945,2,0,B|119:189|119:189|147:183|171:147,1,94.5000003604889,2|0,1:2|2:0,2:0:0:0:
265,313,69353,2,0,B|217:310|217:310|189:304|164:268,1,94.5000003604889,2|0,3:2|2:0,2:0:0:0:
99,114,69761,1,0,1:0:0:0:
51,290,69965,2,0,B|39:331|39:331|177:286,1,189.000000720978,2|2,2:0|2:0,2:0:0:0:
194,67,70577,2,0,B|108:33|108:33|51:27|22:70,1,189.000000720978,2|0,1:2|3:0,2:0:0:0:
21,163,71190,1,0,2:0:0:0:
266,115,71394,1,2,1:3:0:0:
99,114,71598,1,0,1:0:0:0:
99,114,71700,1,0,2:0:0:0:
99,114,71802,5,4,3:2:0:0:
104,216,72006,1,0,2:0:0:0:
192,272,72210,1,0,1:0:0:0:
248,128,72414,2,0,P|328:104|432:128,1,189.000000720978,2|2,2:0|2:0,2:0:0:0:
504,184,73026,1,0,1:0:0:0:
336,16,73230,1,0,2:0:0:0:
176,184,73435,5,2,3:1:0:0:
344,240,73639,1,0,2:0:0:0:
504,184,73843,1,2,1:2:0:0:
280,72,74047,2,0,B|240:112|240:112|264:272,1,189.000000720978,2|2,2:0|2:0,2:0:0:0:
440,256,74659,1,0,1:0:0:0:
344,240,74863,1,0,2:0:0:0:
504,184,75067,6,0,B|374:164|374:164,1,94.5000003604889,0|0,3:0|2:0,2:0:0:0:
224,336,75475,2,0,B|273:333|273:333|301:327|325:291,1,94.5000003604889,2|0,1:0|2:0,2:0:0:0:
65,228,75883,2,0,B|113:231|113:231|141:237|166:273,1,94.5000003604889,2|0,3:1|2:0,2:0:0:0:
81,316,76292,1,2,1:0:0:0:
164,33,76496,2,0,B|138:0|138:0|93:146,1,189.000000720978,2|0,1:0|2:0,2:0:0:0:
65,228,77108,1,0,1:0:0:0:
208,192,77312,1,0,2:0:0:0:
307,274,77516,5,0,3:0:0:0:
305,298,77618,1,0,1:0:0:0:
296,319,77720,1,0,1:0:0:0:
279,335,77822,1,0,1:0:0:0:
257,344,77924,1,0,1:0:0:0:
233,344,78026,1,0,1:0:0:0:
210,337,78128,6,0,L|236:263,1,47.2500001802444,0|0,1:0|1:0,2:0:0:0:
153,79,78333,2,0,L|184:115,1,47.2500001802444,6|0,3:2|2:0,2:0:0:0:
107,224,78537,2,0,L|153:215,1,47.2500001802444,2|0,2:0|2:0,2:0:0:0:
256,192,78741,1,2,1:2:0:0:
194,381,78945,6,0,L|220:307,1,47.2500001802444,0|0,2:0|2:0,2:0:0:0:
60,233,79150,2,0,L|106:224,1,47.2500001802444,2|0,3:2|2:0,2:0:0:0:
122,43,79354,2,0,L|152:78,1,47.2500001802444,2|0,2:0|2:0,2:0:0:0:
389,149,79557,1,0,1:0:0:0:
389,149,79761,6,0,B|419:179|419:179|268:208,1,189.000000720978,2|2,2:0|2:0,2:0:0:0:
312,80,80373,1,0,1:0:0:0:
488,288,80577,2,0,B|464:256|416:264|416:264|288:288,1,189.000000720978,2|2,2:0|2:1,2:0:0:0:
496,184,81190,1,0,1:0:0:0:
275,206,81394,1,2,2:1:0:0:
464,96,81598,6,0,L|344:112,1,94.5000003604889,2|0,3:0|2:0,2:0:0:0:
160,80,82006,2,0,B|208:88|224:120|224:120|216:168,1,94.5000003604889,2|0,1:2|2:0,2:0:0:0:
84,301,82414,2,0,B|66:255|86:225|86:225|132:208,1,94.5000003604889,2|0,3:2|2:0,2:0:0:0:
299,251,82822,1,0,1:0:0:0:
13,332,83026,2,0,B|-1:304|0:251|0:251|49:221|100:219,1,189.000000720978,2|0,2:0|2:0,2:0:0:0:
289,51,83639,2,0,B|255:58|207:37|207:37|178:87|175:137,1,189.000000720978,2|0,1:0|3:0,2:0:0:0:
220,267,84251,1,2,2:3:0:0:
62,111,84455,1,0,1:3:0:0:
260,129,84659,1,0,1:3:0:0:
260,129,84761,1,2,2:1:0:0:
260,129,84863,6,0,B|316:137|378:110|378:110,1,94.5000003604889,6|0,3:2|2:0,2:0:0:0:
495,221,85271,2,0,B|439:229|377:202|377:202,1,94.5000003604889,2|0,1:2|2:0,2:0:0:0:
249,294,85679,2,0,B|305:302|367:275|367:275,1,94.5000003604889,2|0,3:2|2:0,2:0:0:0:
495,221,86088,1,2,1:2:0:0:
402,336,86292,2,0,B|376:361|376:361|401:210,1,189.000000720978,2|0,2:0|2:0,2:0:0:0:
419,65,86904,1,2,1:0:0:0:
293,67,87108,2,0,B|268:40|268:40|419:65,1,189.000000720978,2|0,2:0|3:0,2:0:0:0:
512,83,87720,5,2,3:1:0:0:
279,144,87924,1,0,3:0:0:0:
62,78,88128,6,0,L|46:184,1,94.5000003604889,4|0,3:2|2:0,2:0:0:0:
263,224,88537,2,0,L|247:330,1,94.5000003604889,10|0,2:0|2:0,2:0:0:0:
512,227,88945,2,0,L|496:333,1,94.5000003604889,10|0,2:0|3:0,2:0:0:0:
293,50,89353,2,0,L|277:156,1,94.5000003604889,10|2,2:0|2:0,2:0:0:0:
60,263,89761,5,4,1:2:0:0:
47,171,89965,1,0,2:0:0:0:
206,62,90169,5,10,2:0:0:0:
265,223,90373,1,2,2:0:0:0:
193,154,90577,5,8,2:0:0:0:
451,165,90782,1,2,3:2:0:0:
382,93,90986,5,8,2:0:0:0:
288,123,91190,1,0,3:0:0:0:
347,288,91394,5,4,3:2:0:0:
451,165,91598,2,0,L|499:177,2,47.2500001802444,8|0|2,2:0|2:0|3:2,2:0:0:0:
265,223,92006,2,0,L|217:235,2,47.2500001802444,8|8|2,2:0|2:0|3:2,2:0:0:0:
153,115,92414,6,0,L|151:50,1,47.2500001802444,8|8,2:0|2:0,2:0:0:0:
247,132,92618,2,0,L|245:84,1,47.2500001802444,8|8,2:0|2:0,2:0:0:0:
343,147,92822,2,0,L|341:99,1,47.2500001802444,8|8,2:0|2:0,2:0:0:0:
451,92,93026,6,0,L|446:176,1,83.9999974365235,4|0,3:2|2:0,2:0:0:0:
267,184,93435,2,0,L|342:146,1,83.9999974365235,2|0,1:2|2:0,2:0:0:0:
439,298,93843,6,0,L|368:251,1,83.9999974365235,2|2,3:2|1:2,2:0:0:0:
271,100,94455,6,0,L|266:184,1,83.9999974365235,2|2,2:0|3:2,2:0:0:0:
183,344,94863,2,0,L|258:306,1,83.9999974365235,2|2,2:0|1:2,2:0:0:0:
439,298,95271,6,0,L|368:251,1,83.9999974365235,2|2,2:0|2:0,2:0:0:0:
271,100,95884,1,2,1:2:0:0:
266,183,96088,1,2,2:0:0:0:
219,37,96292,6,0,P|247:56|272:116,1,83.9999974365235,2|0,3:2|2:0,2:0:0:0:
116,150,96700,2,0,P|118:116|157:64,1,83.9999974365235,2|0,1:2|2:0,2:0:0:0:
266,183,97108,6,0,P|235:197|171:189,1,83.9999974365235,2|0,3:2|1:0,2:0:0:0:
64,87,97720,6,0,P|92:106|117:166,1,83.9999974365235,2|2,2:0|3:2,2:0:0:0:
82,310,98128,2,0,P|84:276|123:224,1,83.9999974365235,2|2,2:0|1:2,2:0:0:0:
266,183,98537,1,2,2:0:0:0:
304,264,98741,6,2,L|345:267,1,41.9999987182618,2|2,3:2|2:0,2:0:0:0:
352,192,98945,2,2,L|393:195,1,41.9999987182618,2|2,2:0|2:0,2:0:0:0:
400,120,99149,1,2,1:0:0:0:
410,101,99251,1,2,2:0:0:0:
421,83,99353,1,2,1:0:0:0:
432,65,99455,1,2,1:0:0:0:
443,50,99557,6,0,B|472:83|472:83|478:131,1,70,4|0,3:2|2:0,2:0:0:0:
319,220,99965,2,0,B|352:191|352:191|400:185,1,70,2|0,1:2|2:0,2:0:0:0:
489,344,100373,6,0,B|460:311|460:311|454:263,1,70,2|2,3:2|1:2,2:0:0:0:
220,299,100986,6,0,B|249:332|249:332|255:380,1,70,2|2,2:0|3:2,2:0:0:0:
377,187,101394,2,0,B|344:216|344:216|296:222,1,70,2|0,2:0|1:0,2:0:0:0:
489,344,101802,6,0,B|460:311|460:311|454:263,1,70,2|2,2:0|2:0,2:0:0:0:
357,329,102414,1,0,1:0:0:0:
357,329,102618,1,2,2:0:0:0:
220,299,102822,6,0,L|147:305,1,70,4|0,3:2|2:0,2:0:0:0:
77,180,103230,2,0,L|83:253,1,70,2|0,1:0|2:0,2:0:0:0:
207,171,103639,6,0,L|159:226,1,70,2|2,3:2|1:2,2:0:0:0:
217,80,104251,6,0,L|192:11,1,70,2|0,2:0|3:0,2:0:0:0:
290,134,104659,2,0,L|362:147,1,70,2|0,2:0|1:0,2:0:0:0:
207,171,105067,1,2,2:0:0:0:
127,122,105271,6,0,L|77:128,1,35,2|2,3:0|2:0,2:0:0:0:
109,196,105475,2,0,L|59:202,1,35,2|2,2:0|2:0,2:0:0:0:
91,270,105679,1,2,1:0:0:0:
85,286,105781,1,2,2:0:0:0:
80,303,105883,1,2,1:0:0:0:
75,320,105985,1,2,2:0:0:0:
70,336,106087,5,6,3:2:0:0:
164,322,106292,1,2,2:1:0:0:
149,228,106496,1,0,3:0:0:0:
55,243,106700,1,2,2:1:0:0:
164,322,106904,5,0,3:0:0:0:
296,300,107109,1,2,2:1:0:0:
219,244,107313,5,0,3:0:0:0:
240,377,107516,2,0,L|304:373,1,52.5000020027161,2|0,2:1|3:0,2:0:0:0:
149,228,107924,5,2,2:1:0:0:
282,207,108128,2,0,L|278:143,1,52.5000020027161,2|2,3:1|2:1,2:0:0:0:
270,68,108537,5,2,3:1:0:0:
184,51,108741,1,2,2:1:0:0:
167,137,108945,1,2,3:1:0:0:
253,154,109149,1,2,2:1:0:0:
363,130,109353,6,0,P|386:127|427:133,1,52.5000020027161,2|2,3:1|2:1,2:0:0:0:
442,231,109761,2,0,P|419:234|378:228,1,52.5000020027161,0|2,3:0|2:1,2:0:0:0:
310,204,110169,5,0,3:0:0:0:
266,275,110373,1,2,2:1:0:0:
318,340,110577,5,0,3:0:0:0:
239,282,110782,2,0,L|177:293,1,52.5000020027161,2|0,2:1|3:0,2:0:0:0:
287,208,111190,5,2,2:1:0:0:
198,151,111394,2,0,L|136:162,1,52.5000020027161,0|2,3:0|2:1,2:0:0:0:
70,74,111802,6,0,L|107:79,3,26.2500010013581,2|0|0|0,3:0|2:3|2:3|2:3,2:0:0:0:
125,77,112210,2,0,L|162:72,3,26.2500010013581,2|0|0|0,3:0|2:3|0:0|2:3,2:0:0:0:
178,67,112618,6,0,P|204:58|285:70,1,105.000004005432,2|0,3:0|3:0,2:0:0:0:
484,117,113435,2,0,L|494:172,2,52.5000020027161,0|2|0,3:0|2:1|3:0,2:0:0:0:
420,62,114047,2,0,B|402:93|402:93|415:170,1,105.000004005432,2|2,2:1|2:1,2:0:0:0:
461,223,114659,2,0,B|430:205|430:205|353:218,1,105.000004005432,0|0,3:0|3:0,2:0:0:0:
281,232,115271,5,2,2:1:0:0:
262,229,115475,1,0,3:0:0:0:
246,226,115679,1,2,2:1:0:0:
181,273,115884,6,0,B|197:217|197:217|179:172,1,105.000004005432,0|0,3:0|3:0,2:0:0:0:
21,173,116700,2,0,B|5:229|5:229|23:274,1,105.000004005432,0|0,3:0|3:0,2:0:0:0:
102,223,117312,1,2,3:2:0:0:
