osu file format v14

[General]
AudioFilename: audio.mp3
AudioLeadIn: 0
PreviewTime: 145680
Countdown: 0
SampleSet: Normal
StackLeniency: 0.7
Mode: 1
LetterboxInBreaks: 0
WidescreenStoryboard: 0

[Editor]
Bookmarks: 374,6904,13435,19965,26496,33027,39557,46088,52618,59149,62414,90169,96700,103231,109761,116292,122822,129353,135884,142414,145680,173435,179965,186496,193027,199557,206088,212618,215884,222414,228945,243639,250169,256700,263231,269761,276292,280986
DistanceSpacing: 1.8
BeatDivisor: 4
GridSize: 32
TimelineZoom: 1.8

[Metadata]
Title:Floating up
TitleUnicode:Floating up
Artist:KOTOKO
ArtistUnicode:KOTOKO
Creator:Lafayla
Version:Oni
Source:カルマルカ*サークル
Tags:elements garden eroge japanese video game
BeatmapID:2264133
BeatmapSetID:878214

[Difficulty]
HPDrainRate:5
CircleSize:3
OverallDifficulty:5
ApproachRate:10
SliderMultiplier:1.4
SliderTickRate:1

[Events]
//Background and Video events
0,0,"Floating up.jpg",0,40
//Break Periods
//Storyboard Layer 0 (Background)
//Storyboard Layer 1 (Fail)
//Storyboard Layer 2 (Pass)
//Storyboard Layer 3 (Foreground)
//Storyboard Layer 4 (Overlay)
//Storyboard Sound Samples

[TimingPoints]
374,408.163265306122,4,1,0,85,1,0
62414,-100,4,1,0,85,0,1
90169,-100,4,1,0,85,0,0
145680,-100,4,1,0,85,0,1
173435,-100,4,1,0,85,0,0
200373,-100,4,1,0,70,0,0
206088,-100,4,1,0,85,0,0
228945,-100,4,1,0,85,0,1
243639,-100,4,1,0,85,0,0

[HitObjects]
256,192,373,5,12,0:0:0:0:
256,192,578,1,0,0:0:0:0:
256,192,782,1,8,0:0:0:0:
256,192,986,1,0,0:0:0:0:
256,192,1190,1,8,0:0:0:0:
256,192,1292,1,8,0:0:0:0:
256,192,1394,1,0,0:0:0:0:
256,192,1598,1,8,0:0:0:0:
256,192,1802,1,0,0:0:0:0:
256,192,2210,1,0,0:0:0:0:
256,192,2414,1,8,0:0:0:0:
256,192,2618,1,0,0:0:0:0:
256,192,2720,1,0,0:0:0:0:
256,192,2822,1,0,0:0:0:0:
256,192,3027,1,0,0:0:0:0:
256,192,3231,1,8,0:0:0:0:
256,192,3435,1,0,0:0:0:0:
256,192,3639,1,12,0:0:0:0:
256,192,4047,1,8,0:0:0:0:
256,192,4251,1,0,0:0:0:0:
256,192,4455,1,8,0:0:0:0:
256,192,4557,1,8,0:0:0:0:
256,192,4659,1,0,0:0:0:0:
256,192,4863,1,0,0:0:0:0:
256,192,5067,1,8,0:0:0:0:
256,192,5476,1,8,0:0:0:0:
256,192,5680,1,8,0:0:0:0:
256,192,5884,1,0,0:0:0:0:
256,192,6088,1,0,0:0:0:0:
256,192,6190,1,0,0:0:0:0:
256,192,6292,1,8,0:0:0:0:
256,192,6394,1,8,0:0:0:0:
256,192,6496,1,0,0:0:0:0:
256,192,6700,1,8,0:0:0:0:
256,192,6904,1,4,0:0:0:0:
256,192,7108,1,0,0:0:0:0:
256,192,7312,1,8,0:0:0:0:
256,192,7516,1,0,0:0:0:0:
256,192,7720,1,8,0:0:0:0:
256,192,7822,1,8,0:0:0:0:
256,192,7925,1,0,0:0:0:0:
256,192,8129,1,8,0:0:0:0:
256,192,8333,1,0,0:0:0:0:
256,192,8741,1,0,0:0:0:0:
256,192,8945,1,8,0:0:0:0:
256,192,9149,1,0,0:0:0:0:
256,192,9251,1,0,0:0:0:0:
256,192,9353,1,0,0:0:0:0:
256,192,9557,1,8,0:0:0:0:
256,192,9761,1,0,0:0:0:0:
256,192,9965,1,8,0:0:0:0:
256,192,10169,1,4,0:0:0:0:
256,192,10578,1,8,0:0:0:0:
256,192,10782,1,0,0:0:0:0:
256,192,10986,1,8,0:0:0:0:
256,192,11088,1,8,0:0:0:0:
256,192,11190,1,0,0:0:0:0:
256,192,11394,1,0,0:0:0:0:
256,192,11598,1,8,0:0:0:0:
256,192,12006,1,8,0:0:0:0:
256,192,12210,1,0,0:0:0:0:
256,192,12414,1,8,0:0:0:0:
256,192,12618,1,0,0:0:0:0:
256,192,12822,1,0,0:0:0:0:
256,192,12925,1,0,0:0:0:0:
256,192,13027,1,8,0:0:0:0:
256,192,13129,1,8,0:0:0:0:
256,192,13231,1,8,0:0:0:0:
256,192,13435,1,4,0:0:0:0:
256,192,13639,1,0,0:0:0:0:
256,192,13843,1,8,0:0:0:0:
256,192,14047,1,0,0:0:0:0:
256,192,14251,1,8,0:0:0:0:
256,192,14353,1,8,0:0:0:0:
256,192,14455,1,0,0:0:0:0:
256,192,14659,1,8,0:0:0:0:
256,192,14863,1,0,0:0:0:0:
256,192,15271,1,0,0:0:0:0:
256,192,15476,1,8,0:0:0:0:
256,192,15680,1,0,0:0:0:0:
256,192,15782,1,0,0:0:0:0:
256,192,15884,1,0,0:0:0:0:
256,192,16088,1,8,0:0:0:0:
256,192,16292,1,8,0:0:0:0:
256,192,16394,1,8,0:0:0:0:
256,192,16496,1,0,0:0:0:0:
256,192,16700,1,12,0:0:0:0:
256,192,17108,1,8,0:0:0:0:
256,192,17312,1,0,0:0:0:0:
256,192,17516,1,8,0:0:0:0:
256,192,17618,1,8,0:0:0:0:
256,192,17720,1,8,0:0:0:0:
256,192,17925,1,8,0:0:0:0:
256,192,18129,1,0,0:0:0:0:
256,192,18333,1,8,0:0:0:0:
256,192,18435,1,0,0:0:0:0:
256,192,18537,1,8,0:0:0:0:
256,192,18741,1,0,0:0:0:0:
256,192,18945,1,8,0:0:0:0:
256,192,19353,1,8,0:0:0:0:
256,192,19455,1,8,0:0:0:0:
256,192,19557,1,0,0:0:0:0:
256,192,19761,1,8,0:0:0:0:
256,192,19965,1,4,0:0:0:0:
256,192,20373,1,8,0:0:0:0:
256,192,20578,1,0,0:0:0:0:
256,192,20680,1,0,0:0:0:0:
256,192,20782,1,8,0:0:0:0:
256,192,20986,1,0,0:0:0:0:
256,192,21190,1,8,0:0:0:0:
256,192,21394,1,0,0:0:0:0:
256,192,21802,1,0,0:0:0:0:
256,192,22006,1,8,0:0:0:0:
256,192,22210,1,0,0:0:0:0:
256,192,22312,1,0,0:0:0:0:
256,192,22414,1,0,0:0:0:0:
256,192,22618,1,8,0:0:0:0:
256,192,22822,1,0,0:0:0:0:
256,192,23231,1,8,0:0:0:0:
256,192,23639,1,0,0:0:0:0:
256,192,23741,1,0,0:0:0:0:
256,192,23843,1,8,0:0:0:0:
256,192,24047,1,0,0:0:0:0:
256,192,24251,1,8,0:0:0:0:
256,192,24455,1,8,0:0:0:0:
256,192,24659,1,0,0:0:0:0:
256,192,25067,1,8,0:0:0:0:
256,192,25169,1,8,0:0:0:0:
256,192,25271,1,8,0:0:0:0:
256,192,25476,1,0,0:0:0:0:
256,192,25680,1,8,0:0:0:0:
256,192,25884,1,8,0:0:0:0:
256,192,26088,1,0,0:0:0:0:
256,192,26292,1,0,0:0:0:0:
256,192,26496,1,12,0:0:0:0:
256,192,26904,1,8,0:0:0:0:
256,192,27108,1,0,0:0:0:0:
256,192,27312,1,8,0:0:0:0:
256,192,27516,1,0,0:0:0:0:
256,192,27720,1,0,0:0:0:0:
256,192,27925,1,8,0:0:0:0:
256,192,28027,1,8,0:0:0:0:
256,192,28129,1,8,0:0:0:0:
256,192,28333,1,0,0:0:0:0:
256,192,28537,1,8,0:0:0:0:
256,192,28741,1,0,0:0:0:0:
256,192,29149,1,0,0:0:0:0:
256,192,29353,1,8,0:0:0:0:
256,192,29557,1,0,0:0:0:0:
256,192,29659,1,0,0:0:0:0:
256,192,29761,1,8,0:0:0:0:
256,192,30169,1,0,0:0:0:0:
256,192,30578,1,8,0:0:0:0:
256,192,30986,1,0,0:0:0:0:
256,192,31190,1,12,0:0:0:0:
256,192,31394,1,0,0:0:0:0:
256,192,31598,1,8,0:0:0:0:
256,192,31700,1,8,0:0:0:0:
256,192,31802,1,0,0:0:0:0:
256,192,32006,1,12,0:0:0:0:
256,192,32210,1,0,0:0:0:0:
256,192,32414,1,0,0:0:0:0:
256,192,32516,1,0,0:0:0:0:
256,192,32618,1,8,0:0:0:0:
256,192,32822,1,0,0:0:0:0:
256,192,33027,1,12,0:0:0:0:
256,192,33435,1,8,0:0:0:0:
256,192,33639,1,8,0:0:0:0:
256,192,33741,1,8,0:0:0:0:
256,192,33843,1,0,0:0:0:0:
256,192,34047,1,0,0:0:0:0:
256,192,34251,1,8,0:0:0:0:
256,192,34455,1,0,0:0:0:0:
256,192,34557,1,0,0:0:0:0:
256,192,34659,1,0,0:0:0:0:
256,192,34863,1,8,0:0:0:0:
256,192,35067,1,0,0:0:0:0:
256,192,35271,1,8,0:0:0:0:
256,192,35373,1,8,0:0:0:0:
256,192,35476,1,0,0:0:0:0:
256,192,35680,1,8,0:0:0:0:
256,192,35884,1,0,0:0:0:0:
256,192,36292,1,8,0:0:0:0:
256,192,36700,1,0,0:0:0:0:
256,192,36904,1,0,0:0:0:0:
256,192,37006,1,0,0:0:0:0:
256,192,37108,1,8,0:0:0:0:
256,192,37312,1,0,0:0:0:0:
256,192,37516,1,0,0:0:0:0:
256,192,37720,1,8,0:0:0:0:
256,192,38129,1,0,0:0:0:0:
256,192,38333,1,8,0:0:0:0:
256,192,38537,1,0,0:0:0:0:
256,192,38639,1,0,0:0:0:0:
256,192,38741,1,8,0:0:0:0:
256,192,38945,1,8,0:0:0:0:
256,192,39149,1,0,0:0:0:0:
256,192,39251,1,0,0:0:0:0:
256,192,39353,1,0,0:0:0:0:
256,192,39557,1,12,0:0:0:0:
256,192,39965,1,8,0:0:0:0:
256,192,40169,1,0,0:0:0:0:
256,192,40373,1,8,0:0:0:0:
256,192,40578,1,0,0:0:0:0:
256,192,40782,1,0,0:0:0:0:
256,192,40986,1,8,0:0:0:0:
256,192,41088,1,8,0:0:0:0:
256,192,41190,1,0,0:0:0:0:
256,192,41598,1,8,0:0:0:0:
256,192,41802,1,0,0:0:0:0:
256,192,42210,1,0,0:0:0:0:
256,192,42312,1,0,0:0:0:0:
256,192,42414,1,8,0:0:0:0:
256,192,42618,1,8,0:0:0:0:
256,192,42822,1,4,0:0:0:0:
256,192,43231,1,8,0:0:0:0:
256,192,43639,1,0,0:0:0:0:
256,192,43843,1,8,0:0:0:0:
256,192,44047,1,0,0:0:0:0:
256,192,44251,1,12,0:0:0:0:
256,192,44659,1,0,0:0:0:0:
256,192,44863,1,8,0:0:0:0:
256,192,45067,1,0,0:0:0:0:
256,192,45271,1,8,0:0:0:0:
256,192,45373,1,8,0:0:0:0:
256,192,45476,1,0,0:0:0:0:
256,192,45578,1,0,0:0:0:0:
256,192,45680,1,8,0:0:0:0:
256,192,45884,1,8,0:0:0:0:
256,192,46088,1,4,0:0:0:0:
256,192,46496,1,8,0:0:0:0:
256,192,46904,1,8,0:0:0:0:
256,192,47108,1,0,0:0:0:0:
256,192,47312,1,8,0:0:0:0:
256,192,47516,1,0,0:0:0:0:
256,192,47720,1,8,0:0:0:0:
256,192,47822,1,8,0:0:0:0:
256,192,47925,1,0,0:0:0:0:
256,192,48129,1,8,0:0:0:0:
256,192,48537,1,8,0:0:0:0:
256,192,48741,1,0,0:0:0:0:
256,192,48945,1,0,0:0:0:0:
256,192,49047,1,0,0:0:0:0:
256,192,49149,1,8,0:0:0:0:
256,192,49353,1,8,0:0:0:0:
256,192,49761,1,0,0:0:0:0:
256,192,50169,1,8,0:0:0:0:
256,192,50373,1,0,0:0:0:0:
256,192,50578,1,8,0:0:0:0:
256,192,50782,1,0,0:0:0:0:
256,192,50986,1,8,0:0:0:0:
256,192,51394,1,8,0:0:0:0:
256,192,51598,1,0,0:0:0:0:
256,192,51700,1,0,0:0:0:0:
256,192,51802,1,8,0:0:0:0:
256,192,52006,1,0,0:0:0:0:
256,192,52210,1,8,0:0:0:0:
256,192,52312,1,8,0:0:0:0:
256,192,52414,1,0,0:0:0:0:
256,192,52618,1,4,0:0:0:0:
256,192,53027,1,8,0:0:0:0:
256,192,53435,1,8,0:0:0:0:
256,192,53537,1,8,0:0:0:0:
256,192,53639,1,0,0:0:0:0:
256,192,53843,1,8,0:0:0:0:
256,192,54047,1,4,0:0:0:0:
256,192,54251,1,8,0:0:0:0:
256,192,54659,1,8,0:0:0:0:
256,192,54863,1,0,0:0:0:0:
256,192,54965,1,8,0:0:0:0:
256,192,55067,1,8,0:0:0:0:
256,192,55271,1,0,0:0:0:0:
256,192,55476,1,0,0:0:0:0:
256,192,55578,1,0,0:0:0:0:
256,192,55680,1,8,0:0:0:0:
256,192,55884,1,4,0:0:0:0:
256,192,56088,1,8,0:0:0:0:
256,192,56292,1,8,0:0:0:0:
256,192,56496,1,4,0:0:0:0:
256,192,56904,1,0,0:0:0:0:
256,192,57108,1,8,0:0:0:0:
256,192,57312,1,4,0:0:0:0:
256,192,57720,1,0,0:0:0:0:
256,192,57925,1,8,0:0:0:0:
256,192,58129,1,4,0:0:0:0:
256,192,58537,1,8,0:0:0:0:
256,192,58741,1,0,0:0:0:0:
256,192,58945,1,8,0:0:0:0:
256,192,59047,1,8,0:0:0:0:
256,192,59149,1,0,0:0:0:0:
256,192,59557,1,0,0:0:0:0:
256,192,59965,1,0,0:0:0:0:
256,192,60373,1,0,0:0:0:0:
256,192,60578,1,12,0:0:0:0:
256,192,60986,1,12,0:0:0:0:
256,192,61190,1,0,0:0:0:0:
256,192,61394,1,8,0:0:0:0:
256,192,61496,1,8,0:0:0:0:
256,192,61598,1,8,0:0:0:0:
256,192,61802,1,0,0:0:0:0:
256,192,62006,1,8,0:0:0:0:
256,192,62108,1,8,0:0:0:0:
256,192,62210,1,0,0:0:0:0:
256,192,62414,1,12,0:0:0:0:
256,192,62618,1,4,0:0:0:0:
256,192,63027,1,0,0:0:0:0:
256,192,63231,1,12,0:0:0:0:
256,192,63435,1,4,0:0:0:0:
256,192,63843,1,8,0:0:0:0:
256,192,63945,1,8,0:0:0:0:
256,192,64047,1,8,0:0:0:0:
256,192,64251,1,0,0:0:0:0:
256,192,64455,1,8,0:0:0:0:
256,192,64659,1,0,0:0:0:0:
256,192,65067,1,0,0:0:0:0:
256,192,65271,1,8,0:0:0:0:
256,192,65476,1,8,0:0:0:0:
256,192,65578,1,8,0:0:0:0:
256,192,65680,1,0,0:0:0:0:
256,192,65884,1,0,0:0:0:0:
256,192,66088,1,8,0:0:0:0:
256,192,66292,1,0,0:0:0:0:
256,192,66496,1,8,0:0:0:0:
256,192,66598,1,8,0:0:0:0:
256,192,66700,1,8,0:0:0:0:
256,192,66904,1,0,0:0:0:0:
256,192,67108,1,8,0:0:0:0:
256,192,67516,1,0,0:0:0:0:
256,192,67720,1,8,0:0:0:0:
256,192,67925,1,0,0:0:0:0:
256,192,68027,1,0,0:0:0:0:
256,192,68129,1,0,0:0:0:0:
256,192,68333,1,8,0:0:0:0:
256,192,68537,1,8,0:0:0:0:
256,192,68639,1,8,0:0:0:0:
256,192,68741,1,0,0:0:0:0:
256,192,68945,1,12,0:0:0:0:
256,192,69149,1,0,0:0:0:0:
256,192,69353,1,0,0:0:0:0:
256,192,69557,1,8,0:0:0:0:
256,192,69965,1,8,0:0:0:0:
256,192,70169,1,8,0:0:0:0:
256,192,70373,1,0,0:0:0:0:
256,192,70476,1,0,0:0:0:0:
256,192,70578,1,8,0:0:0:0:
256,192,70782,1,0,0:0:0:0:
256,192,70986,1,8,0:0:0:0:
256,192,71190,1,0,0:0:0:0:
256,192,71292,1,0,0:0:0:0:
256,192,71394,1,0,0:0:0:0:
256,192,71598,1,8,0:0:0:0:
256,192,71802,1,0,0:0:0:0:
256,192,72006,1,0,0:0:0:0:
256,192,72210,1,8,0:0:0:0:
256,192,72618,1,0,0:0:0:0:
256,192,73027,1,8,0:0:0:0:
256,192,73435,1,8,0:0:0:0:
256,192,73639,1,0,0:0:0:0:
256,192,73741,1,0,0:0:0:0:
256,192,73843,1,8,0:0:0:0:
256,192,74047,1,0,0:0:0:0:
256,192,74251,1,8,0:0:0:0:
256,192,74455,1,8,0:0:0:0:
256,192,74659,1,0,0:0:0:0:
256,192,74761,1,0,0:0:0:0:
256,192,74863,1,8,0:0:0:0:
256,192,74965,1,8,0:0:0:0:
256,192,75067,1,0,0:0:0:0:
256,192,75271,1,0,0:0:0:0:
256,192,75476,1,12,0:0:0:0:
256,192,75680,1,4,0:0:0:0:
256,192,76088,1,0,0:0:0:0:
256,192,76292,1,12,0:0:0:0:
256,192,76496,1,4,0:0:0:0:
256,192,76904,1,8,0:0:0:0:
256,192,77006,1,8,0:0:0:0:
256,192,77108,1,8,0:0:0:0:
256,192,77312,1,0,0:0:0:0:
256,192,77516,1,8,0:0:0:0:
256,192,77720,1,0,0:0:0:0:
256,192,78129,1,0,0:0:0:0:
256,192,78333,1,8,0:0:0:0:
256,192,78537,1,8,0:0:0:0:
256,192,78639,1,8,0:0:0:0:
256,192,78741,1,0,0:0:0:0:
256,192,78945,1,0,0:0:0:0:
256,192,79149,1,8,0:0:0:0:
256,192,79353,1,0,0:0:0:0:
256,192,79557,1,8,0:0:0:0:
256,192,79659,1,8,0:0:0:0:
256,192,79761,1,8,0:0:0:0:
256,192,79965,1,0,0:0:0:0:
256,192,80169,1,8,0:0:0:0:
256,192,80578,1,8,0:0:0:0:
256,192,80782,1,0,0:0:0:0:
256,192,80986,1,8,0:0:0:0:
256,192,81088,1,8,0:0:0:0:
256,192,81190,1,8,0:0:0:0:
256,192,81394,1,0,0:0:0:0:
256,192,81598,1,8,0:0:0:0:
256,192,81700,1,8,0:0:0:0:
256,192,81802,1,0,0:0:0:0:
256,192,82006,1,12,0:0:0:0:
256,192,82414,1,8,0:0:0:0:
256,192,82618,1,0,0:0:0:0:
256,192,82822,1,8,0:0:0:0:
256,192,82925,1,8,0:0:0:0:
256,192,83027,1,8,0:0:0:0:
256,192,83231,1,0,0:0:0:0:
256,192,83435,1,8,0:0:0:0:
256,192,83843,1,0,0:0:0:0:
256,192,84047,1,8,0:0:0:0:
256,192,84251,1,0,0:0:0:0:
256,192,84353,1,0,0:0:0:0:
256,192,84455,1,0,0:0:0:0:
256,192,84659,1,12,0:0:0:0:
256,192,84863,1,4,0:0:0:0:
256,192,85067,1,12,0:0:0:0:
256,192,85271,1,12,0:0:0:0:
256,192,85680,1,0,0:0:0:0:
256,192,85884,1,8,0:0:0:0:
256,192,86088,1,0,0:0:0:0:
256,192,86292,1,0,0:0:0:0:
256,192,86496,1,8,0:0:0:0:
256,192,86700,1,0,0:0:0:0:
256,192,86802,1,0,0:0:0:0:
256,192,86904,1,8,0:0:0:0:
256,192,87312,1,0,0:0:0:0:
256,192,87516,1,8,0:0:0:0:
256,192,87720,1,0,0:0:0:0:
256,192,87925,1,8,0:0:0:0:
256,192,88027,1,8,0:0:0:0:
256,192,88129,1,0,0:0:0:0:
256,192,88333,1,8,0:0:0:0:
256,192,88537,1,4,0:0:0:0:
256,192,88741,1,8,0:0:0:0:
256,192,88945,1,0,0:0:0:0:
256,192,89149,1,0,0:0:0:0:
256,192,89251,1,0,0:0:0:0:
256,192,89353,1,8,0:0:0:0:
256,192,89557,1,0,0:0:0:0:
256,192,89659,1,0,0:0:0:0:
256,192,89761,1,8,0:0:0:0:
256,192,89863,1,8,0:0:0:0:
256,192,89965,1,8,0:0:0:0:
256,192,90169,1,4,0:0:0:0:
256,192,90373,1,0,0:0:0:0:
256,192,90578,1,8,0:0:0:0:
256,192,90782,1,0,0:0:0:0:
256,192,90986,1,8,0:0:0:0:
256,192,91088,1,8,0:0:0:0:
256,192,91190,1,0,0:0:0:0:
256,192,91394,1,8,0:0:0:0:
256,192,91598,1,0,0:0:0:0:
256,192,92006,1,0,0:0:0:0:
256,192,92210,1,8,0:0:0:0:
256,192,92414,1,0,0:0:0:0:
256,192,92516,1,0,0:0:0:0:
256,192,92618,1,8,0:0:0:0:
256,192,92822,1,8,0:0:0:0:
256,192,93027,1,0,0:0:0:0:
256,192,93231,1,8,0:0:0:0:
256,192,93435,1,4,0:0:0:0:
256,192,93843,1,8,0:0:0:0:
256,192,94047,1,0,0:0:0:0:
256,192,94251,1,8,0:0:0:0:
256,192,94353,1,8,0:0:0:0:
256,192,94455,1,0,0:0:0:0:
256,192,94659,1,0,0:0:0:0:
256,192,94863,1,8,0:0:0:0:
256,192,95271,1,8,0:0:0:0:
256,192,95476,1,0,0:0:0:0:
256,192,95680,1,8,0:0:0:0:
256,192,95884,1,0,0:0:0:0:
256,192,96088,1,0,0:0:0:0:
256,192,96190,1,0,0:0:0:0:
256,192,96292,1,8,0:0:0:0:
256,192,96394,1,8,0:0:0:0:
256,192,96496,1,8,0:0:0:0:
256,192,96700,1,4,0:0:0:0:
256,192,96904,1,0,0:0:0:0:
256,192,97108,1,8,0:0:0:0:
256,192,97312,1,0,0:0:0:0:
256,192,97516,1,8,0:0:0:0:
256,192,97618,1,8,0:0:0:0:
256,192,97720,1,0,0:0:0:0:
256,192,97925,1,8,0:0:0:0:
256,192,98129,1,0,0:0:0:0:
256,192,98537,1,0,0:0:0:0:
256,192,98741,1,8,0:0:0:0:
256,192,98945,1,0,0:0:0:0:
256,192,99047,1,0,0:0:0:0:
256,192,99149,1,0,0:0:0:0:
256,192,99353,1,8,0:0:0:0:
256,192,99557,1,8,0:0:0:0:
256,192,99659,1,0,0:0:0:0:
256,192,99761,1,8,0:0:0:0:
256,192,99965,1,12,0:0:0:0:
256,192,100373,1,8,0:0:0:0:
256,192,100578,1,0,0:0:0:0:
256,192,100782,1,8,0:0:0:0:
256,192,100884,1,8,0:0:0:0:
256,192,100986,1,0,0:0:0:0:
256,192,101190,1,8,0:0:0:0:
256,192,101394,1,0,0:0:0:0:
256,192,101598,1,8,0:0:0:0:
256,192,101700,1,0,0:0:0:0:
256,192,101802,1,8,0:0:0:0:
256,192,102006,1,0,0:0:0:0:
256,192,102210,1,8,0:0:0:0:
256,192,102618,1,0,0:0:0:0:
256,192,102720,1,8,0:0:0:0:
256,192,102822,1,8,0:0:0:0:
256,192,103027,1,8,0:0:0:0:
256,192,103231,1,4,0:0:0:0:
256,192,103639,1,8,0:0:0:0:
256,192,103843,1,8,0:0:0:0:
256,192,103945,1,8,0:0:0:0:
256,192,104047,1,0,0:0:0:0:
256,192,104251,1,0,0:0:0:0:
256,192,104455,1,8,0:0:0:0:
256,192,104659,1,0,0:0:0:0:
256,192,105067,1,0,0:0:0:0:
256,192,105271,1,8,0:0:0:0:
256,192,105476,1,0,0:0:0:0:
256,192,105578,1,0,0:0:0:0:
256,192,105680,1,0,0:0:0:0:
256,192,105884,1,8,0:0:0:0:
256,192,106088,1,0,0:0:0:0:
256,192,106292,1,8,0:0:0:0:
256,192,106496,1,0,0:0:0:0:
256,192,106904,1,8,0:0:0:0:
256,192,107108,1,0,0:0:0:0:
256,192,107210,1,0,0:0:0:0:
256,192,107312,1,8,0:0:0:0:
256,192,107516,1,8,0:0:0:0:
256,192,107720,1,0,0:0:0:0:
256,192,107925,1,8,0:0:0:0:
256,192,108333,1,8,0:0:0:0:
256,192,108537,1,8,0:0:0:0:
256,192,108741,1,0,0:0:0:0:
256,192,108843,1,0,0:0:0:0:
256,192,108945,1,8,0:0:0:0:
256,192,109149,1,0,0:0:0:0:
256,192,109557,1,0,0:0:0:0:
256,192,109761,1,12,0:0:0:0:
256,192,109965,1,0,0:0:0:0:
256,192,110169,1,8,0:0:0:0:
256,192,110578,1,0,0:0:0:0:
256,192,110782,1,8,0:0:0:0:
256,192,110986,1,0,0:0:0:0:
256,192,111190,1,8,0:0:0:0:
256,192,111292,1,8,0:0:0:0:
256,192,111394,1,8,0:0:0:0:
256,192,111598,1,0,0:0:0:0:
256,192,111802,1,8,0:0:0:0:
256,192,112210,1,0,0:0:0:0:
256,192,112414,1,8,0:0:0:0:
256,192,112618,1,0,0:0:0:0:
256,192,112822,1,8,0:0:0:0:
256,192,112925,1,8,0:0:0:0:
256,192,113027,1,0,0:0:0:0:
256,192,113435,1,8,0:0:0:0:
256,192,113843,1,0,0:0:0:0:
256,192,114251,1,8,0:0:0:0:
256,192,114455,1,4,0:0:0:0:
256,192,114659,1,8,0:0:0:0:
256,192,114863,1,8,0:0:0:0:
256,192,114965,1,8,0:0:0:0:
256,192,115067,1,0,0:0:0:0:
256,192,115169,1,0,0:0:0:0:
256,192,115271,1,8,0:0:0:0:
256,192,115476,1,0,0:0:0:0:
256,192,115680,1,0,0:0:0:0:
256,192,115782,1,0,0:0:0:0:
256,192,115884,1,8,0:0:0:0:
256,192,116088,1,0,0:0:0:0:
256,192,116292,1,12,0:0:0:0:
256,192,116700,1,0,0:0:0:0:
256,192,116904,1,0,0:0:0:0:
256,192,117006,1,0,0:0:0:0:
256,192,117108,1,8,0:0:0:0:
256,192,117312,1,8,0:0:0:0:
256,192,117516,1,0,0:0:0:0:
256,192,117720,1,8,0:0:0:0:
256,192,117822,1,8,0:0:0:0:
256,192,117925,1,8,0:0:0:0:
256,192,118129,1,0,0:0:0:0:
256,192,118333,1,8,0:0:0:0:
256,192,118537,1,0,0:0:0:0:
256,192,118639,1,0,0:0:0:0:
256,192,118741,1,0,0:0:0:0:
256,192,118945,1,8,0:0:0:0:
256,192,119149,1,0,0:0:0:0:
256,192,119353,1,0,0:0:0:0:
256,192,119557,1,8,0:0:0:0:
256,192,119965,1,0,0:0:0:0:
256,192,120169,1,8,0:0:0:0:
256,192,120271,1,8,0:0:0:0:
256,192,120373,1,0,0:0:0:0:
256,192,120578,1,8,0:0:0:0:
256,192,120782,1,8,0:0:0:0:
256,192,120986,1,0,0:0:0:0:
256,192,121394,1,8,0:0:0:0:
256,192,121598,1,8,0:0:0:0:
256,192,121802,1,0,0:0:0:0:
256,192,121904,1,0,0:0:0:0:
256,192,122006,1,8,0:0:0:0:
256,192,122210,1,8,0:0:0:0:
256,192,122414,1,0,0:0:0:0:
256,192,122618,1,8,0:0:0:0:
256,192,122822,1,4,0:0:0:0:
256,192,123231,1,8,0:0:0:0:
256,192,123435,1,0,0:0:0:0:
256,192,123639,1,0,0:0:0:0:
256,192,123843,1,8,0:0:0:0:
256,192,124047,1,0,0:0:0:0:
256,192,124149,1,0,0:0:0:0:
256,192,124251,1,8,0:0:0:0:
256,192,124353,1,8,0:0:0:0:
256,192,124455,1,0,0:0:0:0:
256,192,124863,1,0,0:0:0:0:
256,192,125067,1,8,0:0:0:0:
256,192,125271,1,0,0:0:0:0:
256,192,125476,1,8,0:0:0:0:
256,192,125578,1,8,0:0:0:0:
256,192,125680,1,8,0:0:0:0:
256,192,125884,1,0,0:0:0:0:
256,192,126088,1,12,0:0:0:0:
256,192,126496,1,0,0:0:0:0:
256,192,126904,1,8,0:0:0:0:
256,192,127108,1,0,0:0:0:0:
256,192,127210,1,0,0:0:0:0:
256,192,127312,1,8,0:0:0:0:
256,192,127516,1,4,0:0:0:0:
256,192,127925,1,0,0:0:0:0:
256,192,128129,1,8,0:0:0:0:
256,192,128333,1,0,0:0:0:0:
256,192,128537,1,0,0:0:0:0:
256,192,128639,1,8,0:0:0:0:
256,192,128741,1,8,0:0:0:0:
256,192,128945,1,8,0:0:0:0:
256,192,129149,1,0,0:0:0:0:
256,192,129353,1,12,0:0:0:0:
256,192,129761,1,8,0:0:0:0:
256,192,130169,1,8,0:0:0:0:
256,192,130271,1,8,0:0:0:0:
256,192,130373,1,0,0:0:0:0:
256,192,130578,1,8,0:0:0:0:
256,192,130782,1,0,0:0:0:0:
256,192,130986,1,8,0:0:0:0:
256,192,131088,1,8,0:0:0:0:
256,192,131190,1,0,0:0:0:0:
256,192,131394,1,8,0:0:0:0:
256,192,131802,1,8,0:0:0:0:
256,192,132006,1,0,0:0:0:0:
256,192,132210,1,8,0:0:0:0:
256,192,132414,1,0,0:0:0:0:
256,192,132516,1,0,0:0:0:0:
256,192,132618,1,8,0:0:0:0:
256,192,132822,1,0,0:0:0:0:
256,192,133027,1,8,0:0:0:0:
256,192,133435,1,8,0:0:0:0:
256,192,133639,1,0,0:0:0:0:
256,192,133843,1,8,0:0:0:0:
256,192,134047,1,0,0:0:0:0:
256,192,134149,1,0,0:0:0:0:
256,192,134251,1,8,0:0:0:0:
256,192,134659,1,8,0:0:0:0:
256,192,134863,1,8,0:0:0:0:
256,192,135067,1,8,0:0:0:0:
256,192,135169,1,8,0:0:0:0:
256,192,135271,1,0,0:0:0:0:
256,192,135476,1,8,0:0:0:0:
256,192,135680,1,0,0:0:0:0:
256,192,135884,1,12,0:0:0:0:
256,192,136292,1,8,0:0:0:0:
256,192,136700,1,8,0:0:0:0:
256,192,136802,1,8,0:0:0:0:
256,192,136904,1,0,0:0:0:0:
256,192,137108,1,8,0:0:0:0:
256,192,137312,1,4,0:0:0:0:
256,192,137516,1,0,0:0:0:0:
256,192,137925,1,8,0:0:0:0:
256,192,138129,1,0,0:0:0:0:
256,192,138231,1,8,0:0:0:0:
256,192,138333,1,8,0:0:0:0:
256,192,138537,1,0,0:0:0:0:
256,192,138741,1,0,0:0:0:0:
256,192,138843,1,0,0:0:0:0:
256,192,138945,1,8,0:0:0:0:
256,192,139149,1,4,0:0:0:0:
256,192,139353,1,8,0:0:0:0:
256,192,139557,1,8,0:0:0:0:
256,192,139761,1,4,0:0:0:0:
256,192,140169,1,0,0:0:0:0:
256,192,140373,1,8,0:0:0:0:
256,192,140578,1,4,0:0:0:0:
256,192,140986,1,0,0:0:0:0:
256,192,141190,1,8,0:0:0:0:
256,192,141394,1,4,0:0:0:0:
256,192,141802,1,8,0:0:0:0:
256,192,142006,1,0,0:0:0:0:
256,192,142210,1,8,0:0:0:0:
256,192,142312,1,8,0:0:0:0:
256,192,142414,1,0,0:0:0:0:
256,192,142822,1,0,0:0:0:0:
256,192,143231,1,0,0:0:0:0:
256,192,143639,1,0,0:0:0:0:
256,192,143843,1,12,0:0:0:0:
256,192,144251,1,8,0:0:0:0:
256,192,144353,1,8,0:0:0:0:
256,192,144455,1,0,0:0:0:0:
256,192,144659,1,0,0:0:0:0:
256,192,144761,1,0,0:0:0:0:
256,192,144863,1,8,0:0:0:0:
256,192,145067,1,0,0:0:0:0:
256,192,145169,1,0,0:0:0:0:
256,192,145271,1,8,0:0:0:0:
256,192,145373,1,8,0:0:0:0:
256,192,145476,1,8,0:0:0:0:
256,192,145680,1,12,0:0:0:0:
256,192,145884,1,4,0:0:0:0:
256,192,146292,1,0,0:0:0:0:
256,192,146496,1,12,0:0:0:0:
256,192,146700,1,4,0:0:0:0:
256,192,147108,1,8,0:0:0:0:
256,192,147210,1,8,0:0:0:0:
256,192,147312,1,8,0:0:0:0:
256,192,147516,1,0,0:0:0:0:
256,192,147720,1,8,0:0:0:0:
256,192,147925,1,0,0:0:0:0:
256,192,148333,1,0,0:0:0:0:
256,192,148435,1,0,0:0:0:0:
256,192,148537,1,8,0:0:0:0:
256,192,148741,1,8,0:0:0:0:
256,192,148945,1,0,0:0:0:0:
256,192,149149,1,0,0:0:0:0:
256,192,149353,1,8,0:0:0:0:
256,192,149455,1,8,0:0:0:0:
256,192,149557,1,0,0:0:0:0:
256,192,149761,1,8,0:0:0:0:
256,192,149863,1,8,0:0:0:0:
256,192,149965,1,8,0:0:0:0:
256,192,150169,1,0,0:0:0:0:
256,192,150373,1,8,0:0:0:0:
256,192,150782,1,0,0:0:0:0:
256,192,150986,1,8,0:0:0:0:
256,192,151190,1,0,0:0:0:0:
256,192,151292,1,0,0:0:0:0:
256,192,151394,1,0,0:0:0:0:
256,192,151598,1,8,0:0:0:0:
256,192,151802,1,8,0:0:0:0:
256,192,151904,1,8,0:0:0:0:
256,192,152006,1,0,0:0:0:0:
256,192,152210,1,12,0:0:0:0:
256,192,152414,1,0,0:0:0:0:
256,192,152618,1,0,0:0:0:0:
256,192,152822,1,8,0:0:0:0:
256,192,153231,1,8,0:0:0:0:
256,192,153435,1,8,0:0:0:0:
256,192,153639,1,0,0:0:0:0:
256,192,153741,1,0,0:0:0:0:
256,192,153843,1,8,0:0:0:0:
256,192,154047,1,0,0:0:0:0:
256,192,154251,1,8,0:0:0:0:
256,192,154455,1,0,0:0:0:0:
256,192,154557,1,0,0:0:0:0:
256,192,154659,1,0,0:0:0:0:
256,192,154863,1,8,0:0:0:0:
256,192,154965,1,8,0:0:0:0:
256,192,155067,1,0,0:0:0:0:
256,192,155271,1,0,0:0:0:0:
256,192,155476,1,8,0:0:0:0:
256,192,155884,1,0,0:0:0:0:
256,192,156292,1,8,0:0:0:0:
256,192,156700,1,8,0:0:0:0:
256,192,156904,1,0,0:0:0:0:
256,192,157006,1,0,0:0:0:0:
256,192,157108,1,8,0:0:0:0:
256,192,157312,1,0,0:0:0:0:
256,192,157516,1,8,0:0:0:0:
256,192,157720,1,8,0:0:0:0:
256,192,157925,1,0,0:0:0:0:
256,192,158027,1,0,0:0:0:0:
256,192,158129,1,8,0:0:0:0:
256,192,158231,1,8,0:0:0:0:
256,192,158333,1,0,0:0:0:0:
256,192,158537,1,0,0:0:0:0:
256,192,158741,1,12,0:0:0:0:
256,192,158945,1,4,0:0:0:0:
256,192,159353,1,0,0:0:0:0:
256,192,159557,1,12,0:0:0:0:
256,192,159761,1,4,0:0:0:0:
256,192,160169,1,8,0:0:0:0:
256,192,160271,1,8,0:0:0:0:
256,192,160373,1,8,0:0:0:0:
256,192,160578,1,0,0:0:0:0:
256,192,160782,1,8,0:0:0:0:
256,192,160986,1,0,0:0:0:0:
256,192,161394,1,0,0:0:0:0:
256,192,161598,1,8,0:0:0:0:
256,192,161802,1,8,0:0:0:0:
256,192,161904,1,8,0:0:0:0:
256,192,162006,1,0,0:0:0:0:
256,192,162210,1,0,0:0:0:0:
256,192,162414,1,8,0:0:0:0:
256,192,162516,1,8,0:0:0:0:
256,192,162618,1,8,0:0:0:0:
256,192,162822,1,8,0:0:0:0:
256,192,162925,1,8,0:0:0:0:
256,192,163027,1,0,0:0:0:0:
256,192,163231,1,0,0:0:0:0:
256,192,163435,1,8,0:0:0:0:
256,192,163843,1,8,0:0:0:0:
256,192,164047,1,0,0:0:0:0:
256,192,164251,1,8,0:0:0:0:
256,192,164353,1,8,0:0:0:0:
256,192,164455,1,8,0:0:0:0:
256,192,164659,1,0,0:0:0:0:
256,192,164863,1,8,0:0:0:0:
256,192,164965,1,8,0:0:0:0:
256,192,165067,1,0,0:0:0:0:
256,192,165271,1,12,0:0:0:0:
256,192,165680,1,8,0:0:0:0:
256,192,165884,1,0,0:0:0:0:
256,192,166088,1,8,0:0:0:0:
256,192,166190,1,8,0:0:0:0:
256,192,166292,1,8,0:0:0:0:
256,192,166496,1,0,0:0:0:0:
256,192,166700,1,8,0:0:0:0:
256,192,166802,1,8,0:0:0:0:
256,192,166904,1,0,0:0:0:0:
256,192,167108,1,0,0:0:0:0:
256,192,167312,1,8,0:0:0:0:
256,192,167516,1,0,0:0:0:0:
256,192,167618,1,0,0:0:0:0:
256,192,167720,1,0,0:0:0:0:
256,192,167925,1,12,0:0:0:0:
256,192,168129,1,4,0:0:0:0:
256,192,168333,1,12,0:0:0:0:
256,192,168537,1,12,0:0:0:0:
256,192,168945,1,0,0:0:0:0:
256,192,169149,1,8,0:0:0:0:
256,192,169353,1,0,0:0:0:0:
256,192,169455,1,0,0:0:0:0:
256,192,169557,1,0,0:0:0:0:
256,192,169761,1,8,0:0:0:0:
256,192,169965,1,0,0:0:0:0:
256,192,170067,1,0,0:0:0:0:
256,192,170169,1,8,0:0:0:0:
256,192,170578,1,0,0:0:0:0:
256,192,170782,1,8,0:0:0:0:
256,192,170986,1,0,0:0:0:0:
256,192,171190,1,8,0:0:0:0:
256,192,171292,1,8,0:0:0:0:
256,192,171394,1,0,0:0:0:0:
256,192,171598,1,8,0:0:0:0:
256,192,171802,1,4,0:0:0:0:
256,192,172006,1,8,0:0:0:0:
256,192,172210,1,0,0:0:0:0:
256,192,172414,1,0,0:0:0:0:
256,192,172516,1,0,0:0:0:0:
256,192,172618,1,8,0:0:0:0:
256,192,172822,1,0,0:0:0:0:
256,192,172925,1,0,0:0:0:0:
256,192,173027,1,8,0:0:0:0:
256,192,173129,1,8,0:0:0:0:
256,192,173231,1,8,0:0:0:0:
256,192,173435,1,4,0:0:0:0:
256,192,173843,1,0,0:0:0:0:
256,192,174047,1,8,0:0:0:0:
256,192,174149,1,8,0:0:0:0:
256,192,174251,1,0,0:0:0:0:
256,192,174455,1,0,0:0:0:0:
256,192,174659,1,8,0:0:0:0:
256,192,174863,1,0,0:0:0:0:
256,192,175271,1,0,0:0:0:0:
256,192,175476,1,8,0:0:0:0:
256,192,175680,1,8,0:0:0:0:
256,192,175884,1,0,0:0:0:0:
256,192,176088,1,8,0:0:0:0:
256,192,176292,1,0,0:0:0:0:
256,192,176496,1,8,0:0:0:0:
256,192,176598,1,8,0:0:0:0:
256,192,176700,1,0,0:0:0:0:
256,192,177108,1,0,0:0:0:0:
256,192,177312,1,0,0:0:0:0:
256,192,177414,1,0,0:0:0:0:
256,192,177516,1,8,0:0:0:0:
256,192,177720,1,0,0:0:0:0:
256,192,177925,1,8,0:0:0:0:
256,192,178129,1,0,0:0:0:0:
256,192,178333,1,0,0:0:0:0:
256,192,178537,1,8,0:0:0:0:
256,192,178945,1,8,0:0:0:0:
256,192,179047,1,8,0:0:0:0:
256,192,179149,1,0,0:0:0:0:
256,192,179353,1,0,0:0:0:0:
256,192,179557,1,8,0:0:0:0:
256,192,179965,1,12,0:0:0:0:
256,192,180169,1,0,0:0:0:0:
256,192,180373,1,8,0:0:0:0:
256,192,180578,1,0,0:0:0:0:
256,192,180680,1,0,0:0:0:0:
256,192,180782,1,0,0:0:0:0:
256,192,180986,1,0,0:0:0:0:
256,192,181190,1,8,0:0:0:0:
256,192,181394,1,0,0:0:0:0:
256,192,181802,1,8,0:0:0:0:
256,192,182006,1,0,0:0:0:0:
256,192,182210,1,0,0:0:0:0:
256,192,182312,1,0,0:0:0:0:
256,192,182414,1,8,0:0:0:0:
256,192,182618,1,0,0:0:0:0:
256,192,182822,1,8,0:0:0:0:
256,192,183027,1,0,0:0:0:0:
256,192,183231,1,8,0:0:0:0:
256,192,183333,1,8,0:0:0:0:
256,192,183435,1,0,0:0:0:0:
256,192,183639,1,8,0:0:0:0:
256,192,183843,1,0,0:0:0:0:
256,192,184047,1,8,0:0:0:0:
256,192,184149,1,8,0:0:0:0:
256,192,184251,1,0,0:0:0:0:
256,192,184455,1,8,0:0:0:0:
256,192,184659,1,0,0:0:0:0:
256,192,184863,1,8,0:0:0:0:
256,192,185271,1,0,0:0:0:0:
256,192,185476,1,8,0:0:0:0:
256,192,185680,1,0,0:0:0:0:
256,192,185782,1,0,0:0:0:0:
256,192,185884,1,8,0:0:0:0:
256,192,185986,1,8,0:0:0:0:
256,192,186088,1,0,0:0:0:0:
256,192,186292,1,0,0:0:0:0:
256,192,186496,1,12,0:0:0:0:
256,192,186700,1,0,0:0:0:0:
256,192,186802,1,0,0:0:0:0:
256,192,186904,1,8,0:0:0:0:
256,192,187108,1,0,0:0:0:0:
256,192,187210,1,0,0:0:0:0:
256,192,187312,1,8,0:0:0:0:
256,192,187516,1,0,0:0:0:0:
256,192,187618,1,0,0:0:0:0:
256,192,187720,1,8,0:0:0:0:
256,192,187925,1,0,0:0:0:0:
256,192,188027,1,0,0:0:0:0:
256,192,188129,1,8,0:0:0:0:
256,192,188537,1,8,0:0:0:0:
256,192,188741,1,0,0:0:0:0:
256,192,188843,1,0,0:0:0:0:
256,192,188945,1,0,0:0:0:0:
256,192,189149,1,8,0:0:0:0:
256,192,189353,1,0,0:0:0:0:
256,192,189557,1,8,0:0:0:0:
256,192,189659,1,8,0:0:0:0:
256,192,189761,1,0,0:0:0:0:
256,192,189965,1,8,0:0:0:0:
256,192,190169,1,0,0:0:0:0:
256,192,190373,1,8,0:0:0:0:
256,192,190782,1,8,0:0:0:0:
256,192,190986,1,0,0:0:0:0:
256,192,191088,1,0,0:0:0:0:
256,192,191190,1,8,0:0:0:0:
256,192,191394,1,0,0:0:0:0:
256,192,191598,1,0,0:0:0:0:
256,192,191802,1,8,0:0:0:0:
256,192,192006,1,8,0:0:0:0:
256,192,192414,1,8,0:0:0:0:
256,192,192618,1,0,0:0:0:0:
256,192,192822,1,0,0:0:0:0:
256,192,193027,1,12,0:0:0:0:
256,192,193231,1,0,0:0:0:0:
256,192,193435,1,8,0:0:0:0:
256,192,193639,1,0,0:0:0:0:
256,192,193843,1,8,0:0:0:0:
256,192,194047,1,0,0:0:0:0:
256,192,194251,1,8,0:0:0:0:
256,192,194455,1,0,0:0:0:0:
256,192,194863,1,8,0:0:0:0:
256,192,195067,1,0,0:0:0:0:
256,192,195271,1,8,0:0:0:0:
256,192,195373,1,8,0:0:0:0:
256,192,195476,1,8,0:0:0:0:
256,192,195680,1,0,0:0:0:0:
256,192,195884,1,8,0:0:0:0:
256,192,196088,1,0,0:0:0:0:
256,192,196292,1,12,0:0:0:0:
256,192,196496,1,0,0:0:0:0:
256,192,196598,1,0,0:0:0:0:
256,192,196700,1,8,0:0:0:0:
256,192,196802,1,8,0:0:0:0:
256,192,196904,1,0,0:0:0:0:
256,192,197108,1,8,0:0:0:0:
256,192,197210,1,0,0:0:0:0:
256,192,197312,1,8,0:0:0:0:
256,192,197516,1,0,0:0:0:0:
256,192,197720,1,12,0:0:0:0:
256,192,198129,1,0,0:0:0:0:
256,192,198333,1,8,0:0:0:0:
256,192,198537,1,8,0:0:0:0:
256,192,198639,1,8,0:0:0:0:
256,192,198741,1,0,0:0:0:0:
256,192,198945,1,8,0:0:0:0:
256,192,199149,1,0,0:0:0:0:
256,192,199251,1,0,0:0:0:0:
256,192,199353,1,8,0:0:0:0:
256,192,199557,1,4,0:0:0:0:
256,192,200373,1,8,0:0:0:0:
256,192,200782,1,8,0:0:0:0:
256,192,200986,1,0,0:0:0:0:
256,192,202210,1,0,0:0:0:0:
256,192,202414,1,0,0:0:0:0:
256,192,202618,1,8,0:0:0:0:
256,192,203231,1,0,0:0:0:0:
256,192,203639,1,8,0:0:0:0:
256,192,204047,1,0,0:0:0:0:
256,192,204251,1,8,0:0:0:0:
256,192,204659,1,0,0:0:0:0:
256,192,204863,1,12,0:0:0:0:
256,192,205271,1,4,0:0:0:0:
256,192,205578,1,0,0:0:0:0:
256,192,205680,1,8,0:0:0:0:
256,192,205884,1,8,0:0:0:0:
256,192,206088,1,4,0:0:0:0:
256,192,206496,1,8,0:0:0:0:
256,192,206904,1,8,0:0:0:0:
256,192,207108,1,0,0:0:0:0:
256,192,207312,1,8,0:0:0:0:
256,192,207516,1,4,0:0:0:0:
256,192,207720,1,8,0:0:0:0:
256,192,208129,1,8,0:0:0:0:
256,192,208333,1,0,0:0:0:0:
256,192,208435,1,8,0:0:0:0:
256,192,208537,1,8,0:0:0:0:
256,192,208741,1,0,0:0:0:0:
256,192,208945,1,8,0:0:0:0:
256,192,209149,1,0,0:0:0:0:
256,192,209353,1,12,0:0:0:0:
256,192,209761,1,8,0:0:0:0:
256,192,209965,1,4,0:0:0:0:
256,192,210373,1,8,0:0:0:0:
256,192,210578,1,0,0:0:0:0:
256,192,210782,1,12,0:0:0:0:
256,192,211190,1,0,0:0:0:0:
256,192,211394,1,8,0:0:0:0:
256,192,211598,1,4,0:0:0:0:
256,192,212006,1,8,0:0:0:0:
256,192,212210,1,0,0:0:0:0:
256,192,212414,1,8,0:0:0:0:
256,192,212618,1,0,0:0:0:0:
256,192,213027,1,0,0:0:0:0:
256,192,213231,1,8,0:0:0:0:
256,192,213435,1,0,0:0:0:0:
256,192,213639,1,8,0:0:0:0:
256,192,213843,1,0,0:0:0:0:
256,192,213945,1,0,0:0:0:0:
256,192,214047,1,8,0:0:0:0:
256,192,214455,1,8,0:0:0:0:
256,192,214659,1,0,0:0:0:0:
256,192,214863,1,12,0:0:0:0:
256,192,215067,1,0,0:0:0:0:
256,192,215271,1,8,0:0:0:0:
256,192,215476,1,8,0:0:0:0:
256,192,215578,1,8,0:0:0:0:
256,192,215680,1,8,0:0:0:0:
256,192,215884,1,4,0:0:0:0:
256,192,216088,1,8,0:0:0:0:
256,192,216496,1,0,0:0:0:0:
256,192,216700,1,0,0:0:0:0:
256,192,216904,1,8,0:0:0:0:
256,192,217312,1,8,0:0:0:0:
256,192,217720,1,8,0:0:0:0:
256,192,217925,1,0,0:0:0:0:
256,192,218129,1,8,0:0:0:0:
256,192,218537,1,8,0:0:0:0:
256,192,218741,1,0,0:0:0:0:
256,192,218945,1,8,0:0:0:0:
256,192,219149,1,0,0:0:0:0:
256,192,219557,1,8,0:0:0:0:
256,192,219965,1,8,0:0:0:0:
256,192,220373,1,8,0:0:0:0:
256,192,220578,1,0,0:0:0:0:
256,192,220986,1,0,0:0:0:0:
256,192,221190,1,8,0:0:0:0:
256,192,221394,1,0,0:0:0:0:
256,192,221802,1,0,0:0:0:0:
256,192,222006,1,8,0:0:0:0:
256,192,222210,1,0,0:0:0:0:
256,192,222414,1,12,0:0:0:0:
256,192,222618,1,0,0:0:0:0:
256,192,222822,1,0,0:0:0:0:
256,192,223027,1,8,0:0:0:0:
256,192,223435,1,0,0:0:0:0:
256,192,223639,1,0,0:0:0:0:
256,192,223843,1,8,0:0:0:0:
256,192,224251,1,8,0:0:0:0:
256,192,224455,1,0,0:0:0:0:
256,192,224659,1,8,0:0:0:0:
256,192,225067,1,8,0:0:0:0:
256,192,225271,1,0,0:0:0:0:
256,192,225680,1,0,0:0:0:0:
256,192,226088,1,8,0:0:0:0:
256,192,226496,1,8,0:0:0:0:
256,192,226904,1,0,0:0:0:0:
256,192,227108,1,8,0:0:0:0:
256,192,227312,1,0,0:0:0:0:
256,192,227720,1,0,0:0:0:0:
256,192,227925,1,0,0:0:0:0:
256,192,228129,1,12,0:0:0:0:
256,192,228333,1,0,0:0:0:0:
256,192,228435,1,0,0:0:0:0:
256,192,228537,1,8,0:0:0:0:
256,192,228639,1,8,0:0:0:0:
256,192,228741,1,0,0:0:0:0:
256,192,228945,1,12,0:0:0:0:
256,192,229149,1,4,0:0:0:0:
256,192,229557,1,0,0:0:0:0:
256,192,229761,1,12,0:0:0:0:
256,192,229965,1,4,0:0:0:0:
256,192,230373,1,8,0:0:0:0:
256,192,230476,1,8,0:0:0:0:
256,192,230578,1,8,0:0:0:0:
256,192,230782,1,0,0:0:0:0:
256,192,230986,1,8,0:0:0:0:
256,192,231190,1,0,0:0:0:0:
256,192,231598,1,0,0:0:0:0:
256,192,231802,1,8,0:0:0:0:
256,192,232006,1,8,0:0:0:0:
256,192,232108,1,8,0:0:0:0:
256,192,232210,1,0,0:0:0:0:
256,192,232414,1,0,0:0:0:0:
256,192,232618,1,8,0:0:0:0:
256,192,232720,1,8,0:0:0:0:
256,192,232822,1,8,0:0:0:0:
256,192,233027,1,8,0:0:0:0:
256,192,233129,1,8,0:0:0:0:
256,192,233231,1,0,0:0:0:0:
256,192,233435,1,0,0:0:0:0:
256,192,233639,1,8,0:0:0:0:
256,192,233741,1,8,0:0:0:0:
256,192,233843,1,8,0:0:0:0:
256,192,234047,1,0,0:0:0:0:
256,192,234251,1,8,0:0:0:0:
256,192,234455,1,0,0:0:0:0:
256,192,234557,1,0,0:0:0:0:
256,192,234659,1,8,0:0:0:0:
256,192,234863,1,0,0:0:0:0:
256,192,235067,1,8,0:0:0:0:
256,192,235169,1,8,0:0:0:0:
256,192,235271,1,0,0:0:0:0:
256,192,235476,1,12,0:0:0:0:
256,192,235884,1,8,0:0:0:0:
256,192,236088,1,0,0:0:0:0:
256,192,236292,1,8,0:0:0:0:
256,192,236394,1,8,0:0:0:0:
256,192,236496,1,8,0:0:0:0:
256,192,236700,1,0,0:0:0:0:
256,192,236904,1,8,0:0:0:0:
256,192,237006,1,8,0:0:0:0:
256,192,237108,1,0,0:0:0:0:
256,192,237312,1,0,0:0:0:0:
256,192,237516,1,8,0:0:0:0:
256,192,237720,1,0,0:0:0:0:
256,192,237822,1,0,0:0:0:0:
256,192,237925,1,0,0:0:0:0:
256,192,238129,1,12,0:0:0:0:
256,192,238333,1,4,0:0:0:0:
256,192,238537,1,12,0:0:0:0:
256,192,238741,1,12,0:0:0:0:
256,192,239149,1,0,0:0:0:0:
256,192,239353,1,8,0:0:0:0:
256,192,239557,1,0,0:0:0:0:
256,192,239659,1,0,0:0:0:0:
256,192,239761,1,0,0:0:0:0:
256,192,239965,1,8,0:0:0:0:
256,192,240169,1,0,0:0:0:0:
256,192,240271,1,0,0:0:0:0:
256,192,240373,1,8,0:0:0:0:
256,192,240782,1,0,0:0:0:0:
256,192,240986,1,8,0:0:0:0:
256,192,241190,1,0,0:0:0:0:
256,192,241394,1,8,0:0:0:0:
256,192,241496,1,8,0:0:0:0:
256,192,241598,1,0,0:0:0:0:
256,192,241802,1,8,0:0:0:0:
256,192,242006,1,4,0:0:0:0:
256,192,242210,1,8,0:0:0:0:
256,192,242414,1,0,0:0:0:0:
256,192,242618,1,0,0:0:0:0:
256,192,242720,1,0,0:0:0:0:
256,192,242822,1,8,0:0:0:0:
256,192,243027,1,0,0:0:0:0:
256,192,243129,1,0,0:0:0:0:
256,192,243231,1,8,0:0:0:0:
256,192,243333,1,8,0:0:0:0:
256,192,243435,1,8,0:0:0:0:
256,192,243639,1,4,0:0:0:0:
256,192,244047,1,8,0:0:0:0:
256,192,244251,1,0,0:0:0:0:
256,192,244455,1,8,0:0:0:0:
256,192,244557,1,8,0:0:0:0:
256,192,244659,1,0,0:0:0:0:
256,192,244863,1,0,0:0:0:0:
256,192,245067,1,8,0:0:0:0:
256,192,245476,1,0,0:0:0:0:
256,192,245680,1,8,0:0:0:0:
256,192,245884,1,0,0:0:0:0:
256,192,245986,1,0,0:0:0:0:
256,192,246088,1,0,0:0:0:0:
256,192,246292,1,8,0:0:0:0:
256,192,246496,1,0,0:0:0:0:
256,192,246700,1,8,0:0:0:0:
256,192,246904,1,0,0:0:0:0:
256,192,247108,1,0,0:0:0:0:
256,192,247312,1,8,0:0:0:0:
256,192,247414,1,8,0:0:0:0:
256,192,247516,1,8,0:0:0:0:
256,192,247720,1,0,0:0:0:0:
256,192,247822,1,0,0:0:0:0:
256,192,247925,1,0,0:0:0:0:
256,192,248129,1,8,0:0:0:0:
256,192,248333,1,0,0:0:0:0:
256,192,248741,1,8,0:0:0:0:
256,192,248945,1,0,0:0:0:0:
256,192,249149,1,8,0:0:0:0:
256,192,249251,1,8,0:0:0:0:
256,192,249353,1,0,0:0:0:0:
256,192,249557,1,8,0:0:0:0:
256,192,249761,1,0,0:0:0:0:
256,192,249863,1,0,0:0:0:0:
256,192,249965,1,8,0:0:0:0:
256,192,250169,1,12,0:0:0:0:
256,192,250578,1,8,0:0:0:0:
256,192,250782,1,0,0:0:0:0:
256,192,250884,1,0,0:0:0:0:
256,192,250986,1,8,0:0:0:0:
256,192,251190,1,0,0:0:0:0:
256,192,251394,1,8,0:0:0:0:
256,192,251598,1,8,0:0:0:0:
256,192,251700,1,8,0:0:0:0:
256,192,251802,1,0,0:0:0:0:
256,192,252006,1,0,0:0:0:0:
256,192,252210,1,8,0:0:0:0:
256,192,252414,1,0,0:0:0:0:
256,192,252516,1,0,0:0:0:0:
256,192,252618,1,0,0:0:0:0:
256,192,252822,1,0,0:0:0:0:
256,192,253027,1,8,0:0:0:0:
256,192,253231,1,0,0:0:0:0:
256,192,253435,1,12,0:0:0:0:
256,192,253843,1,8,0:0:0:0:
256,192,254047,1,0,0:0:0:0:
256,192,254251,1,8,0:0:0:0:
256,192,254353,1,0,0:0:0:0:
256,192,254455,1,8,0:0:0:0:
256,192,254659,1,0,0:0:0:0:
256,192,254863,1,12,0:0:0:0:
256,192,255271,1,0,0:0:0:0:
256,192,255476,1,8,0:0:0:0:
256,192,255680,1,0,0:0:0:0:
256,192,255782,1,0,0:0:0:0:
256,192,255884,1,8,0:0:0:0:
256,192,256088,1,0,0:0:0:0:
256,192,256190,1,0,0:0:0:0:
256,192,256292,1,8,0:0:0:0:
256,192,256394,1,8,0:0:0:0:
256,192,256496,1,0,0:0:0:0:
256,192,256700,1,12,0:0:0:0:
256,192,256904,1,0,0:0:0:0:
256,192,257108,1,8,0:0:0:0:
256,192,257312,1,0,0:0:0:0:
256,192,257516,1,8,0:0:0:0:
256,192,257618,1,8,0:0:0:0:
256,192,257720,1,0,0:0:0:0:
256,192,257925,1,8,0:0:0:0:
256,192,258129,1,0,0:0:0:0:
256,192,258537,1,0,0:0:0:0:
256,192,258741,1,8,0:0:0:0:
256,192,258945,1,0,0:0:0:0:
256,192,259047,1,0,0:0:0:0:
256,192,259149,1,0,0:0:0:0:
256,192,259353,1,8,0:0:0:0:
256,192,259557,1,0,0:0:0:0:
256,192,259761,1,8,0:0:0:0:
256,192,259965,1,4,0:0:0:0:
256,192,260373,1,8,0:0:0:0:
256,192,260578,1,0,0:0:0:0:
256,192,260782,1,8,0:0:0:0:
256,192,260884,1,8,0:0:0:0:
256,192,260986,1,0,0:0:0:0:
256,192,261190,1,0,0:0:0:0:
256,192,261394,1,8,0:0:0:0:
256,192,261802,1,8,0:0:0:0:
256,192,262006,1,0,0:0:0:0:
256,192,262210,1,8,0:0:0:0:
256,192,262414,1,0,0:0:0:0:
256,192,262516,1,0,0:0:0:0:
256,192,262618,1,0,0:0:0:0:
256,192,262720,1,0,0:0:0:0:
256,192,262822,1,8,0:0:0:0:
256,192,263027,1,0,0:0:0:0:
256,192,263231,1,12,0:0:0:0:
256,192,263435,1,0,0:0:0:0:
256,192,263639,1,8,0:0:0:0:
256,192,263843,1,0,0:0:0:0:
256,192,264047,1,8,0:0:0:0:
256,192,264149,1,8,0:0:0:0:
256,192,264251,1,0,0:0:0:0:
256,192,264455,1,8,0:0:0:0:
256,192,264659,1,0,0:0:0:0:
256,192,265067,1,0,0:0:0:0:
256,192,265271,1,8,0:0:0:0:
256,192,265476,1,0,0:0:0:0:
256,192,265578,1,0,0:0:0:0:
256,192,265680,1,0,0:0:0:0:
256,192,265884,1,8,0:0:0:0:
256,192,266088,1,8,0:0:0:0:
256,192,266190,1,0,0:0:0:0:
256,192,266292,1,8,0:0:0:0:
256,192,266496,1,4,0:0:0:0:
256,192,266904,1,8,0:0:0:0:
256,192,267108,1,0,0:0:0:0:
256,192,267312,1,8,0:0:0:0:
256,192,267414,1,8,0:0:0:0:
256,192,267516,1,8,0:0:0:0:
256,192,267720,1,0,0:0:0:0:
256,192,267925,1,8,0:0:0:0:
256,192,268027,1,8,0:0:0:0:
256,192,268129,1,0,0:0:0:0:
256,192,268333,1,8,0:0:0:0:
256,192,268537,1,0,0:0:0:0:
256,192,268741,1,8,0:0:0:0:
256,192,268945,1,0,0:0:0:0:
256,192,269047,1,0,0:0:0:0:
256,192,269149,1,8,0:0:0:0:
256,192,269251,1,8,0:0:0:0:
256,192,269353,1,0,0:0:0:0:
256,192,269557,1,8,0:0:0:0:
256,192,269761,1,0,0:0:0:0:
256,192,270169,1,0,0:0:0:0:
256,192,270578,1,0,0:0:0:0:
256,192,270986,1,0,0:0:0:0:
256,192,271190,1,8,0:0:0:0:
256,192,271598,1,8,0:0:0:0:
256,192,271802,1,0,0:0:0:0:
256,192,272210,1,0,0:0:0:0:
256,192,272414,1,8,0:0:0:0:
256,192,272618,1,0,0:0:0:0:
256,192,272822,1,8,0:0:0:0:
256,192,273027,1,0,0:0:0:0:
256,192,273435,1,0,0:0:0:0:
256,192,273843,1,0,0:0:0:0:
256,192,274251,1,0,0:0:0:0:
256,192,274455,1,8,0:0:0:0:
256,192,274863,1,8,0:0:0:0:
256,192,275067,1,0,0:0:0:0:
256,192,275271,1,8,0:0:0:0:
256,192,275476,1,0,0:0:0:0:
256,192,275578,1,0,0:0:0:0:
256,192,275680,1,0,0:0:0:0:
256,192,275884,1,0,0:0:0:0:
256,192,276088,1,8,0:0:0:0:
256,192,276292,1,0,0:0:0:0:
256,192,276700,1,0,0:0:0:0:
256,192,277108,1,0,0:0:0:0:
256,192,277516,1,0,0:0:0:0:
256,192,277720,1,8,0:0:0:0:
256,192,278129,1,8,0:0:0:0:
256,192,278333,1,0,0:0:0:0:
256,192,278741,1,0,0:0:0:0:
256,192,278945,1,8,0:0:0:0:
256,192,279149,1,0,0:0:0:0:
256,192,279353,1,8,0:0:0:0:
256,192,279557,1,0,0:0:0:0:
256,192,279965,1,0,0:0:0:0:
256,192,280373,1,0,0:0:0:0:
256,192,280782,1,0,0:0:0:0:
256,192,280986,1,8,0:0:0:0:
