osu file format v14

[General]
AudioFilename: audio.mp3
AudioLeadIn: 0
PreviewTime: 72477
Countdown: 0
SampleSet: Soft
StackLeniency: 0.7
Mode: 0
LetterboxInBreaks: 0
WidescreenStoryboard: 0

[Editor]
DistanceSpacing: 1
BeatDivisor: 4
GridSize: 32
TimelineZoom: 1

[Metadata]
Title:Fatally
TitleUnicode:Fatally
Artist:KOTOKO
ArtistUnicode:KOTOKO
Creator:228
Version:Agony
Source:DUEL SAVIOR
Tags:japanese video game pop eroge visual novel vn aye1337 戯画 GIGA TEAM BALDRHEAD I've sound デュエルセイヴァー
BeatmapID:3910319
BeatmapSetID:1897287

[Difficulty]
HPDrainRate:6
CircleSize:4
OverallDifficulty:8
ApproachRate:8.3
SliderMultiplier:1.4
SliderTickRate:1

[Events]
//Background and Video events
0,0,"skull emoji.jpg",0,0
//Break Periods
//Storyboard Layer 0 (Background)
//Storyboard Layer 1 (Fail)
//Storyboard Layer 2 (Pass)
//Storyboard Layer 3 (Foreground)
//Storyboard Layer 4 (Overlay)
//Storyboard Sound Samples

[TimingPoints]
477,428.571428571429,4,2,0,70,1,0
7334,-90.9090909090909,4,2,0,73,0,0
14191,-76.9230769230769,4,2,0,75,0,0
29619,-90.9090909090909,4,2,0,70,0,0
43334,-90.9090909090909,4,2,0,73,0,0
57048,-90.9090909090909,4,2,0,76,0,0
72048,-181.818181818181,4,2,0,70,0,0
72477,-71.4285714285714,4,2,0,80,0,1
99905,-76.9230769230769,4,2,0,75,0,0
115334,-90.9090909090909,4,2,0,70,0,0
129048,-90.9090909090909,4,2,0,76,0,0
144048,-90.9090909090909,4,2,0,70,0,0
144477,-71.4285714285714,4,2,0,80,0,1
171905,-100,4,2,0,65,0,0
183905,-90.9090909090909,4,2,0,72,0,0
187334,-90.9090909090909,4,2,0,70,0,0
197619,-90.9090909090909,4,2,0,73,0,0
198477,-90.9090909090909,4,2,0,75,0,0
201048,-66.6666666666667,4,2,0,80,0,1
214762,-83.3333333333333,4,2,0,75,0,0
228477,-83.3333333333333,4,2,0,80,0,0

[Colours]
Combo1 : 247,214,172
Combo2 : 119,225,156
Combo3 : 137,125,219
Combo4 : 160,197,186
Combo5 : 181,89,87

[HitObjects]
71,132,477,5,4,2:1:0:0:
201,329,1548,1,0,0:0:0:0:
268,290,1762,1,0,0:0:0:0:
286,216,1977,1,0,0:0:0:0:
265,135,2191,6,0,B|264:83|256:2|256:2,2,105,4|0|0,3:2|0:0|0:0,0:0:0:0:
471,86,3262,1,0,0:0:0:0:
404,125,3477,1,0,0:0:0:0:
386,199,3691,1,2,2:2:0:0:
407,280,3905,6,0,P|408:333|415:413,2,105,4|0|0,3:2|0:0|0:0,0:0:0:0:
498,222,4762,2,0,B|400:239|280:243|280:243,1,210,2|0,2:2|3:3,0:0:0:0:
219,194,5619,5,4,2:2:0:0:
219,194,6477,1,2,3:2:0:0:
169,132,6905,2,0,B|171:80|169:34|169:34,1,70,0|0,3:3|0:0,0:0:0:0:
80,229,7334,6,0,B|83:308|67:400|67:400,1,154.000004699707,4|0,2:2|3:3,0:0:0:0:
116,313,7977,1,0,0:0:0:0:
176,264,8191,2,0,P|235:256|299:248,1,115.50000352478,2|0,2:2|0:0,0:0:0:0:
312,223,8619,2,0,P|305:159|300:123,1,77.0000023498536,0|0,3:3|0:0,0:0:0:0:
469,334,9048,6,0,B|391:335|297:357|297:357,1,154.000004699707,4|0,3:2|0:0,0:0:0:0:
386,310,9691,1,0,0:0:0:0:
437,241,9905,2,0,B|431:203|427:158|427:158,1,77.0000023498536,2|0,2:2|0:0,0:0:0:0:
326,72,10334,2,0,B|328:111|335:149|335:149,1,77.0000023498536,0|0,3:3|0:0,0:0:0:0:
242,333,10762,5,4,3:2:0:0:
165,300,10977,1,0,0:0:0:0:
165,300,11084,1,0,3:3:0:0:
165,300,11191,1,0,0:0:0:0:
100,354,11405,1,2,2:2:0:0:
6,183,11619,6,0,B|12:125|7:41|7:41,1,115.50000352478,4|0,3:2|0:0,0:0:0:0:
36,45,12048,2,0,P|84:47|131:46,1,77.0000023498536,0|2,3:3|2:2,0:0:0:0:
223,81,12477,1,4,3:2:0:0:
163,146,12691,1,0,0:0:0:0:
163,146,12798,1,2,2:3:0:0:
163,146,12905,1,0,3:3:0:0:
303,112,13119,1,0,3:3:0:0:
305,92,13227,1,0,0:0:0:0:
308,73,13334,1,0,3:3:0:0:
312,55,13441,1,2,2:3:0:0:
318,36,13548,1,0,0:0:0:0:
324,18,13655,1,2,2:3:0:0:
332,0,13762,1,4,3:3:0:0:
401,84,13977,1,0,3:3:0:0:
327,245,14191,6,0,B|281:249|236:259|236:259,1,90.9999958343508,4|2,1:1|2:3,0:0:0:0:
423,381,14619,2,0,B|467:370|513:366|513:366,1,90.9999958343508,8|2,3:1|2:2,0:0:0:0:
201,344,15048,2,0,B|110:261|191:174|191:174,1,181.999991668702,0|8,1:1|3:1,0:0:0:0:
395,110,15691,2,0,B|385:173|385:173|403:220|403:220|384:314,1,181.999991668702,2|2,2:2|2:3,0:0:0:0:
332,384,16334,1,8,3:1:0:0:
280,273,16548,1,2,2:2:0:0:
257,269,16655,1,0,0:0:0:0:
235,265,16762,1,0,1:1:0:0:
212,261,16869,1,0,0:0:0:0:
190,257,16977,1,0,0:0:0:0:
90,128,17191,2,0,P|89:187|85:232,1,90.9999958343508,8|0,3:1|0:0,0:0:0:0:
157,336,17619,5,2,1:3:0:0:
56,334,17834,1,0,0:0:0:0:
56,334,17941,1,0,0:0:0:0:
56,334,18048,1,8,3:1:0:0:
238,384,18262,2,0,B|291:336|296:256|238:180|238:180,1,181.999991668702,2|0,2:2|0:0,0:0:0:0:
262,97,18905,2,0,B|284:143|336:144|336:144,1,90.9999958343508,8|0,3:1|0:0,0:0:0:0:
397,40,19334,6,0,P|302:22|191:-10,1,181.999991668702,2|8,1:2|3:1,0:0:0:0:
203,139,19977,1,2,2:3:0:0:
236,131,20084,1,0,0:0:0:0:
269,125,20191,1,0,1:1:0:0:
303,121,20298,1,0,0:0:0:0:
337,117,20405,1,0,0:0:0:0:
316,266,20619,1,8,3:1:0:0:
236,236,20834,1,0,0:0:0:0:
228,384,21048,6,0,P|293:366|342:356,1,90.9999958343508,4|2,1:2|2:2,0:0:0:0:
302,128,21477,2,0,P|257:138|214:151,1,90.9999958343508,8|2,3:1|2:3,0:0:0:0:
388,303,21905,2,0,B|449:263|458:185|420:124|420:124,1,181.999991668702,2|8,1:2|3:1,0:0:0:0:
150,208,22548,2,0,B|138:283|138:283|155:317|155:317|142:402,2,181.999991668702,2|2|2,2:2|2:3|2:2,0:0:0:0:
103,89,23619,1,0,1:1:0:0:
103,89,23727,1,0,0:0:0:0:
103,89,23834,1,2,2:2:0:0:
84,172,24048,1,8,3:1:0:0:
187,74,24262,1,0,0:0:0:0:
187,74,24477,5,2,1:3:0:0:
42,47,24691,1,2,2:2:0:0:
42,47,24798,1,0,0:0:0:0:
42,47,24905,1,8,3:1:0:0:
104,93,25119,1,2,2:3:0:0:
95,245,25334,6,0,P|94:305|92:338,1,90.9999958343508,0|2,1:1|2:2,0:0:0:0:
248,359,25762,1,8,3:1:0:0:
177,296,25977,1,2,2:3:0:0:
331,260,26191,6,0,B|360:188|346:122|306:76|306:76,1,181.999991668702,2|8,1:2|3:1,0:0:0:0:
231,48,26834,1,0,0:0:0:0:
376,155,27048,1,0,1:1:0:0:
376,155,27155,1,0,0:0:0:0:
376,155,27262,1,0,0:0:0:0:
448,23,27477,2,0,P|450:86|449:131,1,90.9999958343508,8|0,3:1|0:0,0:0:0:0:
394,311,27905,5,2,1:2:0:0:
418,287,28012,1,0,3:3:0:0:
446,268,28119,1,0,3:3:0:0:
478,256,28227,1,0,3:3:0:0:
512,251,28334,1,8,3:1:0:0:
447,384,28548,5,0,3:3:0:0:
305,210,28762,1,0,1:1:0:0:
305,210,28869,1,0,3:3:0:0:
305,210,28977,1,0,3:3:0:0:
100,268,29191,1,8,3:1:0:0:
100,268,29298,1,0,3:3:0:0:
100,268,29405,1,0,3:3:0:0:
253,384,29619,5,4,1:1:0:0:
253,384,30048,1,10,2:2:0:0:
324,298,30262,2,0,B|326:238|320:155|320:155,1,115.50000352478
307,160,30691,2,0,B|256:162|208:155|208:155,1,77.0000023498536,2|8,2:2|2:2,0:0:0:0:
242,270,31119,1,0,0:0:0:0:
409,269,31334,6,0,B|454:265|495:268|495:268,1,77.0000023498536,2|0,3:2|0:0,0:0:0:0:
490,153,31762,1,10,2:2:0:0:
490,153,31977,2,0,B|485:76|495:-26|495:-26,1,154.000004699707,0|2,0:0|2:2,0:0:0:0:
387,66,32619,1,8,2:2:0:0:
394,152,32834,1,0,0:0:0:0:
277,161,33048,6,0,B|223:161|146:167|146:167,1,115.50000352478,2|0,3:2|0:0,0:0:0:0:
149,187,33477,2,0,B|166:227|146:268|146:268,1,77.0000023498536,10|0,2:2|0:0,0:0:0:0:
26,335,33905,2,0,B|9:295|29:254|29:254,1,77.0000023498536,0|2,3:3|2:2,0:0:0:0:
76,119,34334,2,0,B|18:123|-26:124|-26:124,1,77.0000023498536,8|0,2:2|0:0,0:0:0:0:
127,346,34762,6,0,B|208:328|309:323|309:323,1,154.000004699707,2|8,3:2|2:2,0:0:0:0:
360,345,35405,1,2,2:3:0:0:
489,99,35834,1,2,2:3:0:0:
423,51,36048,2,0,B|369:44|323:38|323:38,1,77.0000023498536,8|0,2:2|0:0,0:0:0:0:
512,252,36477,6,0,B|511:299|515:338|515:338,1,77.0000023498536,2|0,3:2|0:0,0:0:0:0:
512,252,36905,1,8,2:2:0:0:
442,158,37119,1,0,0:0:0:0:
333,178,37334,2,0,B|334:238|333:277|333:277,1,77.0000023498536,2|0,3:2|0:0,0:0:0:0:
395,76,37762,2,0,P|396:16|394:-32,1,77.0000023498536,8|0,2:2|0:0,0:0:0:0:
409,230,38191,5,2,3:2:0:0:
260,237,38405,2,0,P|211:234|171:234,1,77.0000023498536,0|8,0:0|2:2,0:0:0:0:
359,155,38834,2,0,P|438:148|529:139,1,154.000004699707,2|0,2:2|0:0,0:0:0:0:
474,285,39477,2,0,P|478:343|477:376,1,77.0000023498536,10|0,2:2|0:0,0:0:0:0:
306,384,39905,5,2,3:3:0:0:
0,309,40334,1,8,2:2:0:0:
60,247,40548,2,0,B|66:181|71:61|71:61,1,154.000004699707,2|0,2:3|0:0,0:0:0:0:
169,8,41191,1,10,2:2:0:0:
219,88,41405,1,2,2:3:0:0:
355,72,41619,5,2,3:2:0:0:
288,24,41834,1,0,3:3:0:0:
228,196,42048,1,8,2:2:0:0:
228,196,42155,2,0,P|171:196|139:196,1,77.0000023498536,0|0,3:3|0:0,0:0:0:0:
123,210,42476,1,2,3:2:0:0:
90,191,42583,1,0,3:3:0:0:
68,160,42690,1,0,3:3:0:0:
62,123,42797,1,0,3:3:0:0:
72,86,42904,1,8,2:2:0:0:
146,308,43119,1,0,3:3:0:0:
146,308,43227,1,0,3:3:0:0:
146,308,43334,6,0,B|222:313|314:332|314:332,1,154.000004699707,4|8,1:1|2:1,0:0:0:0:
394,370,43977,1,2,2:3:0:0:
394,370,44084,1,0,0:0:0:0:
394,370,44191,1,0,3:3:0:0:
394,370,44298,1,0,0:0:0:0:
394,370,44405,1,2,2:2:0:0:
430,214,44619,2,0,P|431:262|433:304,1,77.0000023498536,8|2,2:1|2:3,0:0:0:0:
512,384,45048,6,0,B|445:381|330:374|330:374,1,154.000004699707,2|8,3:2|2:1,0:0:0:0:
207,287,45691,1,2,2:3:0:0:
212,196,45905,1,0,3:3:0:0:
123,179,46119,2,0,L|71:173,2,38.5000011749268,2|0|8,2:2|0:0|2:1,0:0:0:0:
144,67,46548,1,2,2:3:0:0:
144,67,46655,1,0,0:0:0:0:
144,67,46762,6,0,B|228:74|324:65|324:65,1,154.000004699707,2|8,3:2|2:1,0:0:0:0:
371,25,47405,1,2,2:3:0:0:
269,384,47834,1,2,2:2:0:0:
250,379,47941,1,0,0:0:0:0:
231,375,48048,1,8,2:1:0:0:
212,371,48155,1,0,0:0:0:0:
193,366,48262,1,2,2:3:0:0:
398,226,48477,6,0,B|392:294|396:363|396:363,1,115.50000352478,2|0,3:2|0:0,0:0:0:0:
410,361,48905,2,0,P|452:362|512:373,1,77.0000023498536,8|0,2:1|0:0,0:0:0:0:
310,292,49334,1,0,3:3:0:0:
310,292,49441,1,0,0:0:0:0:
310,292,49548,1,0,0:0:0:0:
321,196,49762,1,8,2:1:0:0:
332,102,49977,1,2,2:3:0:0:
186,107,50191,6,0,L|60:113,1,115.50000352478,2|0,3:2|0:0,0:0:0:0:
51,102,50619,2,0,B|35:56|56:5|56:5,1,77.0000023498536,8|0,2:1|0:0,0:0:0:0:
224,216,51048,2,0,B|202:259|228:312|228:312,1,77.0000023498536,2|0,3:2|0:0,0:0:0:0:
318,153,51477,2,0,L|329:-3,1,154.000004699707,8|2,2:1|3:2,0:0:0:0:
366,81,52119,1,2,2:3:0:0:
242,86,52334,1,8,2:1:0:0:
222,88,52441,1,0,0:0:0:0:
203,91,52548,1,2,2:2:0:0:
184,94,52655,1,0,0:0:0:0:
165,97,52762,2,0,L|72:109,1,77.0000023498536,0|2,3:3|2:3,0:0:0:0:
0,247,53191,2,0,L|93:259,1,77.0000023498536,8|0,2:1|0:0,0:0:0:0:
215,245,53619,6,0,B|220:295|220:295|248:317|248:317|256:400,1,154.000004699707,2|8,3:3|2:1,0:0:0:0:
320,217,54262,2,0,B|267:251|196:221|204:158|204:158,1,154.000004699707,2|2,2:3|2:3,0:0:0:0:
289,60,54905,1,8,2:1:0:0:
343,136,55119,1,2,2:3:0:0:
376,28,55334,5,2,3:2:0:0:
466,40,55548,1,0,3:3:0:0:
442,174,55762,1,8,2:1:0:0:
442,174,55869,2,0,L|428:256,1,77.0000023498536,0|0,3:3|0:0,0:0:0:0:
399,269,56191,1,2,3:2:0:0:
394,296,56298,1,0,3:3:0:0:
389,323,56405,1,0,3:3:0:0:
384,350,56512,1,0,3:3:0:0:
380,377,56619,1,8,2:1:0:0:
512,313,56834,1,0,3:3:0:0:
512,313,56941,1,0,3:3:0:0:
512,313,57048,6,0,L|460:305,2,38.5000011749268,4|0|0,1:1|0:0|0:0,0:0:0:0:
314,295,57477,2,0,L|262:287,2,38.5000011749268,10|0|0,2:2|0:0|0:0,0:0:0:0:
296,109,57905,1,2,1:3:0:0:
332,121,58012,1,0,0:0:0:0:
361,146,58119,1,0,0:0:0:0:
378,180,58226,1,0,0:0:0:0:
381,218,58333,1,10,2:2:0:0:
209,330,58548,1,2,2:3:0:0:
209,330,58762,6,0,P|135:331|106:334,1,77.0000023498536,2|2,1:2|2:3,0:0:0:0:
309,384,59191,1,8,2:2:0:0:
309,384,59298,1,0,0:0:0:0:
309,384,59405,1,2,2:3:0:0:
263,264,59619,2,0,P|261:212|258:168,1,77.0000023498536,2|0,1:2|0:0,0:0:0:0:
50,308,60048,2,0,P|48:360|45:404,1,77.0000023498536,8|0,2:2|0:0,0:0:0:0:
120,153,60477,6,0,P|120:76|118:-14,1,154.000004699707,2|8,1:2|2:2,0:0:0:0:
280,0,61119,1,0,0:0:0:0:
277,38,61226,1,0,0:0:0:0:
260,72,61333,1,2,1:3:0:0:
231,97,61440,1,0,0:0:0:0:
195,109,61547,1,0,0:0:0:0:
77,89,61762,2,0,P|29:91|-33:93,1,77.0000023498536,10|0,2:2|0:0,0:0:0:0:
97,270,62191,5,2,1:3:0:0:
172,196,62405,1,2,2:3:0:0:
172,196,62512,1,2,2:2:0:0:
269,243,62727,1,2,2:3:0:0:
269,243,62834,1,2,2:2:0:0:
353,166,63048,1,2,1:3:0:0:
353,166,63155,1,2,2:2:0:0:
353,166,63262,1,0,0:0:0:0:
353,166,63369,1,2,2:3:0:0:
353,166,63477,1,10,2:2:0:0:
450,208,63691,1,2,2:3:0:0:
426,0,63905,6,0,P|418:50|413:87,1,77.0000023498536,4|0,1:2|0:0,0:0:0:0:
239,135,64334,2,0,P|244:96|250:58,1,77.0000023498536,10|0,2:2|0:0,0:0:0:0:
362,256,64762,2,0,P|420:267|523:290,1,154.000004699707,2|10,1:3|2:2,0:0:0:0:
512,287,65405,1,2,2:3:0:0:
305,303,65619,5,2,1:2:0:0:
397,218,65834,1,2,2:3:0:0:
273,231,66048,1,8,2:2:0:0:
381,294,66262,1,2,2:3:0:0:
330,180,66477,2,0,P|330:135|330:87,1,77.0000023498536,2|0,1:2|0:0,0:0:0:0:
221,372,66905,2,0,P|279:376|357:387,1,115.50000352478,8|0,2:2|0:0,0:0:0:0:
362,370,67334,6,0,B|378:321|362:272|362:272,1,77.0000023498536,2|0,1:2|0:0,0:0:0:0:
467,181,67762,2,0,B|451:230|467:280|467:280,1,77.0000023498536,8|0,2:2|0:0,0:0:0:0:
324,105,68191,2,0,P|258:102|201:98,1,115.50000352478,2|0,1:3|0:0,0:0:0:0:
186,76,68619,2,0,P|186:28|191:-13,1,77.0000023498536,10|0,2:2|0:0,0:0:0:0:
315,228,69048,5,6,1:2:0:0:
131,340,69477,1,8,2:2:0:0:
111,342,69584,1,0,0:0:0:0:
92,345,69691,1,2,2:3:0:0:
73,348,69798,1,0,0:0:0:0:
52,350,69905,2,0,L|47:305,3,38.5000011749268,2|0|2|0,1:2|0:0|2:2|0:0,0:0:0:0:
98,252,70334,1,8,2:2:0:0:
95,232,70441,1,0,3:3:0:0:
92,213,70548,1,2,2:3:0:0:
90,194,70655,1,0,3:3:0:0:
86,174,70762,6,0,L|81:131,3,38.5000011749268,2|0|0|0,1:1|3:0|3:0|3:3,0:0:0:0:
8,120,71191,2,0,L|2:77,3,38.5000011749268,10|0|0|0,3:2|3:0|3:0|3:3,0:0:0:0:
65,37,71619,5,2,2:1:0:0:
151,98,72048,2,0,B|174:94|174:94|184:84|184:84|217:77,1,57.7500017623902,8|0,2:3|0:0,0:0:0:0:
210,3,72477,5,4,1:1:0:0:
322,18,72691,1,2,0:0:0:0:
322,18,72798,1,2,3:2:0:0:
432,34,73012,1,0,0:0:0:0:
432,34,73119,2,0,B|420:107|417:197|417:197,1,146.999995513916,2|0,2:2|0:0,0:0:0:0:
432,207,73548,2,0,B|489:218|538:227|538:227,1,97.9999970092774,2|8,2:3|3:1,0:0:0:0:
468,296,73977,1,2,2:3:0:0:
318,91,74191,5,2,1:2:0:0:
206,106,74405,1,2,0:0:0:0:
206,106,74512,1,2,3:2:0:0:
96,122,74726,1,0,0:0:0:0:
96,122,74833,2,0,B|108:195|110:283|110:283,1,146.999995513916,2|0,2:2|0:0,0:0:0:0:
96,295,75262,2,0,B|39:306|-8:315|-8:315,1,97.9999970092774,2|8,2:3|3:1,0:0:0:0:
60,384,75691,1,2,2:3:0:0:
232,384,75905,6,0,B|220:311|215:223|215:223,1,146.999995513916,2|2,1:2|2:2,0:0:0:0:
232,211,76334,2,0,B|289:200|336:192|336:192,1,97.9999970092774,8|2,3:1|2:2,0:0:0:0:
445,236,76762,1,2,1:2:0:0:
445,236,76869,1,0,0:0:0:0:
445,236,76977,1,2,0:0:0:0:
445,236,77084,1,0,0:0:0:0:
445,236,77191,1,8,3:1:0:0:
343,285,77405,1,0,0:0:0:0:
464,369,77619,6,0,L|512:359,3,48.9999985046387,0|0|2|0,1:1|0:0|2:3|0:0,0:0:0:0:
438,359,78048,2,0,P|375:368|299:380,1,97.9999970092774,8|2,3:1|2:3,0:0:0:0:
118,275,78477,1,2,1:2:0:0:
118,275,78584,1,0,0:0:0:0:
118,275,78691,1,0,0:0:0:0:
204,204,78905,2,0,P|215:258|227:307,1,97.9999970092774,8|0,3:1|0:0,0:0:0:0:
31,384,79334,6,0,P|18:321|6:275,1,97.9999970092774,6|0,1:2|0:0,0:0:0:0:
29,258,79655,1,2,2:2:0:0:
29,258,79762,2,0,P|16:195|4:149,1,97.9999970092774,8|2,3:1|2:3,0:0:0:0:
113,0,80191,2,0,P|126:63|138:109,1,97.9999970092774,6|0,1:2|0:0,0:0:0:0:
115,126,80512,1,2,2:2:0:0:
115,126,80619,2,0,P|128:189|140:235,1,97.9999970092774,8|2,3:1|2:3,0:0:0:0:
338,119,81048,5,6,1:2:0:0:
213,155,81262,1,0,0:0:0:0:
213,155,81369,1,2,2:2:0:0:
213,155,81477,1,8,3:1:0:0:
338,119,81691,1,2,2:3:0:0:
403,192,81905,2,0,B|396:248|393:345|393:345,1,146.999995513916,6|0,1:2|0:0,0:0:0:0:
413,361,82334,2,0,P|471:367|525:376,1,97.9999970092774,8|0,3:1|0:0,0:0:0:0:
512,131,82762,6,0,L|445:145,2,48.9999985046387,4|0|0,1:1|0:0|0:0,0:0:0:0:
483,118,83084,2,0,B|422:108|321:87|321:87,1,146.999995513916,2|2,2:2|2:3,0:0:0:0:
209,147,83619,1,2,1:2:0:0:
209,147,83727,1,0,0:0:0:0:
209,147,83834,1,2,0:0:0:0:
209,147,83941,1,0,0:0:0:0:
209,147,84048,1,8,3:1:0:0:
315,176,84262,1,0,0:0:0:0:
269,320,84477,5,0,1:1:0:0:
164,254,84691,1,8,2:2:0:0:
143,249,84798,1,0,0:0:0:0:
123,244,84905,1,8,3:1:0:0:
102,239,85012,1,8,2:2:0:0:
82,235,85119,1,0,3:3:0:0:
0,221,85333,1,0,1:1:0:0:
0,221,85440,1,0,3:3:0:0:
126,157,85655,1,0,3:3:0:0:
126,157,85762,1,8,3:1:0:0:
85,349,85977,1,8,2:2:0:0:
85,349,86084,1,0,3:3:0:0:
85,349,86191,6,0,P|156:365|228:384,1,146.999995513916,4|2,1:1|3:2,0:0:0:0:
300,299,86727,1,0,0:0:0:0:
300,299,86835,1,2,2:2:0:0:
178,28,87262,1,2,2:3:0:0:
277,42,87477,1,8,3:1:0:0:
262,142,87691,1,2,2:3:0:0:
396,163,87905,5,2,1:2:0:0:
386,258,88119,1,2,0:0:0:0:
386,258,88227,1,2,3:2:0:0:
373,351,88441,1,0,0:0:0:0:
373,351,88548,2,0,L|526:329,1,146.999995513916,2|0,2:2|0:0,0:0:0:0:
493,312,88977,2,0,L|514:207,1,97.9999970092774,2|8,2:3|3:1,0:0:0:0:
386,259,89405,1,2,2:3:0:0:
512,95,89619,6,0,B|444:105|353:72|353:72,1,146.999995513916,2|2,1:2|2:2,0:0:0:0:
365,57,90048,2,0,L|249:32,1,97.9999970092774,8|2,3:1|2:2,0:0:0:0:
167,102,90477,1,2,1:2:0:0:
167,102,90584,1,0,0:0:0:0:
167,102,90691,1,2,0:0:0:0:
167,102,90798,1,0,0:0:0:0:
167,102,90905,1,8,3:1:0:0:
266,172,91119,1,0,0:0:0:0:
132,219,91334,6,0,L|115:285,3,48.9999985046387,0|0|2|0,1:1|0:0|2:3|0:0,0:0:0:0:
96,240,91762,2,0,P|28:224|-35:217,1,97.9999970092774,8|2,3:1|2:3,0:0:0:0:
130,382,92191,1,2,1:2:0:0:
130,382,92298,1,0,0:0:0:0:
130,382,92405,1,0,0:0:0:0:
201,311,92619,2,0,P|248:298|296:291,1,97.9999970092774,8|0,3:1|0:0,0:0:0:0:
498,184,93048,6,0,B|428:237|467:339|467:339,1,146.999995513916,6|2,1:2|2:2,0:0:0:0:
452,334,93477,2,0,L|345:359,1,97.9999970092774,8|2,3:1|2:3,0:0:0:0:
370,179,93905,2,0,B|440:126|401:24|401:24,1,146.999995513916,6|2,1:2|2:2,0:0:0:0:
416,29,94334,2,0,L|523:4,1,97.9999970092774,8|2,3:1|2:3,0:0:0:0:
299,119,94762,5,6,1:2:0:0:
299,119,94869,1,0,0:0:0:0:
299,119,94977,1,0,0:0:0:0:
299,119,95084,1,2,2:2:0:0:
299,119,95191,1,8,3:1:0:0:
300,242,95405,1,2,2:3:0:0:
131,220,95619,2,0,P|77:209|27:202,1,97.9999970092774,6|0,1:2|0:0,0:0:0:0:
111,0,96048,2,0,B|94:91|187:121|187:121,1,146.999995513916,8|0,3:1|0:0,0:0:0:0:
197,127,96477,6,0,L|213:236,1,97.9999970092774,4|0,1:1|0:0,0:0:0:0:
73,384,96905,1,8,3:1:0:0:
86,358,97012,1,0,0:0:0:0:
110,341,97119,1,2,2:3:0:0:
137,331,97226,1,0,0:0:0:0:
166,331,97333,1,2,1:2:0:0:
192,316,97441,2,0,L|292:294,1,97.9999970092774,0|0,3:3|3:3,0:0:0:0:
297,268,97762,1,8,3:1:0:0:
419,338,97977,1,0,3:3:0:0:
419,338,98084,1,0,0:0:0:0:
419,338,98191,6,0,L|399:402,3,48.9999985046387,0|0|8|0,1:1|0:0|2:2|0:0,0:0:0:0:
492,306,98619,2,0,L|506:259,3,48.9999985046387,8|0|0|0,3:1|3:3|3:3|3:3,0:0:0:0:
444,211,99048,1,0,1:1:0:0:
439,186,99155,1,0,3:3:0:0:
435,162,99262,1,0,1:1:0:0:
431,138,99369,1,0,3:3:0:0:
426,114,99476,1,8,3:1:0:0:
422,90,99583,1,0,3:3:0:0:
418,66,99690,1,0,3:3:0:0:
414,42,99797,1,0,3:3:0:0:
409,18,99905,5,4,1:1:0:0:
512,86,100119,1,2,2:3:0:0:
385,86,100333,1,8,3:1:0:0:
487,11,100547,1,2,2:2:0:0:
449,133,100762,2,0,P|453:187|455:238,2,90.9999958343508,0|0|8,1:1|0:0|3:1,0:0:0:0:
293,0,101405,6,0,B|288:35|288:35|299:52|299:52|288:111,1,90.9999958343508,2|0,2:2|1:1,0:0:0:0:
197,67,101834,2,0,B|192:102|192:102|203:119|203:119|192:178,1,90.9999958343508,2|8,2:3|3:1,0:0:0:0:
308,297,102262,2,0,B|416:236|356:127|356:127,1,181.999991668702,2|0,2:2|0:0,0:0:0:0:
121,223,102905,2,0,L|211:241,1,90.9999958343508,8|0,3:1|0:0,0:0:0:0:
352,383,103334,6,0,B|422:367|422:367|441:336|441:336|541:308,1,181.999991668702,2|8,1:3|3:1,0:0:0:0:
396,241,103977,1,2,2:2:0:0:
460,163,104191,1,0,1:1:0:0:
460,163,104298,1,0,0:0:0:0:
460,163,104405,1,0,0:0:0:0:
393,74,104619,2,0,P|344:65|291:55,1,90.9999958343508,8|0,3:1|0:0,0:0:0:0:
122,247,105048,6,0,B|155:184|122:133|41:121,1,181.999991668702,2|8,1:2|3:1,0:0:0:0:
303,32,105691,2,0,B|215:45|182:96|223:186|223:186,1,181.999991668702,2|0,2:3|0:0,0:0:0:0:
231,252,106334,2,0,L|331:278,1,90.9999958343508,8|0,3:1|0:0,0:0:0:0:
103,366,106762,5,4,1:2:0:0:
0,298,106976,1,2,2:2:0:0:
127,298,107190,1,8,3:1:0:0:
25,373,107404,1,2,2:3:0:0:
63,251,107619,2,0,P|59:197|57:146,2,90.9999958343508,2|0|8,1:2|0:0|3:1,0:0:0:0:
203,369,108262,6,0,B|269:359|269:359|324:382|324:382|414:369,1,181.999991668702,2|2,2:2|2:3,0:0:0:0:
512,99,109119,2,0,L|307:59,1,181.999991668702,2|2,2:2|2:2,0:0:0:0:
357,247,109762,2,0,L|503:281,1,136.499993751526,8|0,3:1|0:0,0:0:0:0:
512,290,110191,6,0,P|495:351|488:398,1,90.9999958343508,2|2,1:3|2:2,0:0:0:0:
401,346,110619,1,8,3:1:0:0:
432,236,110834,1,2,2:3:0:0:
291,284,111048,1,0,1:1:0:0:
355,155,111262,5,2,2:2:0:0:
386,305,111477,1,8,3:1:0:0:
228,211,111691,1,2,2:3:0:0:
300,70,111905,6,0,P|374:62|429:43,1,90.9999958343508,2|0,1:2|0:0,0:0:0:0:
153,275,112334,2,0,P|151:230|142:186,1,90.9999958343508,8|0,3:1|0:0,0:0:0:0:
173,113,112762,1,0,1:1:0:0:
173,113,112869,1,0,0:0:0:0:
173,113,112977,1,0,0:0:0:0:
80,53,113191,1,8,3:1:0:0:
199,18,113405,1,0,0:0:0:0:
260,141,113619,5,2,1:2:0:0:
260,141,113727,1,0,3:3:0:0:
260,141,113834,1,0,3:3:0:0:
369,264,114048,1,8,3:1:0:0:
401,251,114155,1,0,0:0:0:0:
425,228,114262,1,0,3:3:0:0:
438,196,114369,1,0,3:3:0:0:
438,163,114476,1,0,1:1:0:0:
360,64,114691,1,0,3:3:0:0:
360,64,114798,1,0,3:3:0:0:
360,64,114905,1,8,3:1:0:0:
360,64,115012,1,0,3:3:0:0:
360,64,115119,1,0,3:3:0:0:
258,227,115334,5,4,1:1:0:0:
258,227,115762,1,8,2:1:0:0:
160,299,115977,2,0,P|89:293|30:289,1,115.50000352478,2|0,2:3|0:0,0:0:0:0:
25,304,116405,2,0,P|16:355|38:404,1,77.0000023498536,2|8,2:2|2:1,0:0:0:0:
142,384,116834,1,2,2:3:0:0:
215,240,117048,6,0,P|221:169|225:110,1,115.50000352478,2|0,3:2|0:0,0:0:0:0:
210,105,117476,2,0,P|159:96|110:118,1,77.0000023498536,8|2,2:1|2:3,0:0:0:0:
305,197,117905,2,0,P|356:206|405:184,1,77.0000023498536,0|2,3:3|2:2,0:0:0:0:
477,90,118334,1,8,2:1:0:0:
477,90,118441,1,0,0:0:0:0:
477,90,118548,1,2,2:3:0:0:
477,90,118655,1,0,0:0:0:0:
477,90,118762,6,0,B|427:8|342:47|342:47,1,154.000004699707,2|8,3:2|2:1,0:0:0:0:
252,140,119405,2,0,P|253:220|262:306,1,154.000004699707,2|2,2:3|2:2,0:0:0:0:
421,361,120048,1,8,2:1:0:0:
368,293,120262,1,2,2:3:0:0:
225,383,120477,1,2,3:2:0:0:
318,179,120691,5,0,0:0:0:0:
153,308,120905,1,8,2:1:0:0:
157,170,121119,1,0,0:0:0:0:
368,293,121334,5,0,3:3:0:0:
257,124,121548,1,0,0:0:0:0:
225,383,121762,1,8,2:1:0:0:
293,258,121977,1,2,2:3:0:0:
106,324,122191,6,0,B|46:345|-6:285|-6:285,1,115.50000352478,2|0,3:2|0:0,0:0:0:0:
9,276,122619,2,0,L|-2:190,1,77.0000023498536,8|0,2:1|0:0,0:0:0:0:
77,117,123048,2,0,L|86:193,1,77.0000023498536,2|0,3:2|0:0,0:0:0:0:
183,245,123477,2,0,B|243:266|295:206|295:206,1,115.50000352478,8|0,2:1|0:0,0:0:0:0:
299,195,123905,6,0,L|397:175,1,77.0000023498536,2|2,3:2|2:3,0:0:0:0:
485,268,124334,1,8,2:1:0:0:
485,268,124441,1,0,0:0:0:0:
485,268,124548,2,0,L|325:306,1,154.000004699707,2|2,2:2|2:3,0:0:0:0:
257,378,125191,1,8,2:1:0:0:
257,378,125405,5,0,0:0:0:0:
183,245,125619,2,0,B|136:163|198:84|198:84,1,154.000004699707,2|8,3:3|2:1,0:0:0:0:
318,0,126262,1,2,2:3:0:0:
388,96,126476,1,2,3:2:0:0:
276,60,126690,1,2,2:3:0:0:
388,23,126904,1,8,2:1:0:0:
318,119,127119,1,2,2:3:0:0:
147,28,127334,6,0,B|89:44|89:44|65:74|65:74|-4:94,1,154.000004699707,2|8,3:2|2:1,0:0:0:0:
71,260,127977,1,2,3:3:0:0:
182,218,128191,1,2,3:2:0:0:
201,192,128298,1,0,3:3:0:0:
209,161,128405,1,0,3:3:0:0:
206,130,128512,1,0,3:3:0:0:
193,100,128619,1,8,2:1:0:0:
82,154,128834,1,0,3:3:0:0:
173,302,129048,6,0,L|216:309,2,38.5000011749268,4|0|0,1:1|0:0|0:0,0:0:0:0:
74,378,129477,2,0,L|31:385,2,38.5000011749268,10|0|0,2:2|0:0|0:0,0:0:0:0:
215,384,129905,1,2,1:3:0:0:
202,357,130012,1,0,0:0:0:0:
197,329,130119,1,0,0:0:0:0:
198,300,130226,1,0,0:0:0:0:
207,273,130333,1,10,2:2:0:0:
334,204,130548,1,2,2:3:0:0:
334,204,130762,6,0,P|376:199|423:193,1,77.0000023498536,2|2,1:2|2:3,0:0:0:0:
213,77,131191,2,0,P|218:119|224:166,1,77.0000023498536,8|2,2:2|2:3,0:0:0:0:
380,120,131619,1,2,1:2:0:0:
380,120,131727,1,0,0:0:0:0:
380,120,131834,1,0,0:0:0:0:
495,19,132048,2,0,P|500:58|507:96,1,77.0000023498536,8|0,2:2|0:0,0:0:0:0:
413,230,132477,6,0,P|420:282|430:384,1,154.000004699707,2|8,1:2|2:2,0:0:0:0:
225,377,133119,1,0,0:0:0:0:
228,348,133226,1,0,0:0:0:0:
240,323,133333,1,2,1:3:0:0:
261,303,133440,1,0,0:0:0:0:
288,292,133547,1,0,0:0:0:0:
436,319,133762,2,0,P|483:312|539:306,1,77.0000023498536,10|0,2:2|0:0,0:0:0:0:
318,125,134191,5,2,1:3:0:0:
261,220,134405,1,2,2:3:0:0:
261,220,134512,1,2,2:2:0:0:
171,157,134727,1,2,2:3:0:0:
171,157,134834,1,2,2:2:0:0:
98,245,135048,1,2,1:3:0:0:
98,245,135155,1,2,2:2:0:0:
98,245,135262,1,0,0:0:0:0:
98,245,135369,1,2,2:3:0:0:
98,245,135477,1,10,2:2:0:0:
0,173,135691,1,2,2:3:0:0:
75,32,135905,6,0,P|72:77|73:114,1,77.0000023498536,4|0,1:2|0:0,0:0:0:0:
255,224,136334,2,0,P|252:179|253:142,1,77.0000023498536,10|0,2:2|0:0,0:0:0:0:
101,230,136762,2,0,P|99:284|103:387,1,154.000004699707,2|10,1:3|2:2,0:0:0:0:
189,324,137405,1,2,2:3:0:0:
280,373,137619,6,0,P|320:378|367:386,2,77.0000023498536,2|2|8,1:2|2:3|2:2,0:0:0:0:
189,324,138262,1,2,2:3:0:0:
364,229,138477,2,0,P|363:267|366:305,1,77.0000023498536,2|0,1:2|0:0,0:0:0:0:
178,202,138906,2,0,P|177:163|184:85,1,115.50000352478,8|0,2:2|0:0,0:0:0:0:
204,64,139334,6,0,P|250:61|291:33,1,77.0000023498536,2|0,1:2|0:0,0:0:0:0:
384,152,139762,2,0,P|338:155|297:183,1,77.0000023498536,8|0,2:2|0:0,0:0:0:0:
289,318,140191,1,2,1:3:0:0:
289,318,140298,1,0,0:0:0:0:
289,318,140405,1,0,0:0:0:0:
444,261,140619,1,10,2:2:0:0:
364,229,140834,1,0,0:0:0:0:
427,72,141048,5,6,1:2:0:0:
65,177,141477,1,8,2:2:0:0:
65,177,141584,1,0,0:0:0:0:
65,177,141691,1,2,2:3:0:0:
65,177,141798,1,0,0:0:0:0:
65,177,141905,1,2,1:2:0:0:
97,303,142119,1,2,2:2:0:0:
134,294,142226,1,0,0:0:0:0:
162,269,142333,1,8,2:2:0:0:
175,233,142440,1,0,3:3:0:0:
170,196,142547,1,2,2:3:0:0:
102,87,142762,5,2,1:1:0:0:
134,96,142869,1,0,3:3:0:0:
166,104,142976,1,0,3:3:0:0:
199,113,143083,1,0,3:3:0:0:
232,121,143190,1,10,3:2:0:0:
264,129,143297,1,0,3:3:0:0:
297,137,143404,1,0,3:3:0:0:
330,144,143512,1,0,3:3:0:0:
363,151,143619,1,2,2:1:0:0:
448,113,144048,6,0,L|452:140,6,19.2500005874634,8|0|0|0|0|0|0,2:3|0:0|0:0|0:0|0:0|0:0|0:0,0:0:0:0:
503,187,144477,5,4,1:1:0:0:
357,33,144691,1,2,0:2:0:0:
357,33,144798,1,2,3:2:0:0:
357,33,144905,1,8,3:1:0:0:
357,33,145012,1,2,0:0:0:0:
357,33,145119,2,0,B|370:110|359:203|359:203,1,146.999995513916,2|0,0:2|0:0,0:0:0:0:
351,199,145548,2,0,L|241:190,1,97.9999970092774,2|8,2:3|3:1,0:0:0:0:
297,277,145977,1,2,2:3:0:0:
91,164,146191,5,2,1:2:0:0:
6,251,146405,1,2,0:2:0:0:
6,251,146512,1,2,3:2:0:0:
6,251,146619,1,8,3:1:0:0:
6,251,146726,1,0,0:0:0:0:
6,251,146833,2,0,B|-8:177|4:81|4:81,1,146.999995513916,2|0,2:0|0:0,0:0:0:0:
17,89,147262,2,0,L|127:80,1,97.9999970092774,2|8,2:3|3:1,0:0:0:0:
61,0,147691,1,2,2:3:0:0:
147,237,147905,6,0,B|227:233|322:221|322:221,1,146.999995513916,2|2,1:2|2:2,0:0:0:0:
324,237,148334,2,0,L|331:294,2,48.9999985046387,8|0|2,3:1|0:0|2:2,0:0:0:0:
398,97,148762,1,2,1:2:0:0:
398,97,148869,1,0,0:0:0:0:
398,97,148977,1,2,0:0:0:0:
398,97,149084,1,0,0:0:0:0:
398,97,149191,2,0,P|391:33|390:-11,1,97.9999970092774,8|0,3:1|0:0,0:0:0:0:
226,203,149619,5,0,1:1:0:0:
307,58,149834,1,2,2:3:0:0:
356,266,150048,1,8,3:1:0:0:
206,95,150262,5,2,2:3:0:0:
369,164,150477,1,2,1:2:0:0:
273,304,150691,1,0,0:0:0:0:
143,207,150905,1,8,3:1:0:0:
118,203,151012,1,0,0:0:0:0:
94,200,151119,1,2,0:0:0:0:
70,196,151227,1,0,0:0:0:0:
44,194,151334,6,0,P|42:254|41:299,1,97.9999970092774,6|0,1:2|0:0,0:0:0:0:
70,323,151655,1,2,2:2:0:0:
70,323,151762,2,0,P|130:325|175:326,1,97.9999970092774,8|2,3:1|2:3,0:0:0:0:
234,185,152191,2,0,P|236:125|237:80,1,97.9999970092774,6|0,1:2|0:0,0:0:0:0:
208,56,152512,1,2,2:2:0:0:
208,56,152619,2,0,P|148:54|103:53,1,97.9999970092774,8|2,3:1|2:3,0:0:0:0:
291,262,153048,5,6,1:2:0:0:
411,222,153262,1,0,0:0:0:0:
411,222,153369,1,2,2:2:0:0:
411,222,153477,1,8,3:1:0:0:
291,262,153691,1,2,2:3:0:0:
351,384,153905,2,0,P|432:379|504:381,1,146.999995513916,6|0,1:2|0:0,0:0:0:0:
512,368,154334,2,0,P|508:310|511:254,1,97.9999970092774,8|0,3:1|0:0,0:0:0:0:
366,110,154762,6,0,L|430:97,2,48.9999985046387,4|0|0,1:1|0:0|0:0,0:0:0:0:
384,121,155084,2,0,B|436:139|495:116|514:51|514:51,1,146.999995513916,2|2,2:2|2:3,0:0:0:0:
357,0,155619,1,2,1:2:0:0:
272,81,155834,1,0,0:0:0:0:
272,81,155941,1,0,0:0:0:0:
272,81,156048,2,0,P|273:143|271:200,1,97.9999970092774,8|0,3:1|0:0,0:0:0:0:
0,195,156477,5,0,1:1:0:0:
71,130,156691,1,8,2:2:0:0:
103,132,156798,1,0,0:0:0:0:
133,144,156905,1,8,3:1:0:0:
158,165,157012,1,8,2:2:0:0:
176,192,157119,1,0,3:3:0:0:
100,340,157333,1,0,1:1:0:0:
100,340,157441,1,0,3:3:0:0:
246,349,157655,1,0,3:3:0:0:
246,349,157762,1,8,3:1:0:0:
264,185,157977,1,8,2:2:0:0:
264,185,158084,1,0,3:3:0:0:
264,185,158191,5,4,1:1:0:0:
461,238,158405,1,2,0:2:0:0:
461,238,158512,1,2,3:2:0:0:
461,238,158619,1,8,3:1:0:0:
461,238,158727,1,0,0:0:0:0:
461,238,158834,2,0,P|457:311|452:403,1,146.999995513916,2|0,2:2|0:0,0:0:0:0:
432,374,159262,2,0,P|366:370|310:359,1,97.9999970092774,2|8,2:3|3:1,0:0:0:0:
235,349,159691,1,2,2:3:0:0:
323,128,159905,5,2,1:2:0:0:
179,146,160119,1,2,0:2:0:0:
179,146,160226,1,2,3:2:0:0:
179,146,160333,1,8,3:1:0:0:
179,146,160441,1,0,0:0:0:0:
179,146,160548,2,0,P|183:73|188:-19,1,146.999995513916,2|0,2:2|0:0,0:0:0:0:
208,10,160976,2,0,P|274:14|330:25,1,97.9999970092774,2|8,2:3|3:1,0:0:0:0:
141,61,161405,1,2,2:3:0:0:
131,220,161619,6,0,B|105:296|126:374|126:374,1,146.999995513916,2|2,1:2|2:2,0:0:0:0:
97,378,162048,2,0,L|-12:372,1,97.9999970092774,8|2,3:1|2:2,0:0:0:0:
50,200,162477,1,2,1:2:0:0:
50,200,162584,1,0,0:0:0:0:
50,200,162691,1,2,0:0:0:0:
50,200,162798,1,0,0:0:0:0:
50,200,162905,1,8,3:1:0:0:
150,190,163119,1,0,0:0:0:0:
151,55,163334,6,0,L|211:40,3,48.9999985046387,0|0|2|0,1:1|0:0|2:3|0:0,0:0:0:0:
162,37,163762,2,0,P|100:27|39:27,1,97.9999970092774,8|2,3:1|2:3,0:0:0:0:
196,128,164191,1,2,1:2:0:0:
289,58,164405,1,0,0:0:0:0:
289,58,164512,1,0,0:0:0:0:
289,58,164619,2,0,P|351:48|412:48,1,97.9999970092774,8|0,3:1|0:0,0:0:0:0:
512,281,165048,6,0,B|424:317|378:221|378:221,1,146.999995513916,6|2,1:2|2:2,0:0:0:0:
412,227,165477,2,0,L|425:121,1,97.9999970092774,8|2,3:1|2:3,0:0:0:0:
119,233,165905,2,0,B|207:197|253:293|253:293,1,146.999995513916,6|2,1:2|2:2,0:0:0:0:
219,287,166334,2,0,L|206:393,1,97.9999970092774,8|2,3:1|2:3,0:0:0:0:
361,319,166762,6,0,L|340:155,1,146.999995513916,6|2,1:2|2:2,0:0:0:0:
322,159,167191,2,0,B|265:186|224:121|224:121,1,97.9999970092774,8|2,3:1|2:3,0:0:0:0:
349,26,167619,2,0,B|406:-1|447:64|447:64,1,97.9999970092774,6|0,1:2|0:0,0:0:0:0:
175,76,168048,2,0,L|13:61,1,146.999995513916,8|0,3:1|0:0,0:0:0:0:
13,83,168477,6,0,L|4:186,1,97.9999970092774,4|0,1:1|0:0,0:0:0:0:
76,282,168905,1,8,3:1:0:0:
168,240,169119,1,2,2:3:0:0:
168,240,169227,1,0,0:0:0:0:
168,240,169334,2,0,L|231:253,3,48.9999985046387,2|0|0|0,1:2|3:3|3:3|3:3,0:0:0:0:
126,165,169762,1,8,3:1:0:0:
126,165,169869,1,0,0:0:0:0:
126,165,169977,1,0,3:3:0:0:
150,363,170191,5,0,1:1:0:0:
178,375,170298,1,0,0:0:0:0:
207,382,170405,1,8,2:2:0:0:
238,384,170512,1,0,0:0:0:0:
268,380,170619,1,8,3:1:0:0:
298,372,170726,1,0,3:3:0:0:
325,358,170833,1,0,3:3:0:0:
350,341,170941,1,0,3:3:0:0:
371,319,171048,1,0,1:1:0:0:
350,280,171155,1,0,3:3:0:0:
361,237,171262,1,0,1:1:0:0:
398,213,171369,1,0,3:3:0:0:
441,221,171476,1,8,3:1:0:0:
443,172,171583,1,0,3:3:0:0:
430,124,171691,1,0,3:3:0:0:
398,86,171798,1,0,3:3:0:0:
350,73,171905,5,4,1:1:0:0:
16,201,172762,2,0,L|29:270,1,70,2|0,2:2|0:0,0:0:0:0:
47,85,173191,1,0,3:3:0:0:
99,146,173405,1,2,3:2:0:0:
200,106,173619,6,0,B|339:144|218:163|397:215,1,210,0|0,1:1|0:0,0:0:0:0:
491,136,174477,2,0,B|419:143|357:234|398:315|398:315,1,210,2|0,3:2|3:3,0:0:0:0:
474,384,175334,5,2,1:2:0:0:
169,247,176191,1,2,3:2:0:0:
230,307,176405,1,0,0:0:0:0:
169,369,176619,2,0,P|126:378|79:390,1,70,10|0,2:2|3:3,0:0:0:0:
303,262,177048,6,0,B|301:133|241:198|246:42,1,210,2|0,1:2|0:0,0:0:0:0:
328,13,177905,1,2,3:2:0:0:
328,13,178012,2,0,P|384:5|427:1,1,70,0|0,0:0|3:0,0:0:0:0:
418,5,178334,1,2,0:0:0:0:
512,174,178548,2,0,L|504:137,1,35,0|0,3:3|0:0,0:0:0:0:
384,83,178762,5,4,1:1:0:0:
218,384,179619,2,0,P|170:364|70:343,1,140,0|0,3:3|0:0,0:0:0:0:
84,344,180262,1,0,3:3:0:0:
189,240,180477,5,4,1:1:0:0:
349,0,181334,2,0,P|281:14|216:39,1,140,0|8,3:3|2:2,0:0:0:0:
324,127,181977,1,0,3:3:0:0:
324,127,182084,1,0,0:0:0:0:
324,127,182191,6,0,P|339:196|348:256,2,105,4|2|2,1:1|2:2|3:2,0:0:0:0:
124,83,183262,1,2,2:2:0:0:
89,164,183477,1,8,2:2:0:0:
0,147,183691,1,0,3:3:0:0:
24,247,183905,6,0,P|84:247|163:253,1,115.50000352478,4|0,1:1|0:0,0:0:0:0:
121,275,184334,2,0,L|104:366,1,77.0000023498536,8|2,3:2|2:2,0:0:0:0:
250,309,184762,2,0,L|264:233,1,77.0000023498536,0|0,1:1|0:0,0:0:0:0:
409,347,185191,1,8,3:2:0:0:
331,381,185405,1,0,3:3:0:0:
459,230,185619,6,0,B|437:194|478:61|478:61|458:-21,1,231.000007049561,6|0,1:2|3:3,0:0:0:0:
426,22,186369,1,0,3:3:0:0:
426,22,186477,2,0,P|381:20|314:25,1,77.0000023498536,2|0,1:2|3:3,0:0:0:0:
238,153,186905,1,0,1:1:0:0:
276,152,187012,1,0,3:3:0:0:
311,166,187119,1,0,3:3:0:0:
339,193,187226,1,0,3:3:0:0:
355,228,187334,6,0,P|422:224|449:223,1,77.0000023498536,4|0,1:1|0:0,0:0:0:0:
451,246,187655,2,0,P|456:293|459:335,1,77.0000023498536,2|0,2:2|0:0,0:0:0:0:
432,339,187977,2,0,P|340:349|248:349,1,154.000004699707,2|0,2:2|0:0,0:0:0:0:
216,242,188619,1,8,2:2:0:0:
292,270,188834,1,0,0:0:0:0:
124,307,189048,6,0,P|128:240|129:213,1,77.0000023498536,6|0,1:2|0:0,0:0:0:0:
106,211,189369,2,0,P|59:206|17:203,1,77.0000023498536,2|0,2:2|0:0,0:0:0:0:
13,230,189691,2,0,P|3:322|3:413,1,154.000004699707,2|0,2:2|0:0,0:0:0:0:
172,379,190334,1,8,2:2:0:0:
172,379,190548,1,0,0:0:0:0:
238,291,190762,6,0,B|236:218|267:249|258:147,1,115.50000352478,2|2,1:2|2:2,0:0:0:0:
283,164,191191,2,0,P|325:155|347:118,1,77.0000023498536,0|2,3:3|2:2,0:0:0:0:
225,28,191619,6,0,B|303:55|303:55|336:103|336:103|456:139,1,231.000007049561,2|0,2:2|3:3,0:0:0:0:
512,59,192477,5,0,1:1:0:0:
387,37,192798,1,0,0:0:0:0:
387,37,192905,2,0,L|372:89,3,38.5000011749268,8|0|0|0,2:2|0:0|0:0|0:0,0:0:0:0:
454,0,193334,2,0,P|390:6|288:18,1,154.000004699707,2|0,3:2|3:3,0:0:0:0:
0,228,194191,6,0,P|28:259|130:283,2,115.50000352478,4|2|2,1:1|2:2|2:3,0:0:0:0:
132,208,195048,2,0,P|181:192|247:128,2,115.50000352478,2|2|2,3:2|2:2|2:3,0:0:0:0:
207,0,195905,2,0,P|192:55|158:100,2,115.50000352478,6|2|2,1:2|2:2|2:3,0:0:0:0:
131,207,196762,2,0,P|88:144|20:112,1,154.000004699707,2|2,2:2|3:2,0:0:0:0:
20,112,197619,5,6,1:2:0:0:
156,100,197941,1,2,2:2:0:0:
288,84,198262,1,2,2:3:0:0:
311,219,198477,5,6,1:2:0:0:
311,219,198584,1,0,0:0:0:0:
442,203,198798,1,0,0:0:0:0:
442,203,198905,1,8,3:1:0:0:
468,339,199119,1,2,2:3:0:0:
338,360,199334,5,4,1:2:0:0:
390,287,199548,1,8,2:2:0:0:
390,287,199655,1,0,0:0:0:0:
390,287,199762,1,12,3:1:0:0:
338,360,199977,1,0,3:3:0:0:
220,312,200191,5,4,1:2:0:0:
220,312,200298,1,0,0:0:0:0:
137,304,200512,1,0,3:3:0:0:
137,304,200619,1,8,3:1:0:0:
53,294,200834,1,2,2:3:0:0:
208,183,201048,5,4,1:1:0:0:
221,151,201155,1,0,0:0:0:0:
223,116,201262,1,2,0:2:0:0:
211,83,201369,1,2,3:2:0:0:
188,57,201477,1,8,3:1:0:0:
157,41,201583,1,0,0:0:0:0:
122,38,201691,2,0,P|125:114|121:206,1,157.500006008148,2|0,3:2|0:0,0:0:0:0:
104,222,202119,2,0,P|36:225|-25:228,1,105.000004005432,2|8,2:3|3:1,0:0:0:0:
33,107,202548,1,2,2:3:0:0:
173,272,202762,5,2,1:2:0:0:
205,285,202869,1,0,0:0:0:0:
240,287,202976,1,2,0:0:0:0:
273,275,203083,1,2,3:2:0:0:
299,252,203190,1,8,3:1:0:0:
315,221,203297,1,0,0:0:0:0:
318,186,203405,2,0,P|321:128|315:1,1,157.500006008148,2|0,3:2|0:0,0:0:0:0:
345,17,203834,2,0,L|469:1,1,105.000004005432,2|8,2:3|3:1,0:0:0:0:
396,193,204262,1,2,2:3:0:0:
216,87,204477,5,2,1:2:0:0:
243,280,204691,1,0,0:0:0:0:
243,280,204798,1,2,2:2:0:0:
243,280,204905,2,0,P|250:340|247:402,1,105.000004005432,8|2,3:1|2:2,0:0:0:0:
481,342,205334,2,0,L|493:291,3,52.5000020027161,2|0|0|0,1:2|0:0|0:0|0:0,0:0:0:0:
462,320,205762,2,0,P|388:326|326:330,1,105.000004005432,8|0,3:1|0:0,0:0:0:0:
133,299,206191,5,0,1:1:0:0:
200,230,206405,2,0,P|196:168|191:78,1,105.000004005432,2|8,2:3|3:1,0:0:0:0:
217,90,206727,2,0,P|284:83|331:76,1,105.000004005432
350,47,207048,2,0,P|364:125|327:165,1,105.000004005432,2|0,1:2|0:0,0:0:0:0:
125,96,207477,2,0,P|111:18|148:-22,1,105.000004005432,8|0,3:1|0:0,0:0:0:0:
372,252,207905,5,6,1:2:0:0:
369,376,208119,1,2,0:0:0:0:
369,376,208227,1,2,3:2:0:0:
369,376,208334,1,8,3:1:0:0:
369,376,208441,1,0,0:0:0:0:
369,376,208548,1,2,2:3:0:0:
146,345,208762,5,6,1:2:0:0:
175,242,208976,1,0,0:0:0:0:
175,242,209084,1,2,2:2:0:0:
175,242,209191,1,8,3:1:0:0:
175,242,209298,1,0,0:0:0:0:
175,242,209405,1,2,2:3:0:0:
430,302,209619,5,6,1:2:0:0:
457,195,209834,1,2,0:0:0:0:
457,195,209941,1,2,3:2:0:0:
457,195,210048,1,8,3:1:0:0:
457,195,210155,1,0,0:0:0:0:
457,195,210262,1,2,2:3:0:0:
290,91,210477,2,0,P|291:170|289:227,1,105.000004005432,6|0,1:2|0:0,0:0:0:0:
512,104,210905,2,0,P|513:25|511:-32,1,105.000004005432,8|0,3:1|0:0,0:0:0:0:
408,275,211334,6,0,P|333:273|235:274,1,157.500006008148,4|2,1:1|2:2,0:0:0:0:
227,246,211762,2,0,L|212:302,3,52.5000020027161,8|0|2|0,3:1|0:0|2:3|0:0,0:0:0:0:
146,258,212191,2,0,P|147:188|143:138,1,105.000004005432,2|0,1:2|3:3,0:0:0:0:
189,22,212619,1,8,3:1:0:0:
189,22,212727,1,0,0:0:0:0:
189,22,212834,1,0,3:3:0:0:
60,28,213048,5,0,1:1:0:0:
60,57,213155,1,0,0:0:0:0:
63,86,213262,1,8,2:2:0:0:
70,114,213369,1,0,0:0:0:0:
81,141,213476,1,8,3:1:0:0:
100,164,213583,1,0,3:3:0:0:
125,180,213690,1,0,3:3:0:0:
153,191,213798,1,0,3:3:0:0:
181,199,213905,1,0,1:1:0:0:
216,176,214012,1,0,3:3:0:0:
257,174,214119,1,0,1:1:0:0:
294,193,214226,1,0,3:3:0:0:
310,231,214333,1,8,3:1:0:0:
261,249,214440,1,0,3:3:0:0:
236,295,214548,1,0,3:3:0:0:
248,345,214655,1,0,3:3:0:0:
289,384,214762,5,4,1:1:0:0:
375,287,214976,1,2,2:3:0:0:
249,314,215190,1,8,3:1:0:0:
366,366,215404,1,2,2:2:0:0:
302,255,215619,2,0,P|300:203|300:153,1,83.9999974365235,0|0,1:1|0:0,0:0:0:0:
448,331,216048,1,8,3:1:0:0:
210,381,216262,6,0,P|137:380|54:384,1,125.999996154785,2|0,2:2|0:0,0:0:0:0:
61,370,216691,2,0,L|53:308,2,41.9999987182618,2|0|8,2:3|0:0|3:1,0:0:0:0:
102,160,217119,1,2,2:2:0:0:
217,213,217334,5,0,1:1:0:0:
217,213,217441,1,0,0:0:0:0:
217,213,217548,1,0,0:0:0:0:
142,89,217762,2,0,P|79:83|32:107,1,83.9999974365235,8|0,3:1|0:0,0:0:0:0:
287,154,218191,6,0,B|365:74|280:-27|280:-27,1,167.999994873047,2|8,1:3|3:1,0:0:0:0:
65,224,218834,2,0,B|56:289|56:289|76:322|76:322|59:406,1,167.999994873047,2|0,2:2|0:0,0:0:0:0:
261,241,219477,2,0,L|149:265,1,83.9999974365235,8|0,3:1|0:0,0:0:0:0:
0,144,219905,6,0,B|69:245|171:172|171:172,1,167.999994873047,2|8,1:2|3:1,0:0:0:0:
222,83,220548,1,2,2:3:0:0:
159,6,220762,1,0,1:1:0:0:
159,6,220869,1,0,0:0:0:0:
159,6,220977,1,0,0:0:0:0:
76,100,221191,1,8,3:1:0:0:
287,154,221405,1,0,0:0:0:0:
183,300,221619,6,0,P|179:363|181:406,1,83.9999974365235,4|2,1:2|2:2,0:0:0:0:
375,192,222048,2,0,P|374:150|378:108,1,83.9999974365235,8|2,3:1|2:3,0:0:0:0:
502,311,222477,1,2,1:2:0:0:
502,311,222584,1,0,0:0:0:0:
502,311,222691,1,0,0:0:0:0:
380,384,222905,1,8,3:1:0:0:
458,233,223119,6,0,P|476:183|434:90,1,125.999996154785,2|0,2:2|0:0,0:0:0:0:
464,95,223548,2,0,L|369:82,1,83.9999974365235,2|8,2:3|3:1,0:0:0:0:
288,81,223977,1,2,2:2:0:0:
288,81,224084,1,0,0:0:0:0:
288,81,224191,1,0,1:1:0:0:
288,81,224298,1,0,0:0:0:0:
288,81,224405,1,2,2:2:0:0:
429,8,224619,1,8,3:1:0:0:
381,85,224834,1,0,0:0:0:0:
458,233,225048,5,2,1:3:0:0:
367,216,225262,1,2,2:2:0:0:
367,216,225369,1,0,0:0:0:0:
367,216,225477,1,8,3:1:0:0:
268,197,225691,2,0,B|209:232|144:193|144:193,1,125.999996154785,2|0,2:3|0:0,0:0:0:0:
120,185,226119,2,0,L|121:285,1,83.9999974365235,2|8,2:2|3:1,0:0:0:0:
122,373,226548,1,2,2:3:0:0:
0,229,226762,6,0,B|112:235|160:113|64:33|64:33,1,251.999992309571,2|0,1:2|0:0,0:0:0:0:
120,185,227619,1,0,1:1:0:0:
120,185,227727,1,0,0:0:0:0:
120,185,227834,1,0,0:0:0:0:
218,177,228048,1,8,3:1:0:0:
313,171,228262,1,0,0:0:0:0:
436,342,228477,5,2,1:2:0:0:
436,342,228585,1,0,3:3:0:0:
436,342,228692,1,0,3:3:0:0:
326,301,228905,1,8,3:1:0:0:
330,321,229012,1,0,0:0:0:0:
334,342,229119,1,0,3:3:0:0:
338,362,229226,1,0,3:3:0:0:
342,383,229333,1,0,1:1:0:0:
410,245,229548,1,0,3:3:0:0:
416,203,229655,1,0,3:3:0:0:
423,162,229762,1,8,3:1:0:0:
430,120,229869,1,0,3:3:0:0:
437,79,229976,1,0,3:3:0:0:
222,273,230191,5,4,1:1:0:0:
