osu file format v14

[General]
AudioFilename: audio.ogg
AudioLeadIn: 0
PreviewTime: 89173
Countdown: 0
SampleSet: Soft
StackLeniency: 0.7
Mode: 0
LetterboxInBreaks: 0
WidescreenStoryboard: 0

[Editor]
DistanceSpacing: 1.4
BeatDivisor: 4
GridSize: 32
TimelineZoom: 2.899999

[Metadata]
Title:Face of Fact
TitleUnicode:Face of Fact
Artist:KOTOKO
ArtistUnicode:KOTOKO
Creator:Sanch-KK
Version:Agony
Source:BALDR FORCE
Tags:aye1337 228 ova full version EXE Resolution japanese electronic original video animation eroge vn visual novel I've sound C.G Mix game pop anime Team Baldrhead 戯画 giga
BeatmapID:4200226
BeatmapSetID:2017408

[Difficulty]
HPDrainRate:5
CircleSize:4
OverallDifficulty:8
ApproachRate:8.5
SliderMultiplier:1.4
SliderTickRate:1

[Events]
//Background and Video events
0,0,"ea311ee945f39d6a6443292298d5e1a86fdc74d3.jpg",0,0
//Break Periods
2,197818,202276
2,204928,209387
//Storyboard Layer 0 (Background)
//Storyboard Layer 1 (Fail)
//Storyboard Layer 2 (Pass)
//Storyboard Layer 3 (Foreground)
//Storyboard Layer 4 (Overlay)
//Storyboard Sound Samples

[TimingPoints]
285,444.444444444444,4,2,0,50,1,0
15618,-100,4,2,0,50,0,0
16284,-133.333333333333,4,2,0,50,0,0
30507,-117.647058823529,4,2,0,65,0,0
37618,-100,4,2,0,65,0,0
44729,-86.9565217391304,4,2,0,75,0,0
58951,-95.2380952380952,4,2,0,70,0,0
59840,-95.2380952380952,4,2,0,63,0,0
73173,-80,4,2,0,70,0,0
89618,-133.333333333333,4,2,0,65,0,0
96284,-79.9999999999999,4,2,0,75,0,0
103396,-74.0740740740741,4,2,0,80,0,1
117618,-100,4,2,0,70,0,0
121173,-83.3333333333333,4,2,0,75,0,0
135396,-90.9090909090909,4,2,0,63,0,0
149618,-80,4,2,0,70,0,0
166062,-133.333333333333,4,2,0,60,0,0
172729,-74.074074074074,4,2,0,75,0,0
179840,-66.6666666666667,4,2,0,80,0,1
194062,-83.3333333333333,4,2,0,75,0,0
197618,-133.333333333333,4,2,0,60,0,0
225618,-100,4,2,0,60,0,0
226062,-66.6666666666667,4,2,0,80,0,1
254507,-100,4,2,0,70,0,0
258062,-133.333333333333,4,2,0,60,0,0
265173,-71.4285714285714,4,2,0,75,0,0
272284,-62.5,4,2,0,80,0,1
286507,-71.4285714285714,4,2,0,75,0,0
300729,-76.9230769230769,4,2,0,75,0,0
313173,-100,4,2,0,75,0,0
313618,-50,4,2,0,75,0,0
314951,-133.333333333333,4,2,0,55,0,0
316284,-133.333333333333,4,2,0,45,0,0
325062,-133.333333333333,4,2,0,5,0,0
325173,-133.333333333333,4,2,0,45,0,0
328284,-133.333333333333,4,2,0,50,0,0
328507,-133.333333333333,4,2,0,55,0,0
328729,-133.333333333333,4,2,0,60,0,0
328951,-133.333333333333,4,2,0,65,0,0
329173,-133.333333333333,4,2,0,70,0,0
330062,-133.333333333333,4,2,0,45,0,0
330951,-133.333333333333,4,2,0,40,0,0

[Colours]
Combo1 : 241,120,148
Combo2 : 102,213,135
Combo3 : 130,102,204
Combo4 : 241,187,133

[HitObjects]
52,157,15618,5,0,0:0:0:0:
116,200,15840,1,2,0:0:0:0:
193,197,16062,1,0,0:0:0:0:
271,157,16284,6,0,P|278:193|271:276,2,105.000004005432,0|2|0,1:0|0:0|0:0,0:0:0:0:
212,104,17396,1,0,0:0:0:0:
166,45,17618,2,0,L|174:7,3,26.2500010013581,2|0|0|0,3:2|0:0|0:0|0:0,0:0:0:0:
100,86,18062,6,0,P|52:83|-6:58,2,105.000004005432,0|0|0,3:0|0:0|0:0,0:0:0:0:
305,48,19396,1,0,0:0:0:0:
380,75,19618,1,2,0:0:0:0:
455,102,19840,6,0,P|463:135|460:229,1,105.000004005432,0|0,3:0|0:0,0:0:0:0:
401,382,21173,1,2,0:0:0:0:
339,306,21618,2,0,B|448:329|377:347|496:366,1,157.500006008148,0|0,3:0|0:0,0:0:0:0:
467,276,22507,2,0,B|472:258|472:258|481:255|481:255|489:226,1,52.5000020027161,0|0,1:0|0:0,0:0:0:0:
377,133,22951,5,2,0:0:0:0:
265,220,23173,5,0,3:0:0:0:
121,173,23396,6,0,P|69:157|9:150,2,105.000004005432,0|2|0,1:0|0:0|3:0,0:0:0:0:
172,284,24729,2,0,L|180:341,1,52.5000020027161,2|0,0:0|0:0,0:0:0:0:
248,374,25173,2,0,P|300:365|365:343,2,105.000004005432,2|0|0,3:2|0:0|0:0,0:0:0:0:
172,284,26507,1,2,0:0:0:0:
172,284,26729,1,0,0:0:0:0:
118,204,26951,5,0,3:0:0:0:
202,112,27396,1,0,3:0:0:0:
168,15,27840,1,2,0:0:0:0:
168,15,28284,1,0,3:0:0:0:
256,192,28729,12,4,30507,1:0:0:0:
408,173,30951,5,2,3:2:0:0:
310,208,31173,2,0,P|264:194|175:179,1,119.000002269745,0|2,1:0|0:0,0:0:0:0:
194,180,31840,1,0,3:0:0:0:
154,45,32062,1,0,1:0:0:0:
194,180,32284,6,0,P|207:231|216:310,1,119.000002269745,0|2,1:0|0:2,0:0:0:0:
39,311,32951,2,0,P|26:260|17:181,1,119.000002269745,2|0,3:2|3:2,0:0:0:0:
89,67,33618,2,0,L|78:20,3,29.7500005674362,2|0|2|0,3:2|0:0|3:2|0:0,0:0:0:0:
21,96,34062,5,2,1:2:0:0:
135,127,34284,1,0,1:0:0:0:
110,214,34507,1,0,3:0:0:0:
246,254,34729,1,0,1:0:0:0:
246,254,35173,1,0,3:0:0:0:
246,254,35284,1,0,3:0:0:0:
246,254,35396,2,0,L|330:273,1,59.5000011348725,2|0,1:2|0:0,0:0:0:0:
485,288,35840,5,4,1:2:0:0:
465,156,36062,1,2,1:0:0:0:
393,202,36284,1,2,3:0:0:0:
247,252,36507,1,2,3:2:0:0:
247,252,36618,1,0,3:0:0:0:
247,252,36729,5,4,1:2:0:0:
267,384,36951,1,2,1:0:0:0:
339,338,37173,1,2,3:0:0:0:
267,384,37396,1,2,3:0:0:0:
136,255,37618,6,0,P|149:209|154:165,1,70,4|0,1:0|0:0,0:0:0:0:
102,356,38062,1,0,1:0:0:0:
28,211,38284,2,0,P|25:143|-13:54,1,140,2|0,1:2|3:0,0:0:0:0:
153,189,38951,1,2,3:0:0:0:
68,290,39173,1,0,3:0:0:0:
68,290,39284,1,0,3:0:0:0:
68,290,39396,6,0,P|18:302|-19:306,1,70,4|0,1:2|0:0,0:0:0:0:
154,193,39840,1,0,1:0:0:0:
204,334,40062,2,0,P|244:361|338:384,1,140,2|0,1:2|0:0,0:0:0:0:
457,274,40729,2,0,P|449:322|422:352,1,70,0|0,1:0|0:0,0:0:0:0:
375,286,41062,1,0,3:0:0:0:
375,286,41173,6,2,B|365:206|365:206|333:183,1,105,4|2,1:2|1:3,0:1:0:0:
512,328,41729,1,2,0:3:0:0:
512,328,41840,1,0,1:0:0:0:
441,384,42062,1,2,1:2:0:0:
420,380,42173,1,0,3:0:0:0:
399,376,42284,1,2,3:0:0:0:
378,372,42396,1,0,3:0:0:0:
357,368,42507,1,2,1:2:0:0:
289,256,42729,1,2,3:0:0:0:
436,206,42951,5,4,1:0:0:0:
290,113,43173,1,2,1:2:0:0:
131,181,43396,2,2,B|107:234|107:234|136:292,1,105,2|0,1:3|0:0,0:1:0:0:
199,240,43840,5,4,1:0:0:0:
59,157,44062,1,4,1:2:0:0:
62,0,44284,1,2,1:2:0:0:
62,0,44729,6,0,P|111:12|172:24,1,80.5000015354157,4|0,1:0|0:0,0:0:0:0:
206,178,45173,2,0,P|160:167|108:160,1,80.5000015354157,8|0,3:2|0:0,0:0:0:0:
40,156,45618,1,2,1:2:0:0:
35,179,45729,1,2,3:0:0:0:
31,202,45840,1,0,0:0:0:0:
27,225,45951,1,2,3:0:0:0:
24,248,46062,2,0,L|68:257,2,40.2500007677078,8|0|0,3:2|0:0|0:0,0:0:0:0:
202,374,46507,6,0,P|194:321|186:281,1,80.5000015354157,4|0,1:2|0:0,0:0:0:0:
353,154,46951,2,0,P|358:210|365:248,1,80.5000015354157,8|0,3:2|0:0,0:0:0:0:
240,326,47396,1,2,1:2:0:0:
217,331,47507,1,2,3:0:0:0:
194,335,47618,1,0,0:0:0:0:
171,339,47729,1,2,3:0:0:0:
148,342,47840,2,0,L|139:298,2,40.2500007677078,8|0|0,3:2|0:0|0:0,0:0:0:0:
399,313,48284,5,4,1:0:0:0:
169,232,48507,1,2,3:0:0:0:
380,171,48729,5,8,3:2:0:0:
210,384,48951,1,2,3:0:0:0:
313,341,49173,1,0,1:0:0:0:
306,309,49284,1,2,3:0:0:0:
300,277,49396,1,0,0:0:0:0:
262,255,49507,1,2,3:0:0:0:
265,230,49618,1,8,3:2:0:0:
270,206,49729,1,0,0:0:0:0:
276,182,49840,1,0,3:0:0:0:
167,39,50062,6,0,L|157:-28,2,40.2500007677078,4|0|0,1:2|0:0|0:0,0:0:0:0:
251,114,50507,1,8,3:2:0:0:
251,114,50729,1,0,3:0:0:0:
314,39,50951,1,2,1:2:0:0:
337,43,51062,1,0,3:0:0:0:
359,52,51173,1,0,3:0:0:0:
267,192,51396,1,8,1:2:0:0:
396,311,51618,1,0,1:0:0:0:
503,179,51840,6,0,P|508:137|504:91,1,80.5000015354157,4|0,1:0|0:0,0:0:0:0:
326,267,52284,2,0,P|319:310|323:354,1,80.5000015354157,8|0,3:2|0:0,0:0:0:0:
475,255,52729,1,2,1:2:0:0:
453,244,52840,1,2,3:0:0:0:
436,226,52951,1,0,0:0:0:0:
426,203,53062,1,2,3:0:0:0:
426,178,53173,1,8,3:2:0:0:
352,44,53396,1,0,3:0:0:0:
352,44,53507,1,0,3:0:0:0:
352,44,53618,6,0,P|400:56|438:60,1,80.5000015354157,4|0,1:2|0:0,0:0:0:0:
267,178,54062,2,0,P|206:164|160:158,1,80.5000015354157,8|0,3:2|0:0,0:0:0:0:
151,28,54507,1,2,1:2:0:0:
140,50,54618,1,2,3:0:0:0:
122,67,54729,1,0,3:0:0:0:
99,77,54840,1,2,3:0:0:0:
74,77,54951,1,8,3:2:0:0:
251,78,55173,1,0,3:0:0:0:
251,78,55284,1,0,3:0:0:0:
251,78,55396,5,4,1:2:0:0:
176,216,55618,1,2,3:0:0:0:
19,143,55840,1,8,3:2:0:0:
84,3,56062,1,2,3:0:0:0:
158,88,56284,1,2,1:2:0:0:
163,111,56396,1,0,3:0:0:0:
168,134,56507,1,2,3:0:0:0:
173,157,56618,1,0,3:0:0:0:
179,180,56729,1,8,1:2:0:0:
210,175,56840,1,0,3:0:0:0:
235,195,56951,1,2,3:0:0:0:
264,183,57062,1,0,3:0:0:0:
289,202,57173,6,0,L|347:189,2,40.2500007677078,4|0|0,1:0|0:0|0:0,0:0:0:0:
200,304,57618,1,8,3:2:0:0:
200,304,57840,1,0,0:0:0:0:
106,235,58062,2,0,L|53:224,2,40.2500007677078,2|0|2,1:2|0:0|1:2,0:0:0:0:
200,304,58507,1,8,3:2:0:0:
381,219,58729,1,0,3:0:0:0:
403,227,58840,1,0,3:0:0:0:
419,241,58951,6,0,P|438:292|440:396,1,146.999995513916,4|8,1:0|0:0,0:0:0:0:
227,189,59840,1,2,1:2:0:0:
227,189,59951,1,2,3:0:0:0:
227,189,60062,1,0,3:0:0:0:
232,90,60284,1,8,0:0:0:0:
328,55,60507,1,2,3:0:0:0:
149,157,60729,6,0,P|85:174|22:177,1,110.249996635437,2|0,1:2|0:0,0:0:0:0:
62,152,61173,2,0,P|56:110|45:63,1,73.4999977569581,8|0,0:0|0:0,0:0:0:0:
164,251,61618,1,2,1:2:0:0:
164,278,61729,1,2,3:0:0:0:
161,305,61840,1,0,0:0:0:0:
155,332,61951,1,2,3:0:0:0:
146,358,62062,1,8,0:0:0:0:
79,310,62284,1,0,3:0:0:0:
288,335,62507,6,0,B|377:357|305:363|429:385,1,146.999995513916,4|8,1:2|0:0,0:0:0:0:
442,281,63173,1,0,3:0:0:0:
442,281,63396,2,0,L|451:184,1,73.4999977569581,2|0,1:2|0:0,0:0:0:0:
277,236,63840,2,0,L|289:137,1,73.4999977569581,8|0,0:0|0:0,0:0:0:0:
222,379,64284,5,2,1:0:0:0:
222,379,64396,2,0,B|193:372|193:372|171:387|171:387|121:381,1,73.4999977569581,0|2,3:0|3:0,0:0:0:0:
100,335,64729,2,0,L|125:230,1,73.4999977569581,8|0,3:2|0:0,0:0:0:0:
108,0,65173,5,2,1:2:0:0:
87,35,65284,1,0,3:0:0:0:
83,76,65396,1,2,1:3:0:0:
97,114,65506,1,0,3:0:0:0:
126,144,65617,1,2,1:2:0:0:
164,158,65728,1,0,3:0:0:0:
205,155,65839,1,2,1:3:0:0:
241,135,65950,1,0,3:0:0:0:
265,102,66062,5,4,1:0:0:0:
265,102,66507,2,0,B|328:108|289:138|393:152,1,110.249996635437,8|0,3:2|0:0,0:0:0:0:
435,117,66951,2,0,L|444:72,3,36.749998878479,2|0|0|0,1:2|0:0|3:0|0:0,0:0:0:0:
378,173,67396,2,0,L|397:254,1,73.4999977569581,8|0,0:0|0:0,0:0:0:0:
248,76,67840,2,0,L|226:192,1,110.249996635437,4|0,1:2|0:0,0:0:0:0:
207,165,68284,2,0,L|121:148,1,73.4999977569581,8|0,0:0|0:0,0:0:0:0:
0,61,68729,1,2,1:2:0:0:
18,64,68840,1,2,3:0:0:0:
36,68,68951,1,0,0:0:0:0:
54,71,69062,1,2,3:0:0:0:
72,75,69173,1,8,0:0:0:0:
51,174,69396,1,0,3:0:0:0:
248,259,69618,5,4,1:0:0:0:
248,259,70062,1,8,0:0:0:0:
248,259,70507,5,2,1:2:0:0:
355,163,70729,1,2,3:0:0:0:
306,377,70951,1,8,0:0:0:0:
150,252,71173,1,8,3:0:0:0:
383,331,71396,5,2,1:0:0:0:
383,331,71507,1,0,3:0:0:0:
383,331,71618,1,2,3:0:0:0:
266,161,71840,1,8,0:0:0:0:
248,259,72062,1,2,3:0:0:0:
98,140,72284,1,2,1:1:0:0:
110,104,72396,1,2,3:0:0:0:
133,75,72507,1,0,0:0:0:0:
165,58,72618,1,2,3:0:0:0:
200,48,72729,2,2,B|209:84|209:84|238:105|238:105|252:159,1,110.249996635437,8|0,0:0|0:0,0:1:0:0:
316,186,73173,6,0,P|368:166|415:161,1,87.5,4|0,1:0|0:0,0:0:0:0:
195,299,73618,1,8,0:0:0:0:
195,299,73729,1,2,3:0:0:0:
345,384,73951,1,8,0:1:0:0:
365,293,74173,1,8,0:1:0:0:
365,293,74284,1,2,1:2:0:0:
382,200,74507,1,8,0:0:0:0:
472,344,74729,1,2,3:0:0:0:
291,227,74951,6,0,P|282:281|268:334,1,87.5,4|2,1:2|3:0,0:0:0:0:
156,205,75396,1,8,0:0:0:0:
156,205,75507,1,2,3:0:0:0:
175,115,75729,1,8,0:1:0:0:
87,101,75951,1,8,0:1:0:0:
87,101,76062,1,0,1:0:0:0:
50,298,76284,2,0,P|41:347|36:398,1,87.5,8|0,0:0|0:0,0:0:0:0:
204,273,76729,5,4,1:2:0:0:
209,242,76840,1,2,3:0:0:0:
215,212,76951,1,0,0:0:0:0:
218,181,77062,1,2,3:0:0:0:
219,150,77173,1,8,0:0:0:0:
172,71,77396,1,2,3:0:0:0:
350,3,77618,2,0,L|333:69,3,43.75,2|0|0|0,1:2|0:0|0:0|0:0,0:0:0:0:
369,38,78062,2,0,L|478:61,1,87.5,8|0,0:0|0:0,0:0:0:0:
512,183,78507,5,4,1:2:0:0:
418,234,78729,1,2,3:0:0:0:
296,113,78951,2,0,P|283:159|270:207,1,87.5,8|0,0:0|0:0,0:0:0:0:
282,216,79284,1,0,3:0:0:0:
293,235,79396,1,2,1:2:0:0:
414,314,79618,1,2,3:0:0:0:
283,382,79840,1,8,0:0:0:0:
250,352,79951,1,2,3:0:0:0:
206,356,80062,1,0,0:0:0:0:
166,336,80173,1,2,3:0:0:0:
122,342,80284,6,0,B|37:354|83:373|-36:391,1,131.25,4|0,1:0|0:0,0:0:0:0:
9,259,80729,2,0,P|20:305|48:316,1,43.75,8|0,1:2|3:0,0:0:0:0:
198,224,81062,2,0,P|216:159|223:59,1,131.25,2|2,1:3|3:0,0:0:0:0:
20,14,81618,1,8,3:2:0:0:
70,113,81840,1,0,3:0:0:0:
70,113,81951,1,0,3:0:0:0:
70,113,82062,5,4,1:2:0:0:
149,87,82284,1,2,3:0:0:0:
189,201,82507,1,8,0:0:0:0:
189,201,82618,1,0,3:0:0:0:
289,173,82840,1,8,0:1:0:0:
391,149,83062,1,8,0:1:0:0:
391,149,83173,1,0,1:0:0:0:
418,305,83396,2,0,L|406:365,3,43.75,8|0|0|0,3:2|0:0|0:0|0:0,0:0:0:0:
346,270,83840,6,0,P|306:298|250:323,1,87.5,4|0,1:0|0:0,0:0:0:0:
405,207,84173,2,0,P|350:192|271:149,1,131.25,2|2,1:3|3:2,0:0:0:0:
0,118,84729,2,0,P|50:96|87:60,1,87.5,2|0,1:2|0:0,0:0:0:0:
78,170,85062,2,0,P|131:203|223:224,1,131.25,2|2,1:3|0:0,0:0:0:0:
319,288,85618,5,4,1:2:0:0:
399,199,85840,1,0,3:0:0:0:
399,199,85951,1,0,3:0:0:0:
399,199,86062,1,8,0:0:0:0:
512,63,86284,1,2,3:0:0:0:
503,106,86396,1,0,3:0:0:0:
494,148,86507,1,2,1:2:0:0:
460,119,86618,1,0,3:0:0:0:
416,125,86729,1,2,3:0:0:0:
388,91,86840,1,0,3:0:0:0:
344,96,86951,1,8,1:2:0:0:
449,0,87173,1,0,3:0:0:0:
449,0,87284,1,0,3:0:0:0:
449,0,87396,5,2,1:0:0:0:
256,192,87507,12,4,88729,1:2:0:0:
49,76,89173,5,4,1:0:0:0:
49,76,89618,2,0,P|39:107|30:133,1,52.5000020027161,2|0,0:0|0:0,0:0:0:0:
66,208,90062,2,0,P|143:201|199:320,1,210.000008010865,2|0,3:2|1:0,0:0:0:0:
512,279,92729,6,0,P|455:279|340:-11,1,420.000016021729,2|0,3:2|1:0,0:0:0:0:
332,0,95396,1,0,1:0:0:0:
309,384,96284,5,4,1:0:0:0:
270,376,96396,1,0,3:0:0:0:
231,368,96507,1,2,3:0:0:0:
192,360,96618,1,0,3:0:0:0:
153,352,96729,1,8,3:2:0:0:
181,265,96951,1,0,3:0:0:0:
181,265,97062,1,8,0:1:0:0:
205,180,97284,1,8,0:1:0:0:
205,180,97395,1,0,3:0:0:0:
37,142,97618,2,0,P|50:191|55:239,1,87.5,10|0,1:2|0:0,0:0:0:0:
346,233,98062,5,4,1:2:0:0:
346,193,98173,1,0,3:0:0:0:
340,153,98284,1,2,3:0:0:0:
332,113,98396,1,0,3:0:0:0:
317,76,98507,1,8,3:2:0:0:
417,56,98729,1,0,3:0:0:0:
417,56,98840,1,8,0:1:0:0:
512,40,99062,1,8,0:1:0:0:
512,40,99173,1,0,3:0:0:0:
482,120,99396,1,10,1:2:0:0:
342,0,99618,1,2,3:0:0:0:
131,92,99840,6,2,P|113:152|115:230,1,131.25,4|0,1:0|0:0,0:1:0:0:
141,207,100284,2,0,L|239:223,1,87.5,8|0,0:0|0:0,0:0:0:0:
352,384,100729,1,2,1:2:0:0:
312,378,100841,1,0,3:0:0:0:
273,372,100952,1,2,3:0:0:0:
233,366,101063,1,0,3:0:0:0:
194,360,101174,1,8,3:2:0:0:
220,247,101396,1,2,3:0:0:0:
66,242,101618,5,4,1:2:0:0:
72,202,101730,1,0,3:3:0:0:
78,163,101841,1,2,3:3:0:0:
84,123,101952,1,0,3:3:0:0:
90,84,102062,2,0,L|34:77,2,43.75,10|0|2,0:0|0:0|0:0,0:0:0:0:
214,169,102507,2,0,P|262:158|305:152,1,87.5,2|0,1:2|0:0,0:0:0:0:
106,0,102951,2,2,P|68:43|-20:65,1,131.25,12|0,0:0|0:0,0:0:0:0:
55,154,103396,6,0,B|64:189|64:189|90:198|90:198|113:262,1,94.5000003604889,6|0,1:0|0:0,0:0:0:0:
167,333,103840,1,10,3:2:0:0:
167,333,103951,1,0,3:0:0:0:
167,333,104062,1,0,3:0:0:0:
231,73,104284,2,0,B|220:43|220:43|194:34|194:34|185:0,1,94.5000003604889,2|0,1:1|0:0,0:0:0:0:
149,123,104729,1,8,0:0:0:0:
386,178,104951,1,0,3:0:0:0:
386,178,105062,1,0,3:0:0:0:
386,178,105173,5,4,1:2:0:0:
285,224,105396,1,2,3:0:0:0:
285,224,105507,1,8,0:1:0:0:
182,268,105729,1,8,3:1:0:0:
182,268,105840,1,0,3:0:0:0:
231,19,106062,1,2,1:1:0:0:
327,61,106285,1,2,3:0:0:0:
418,101,106507,1,10,1:1:0:0:
511,139,106729,1,2,3:0:0:0:
366,255,106951,5,4,1:0:0:0:
511,139,107284,1,4,1:2:0:0:
231,19,107618,5,0,3:0:0:0:
209,149,107840,1,2,1:2:0:0:
209,149,107951,1,0,0:0:0:0:
209,149,108062,1,0,3:0:0:0:
182,268,108284,1,8,0:2:0:0:
154,384,108507,1,2,3:0:0:0:
303,307,108729,5,6,1:0:0:0:
41,352,109062,1,4,1:2:0:0:
131,108,109396,1,2,1:0:0:0:
165,258,109618,5,2,1:1:0:0:
165,258,109729,1,0,3:0:0:0:
165,258,109840,1,0,3:0:0:0:
195,169,110062,1,12,0:2:0:0:
74,245,110284,1,2,3:0:0:0:
209,336,110507,5,6,1:0:0:0:
251,331,110618,1,0,3:0:0:0:
293,326,110729,1,2,3:0:0:0:
335,321,110840,1,0,3:0:0:0:
377,316,110951,1,10,3:2:0:0:
369,214,111173,1,2,3:0:0:0:
369,214,111284,1,10,0:1:0:0:
357,115,111506,1,8,3:1:0:0:
357,115,111617,1,0,3:0:0:0:
460,29,111840,2,0,B|456:76|476:147,1,94.5000003604889,10|0,1:0|0:0,0:0:0:0:
269,182,112284,5,6,1:0:0:0:
273,136,112395,1,0,3:0:0:0:
279,91,112506,1,2,3:0:0:0:
284,46,112617,1,0,3:0:0:0:
289,0,112728,1,10,3:2:0:0:
147,111,112951,1,2,3:0:0:0:
147,111,113062,1,10,0:1:0:0:
38,12,113284,1,8,3:1:0:0:
38,12,113395,1,0,3:0:0:0:
20,132,113618,2,0,P|9:182|-5:242,1,94.5000003604889,10|0,1:0|0:0,0:0:0:0:
270,239,114062,6,2,L|339:230,3,47.2500001802444,6|0|2|0,1:0|0:0|0:0|0:0,0:1:0:0:
211,293,114507,2,0,L|186:396,1,94.5000003604889,8|0,0:0|0:0,0:0:0:0:
90,176,114951,2,0,L|127:51,1,94.5000003604889,6|0,1:0|0:0,0:0:0:0:
169,7,115284,2,0,P|105:38|13:37,1,141.750000540733,2|2,1:3|3:0,0:0:0:0:
317,152,115840,6,0,P|370:130|430:114,1,94.5000003604889,6|0,1:0|0:0,0:0:0:0:
468,67,116173,2,0,L|426:213,1,141.750000540733,8|8,1:0|3:1,0:0:0:0:
512,362,116729,1,2,1:2:0:0:
471,350,116840,1,0,3:0:0:0:
429,338,116951,1,2,3:0:0:0:
387,327,117062,1,0,3:0:0:0:
345,317,117173,1,8,0:0:0:0:
482,260,117396,1,2,3:0:0:0:
318,154,117618,5,4,1:0:0:0:
348,88,117840,1,0,3:0:0:0:
348,88,117951,1,0,3:0:0:0:
348,88,118062,1,8,0:0:0:0:
307,17,118284,1,0,3:0:0:0:
307,17,118396,2,0,B|259:25|183:8,1,105,0|0,1:0|3:0,0:0:0:0:
39,55,118951,1,8,0:0:0:0:
122,95,119173,1,0,3:0:0:0:
122,95,119284,1,0,3:0:0:0:
122,95,119396,5,4,1:2:0:0:
129,125,119507,1,0,3:0:0:0:
134,156,119618,1,2,3:0:0:0:
138,187,119729,1,0,3:0:0:0:
138,218,119840,1,12,3:2:0:0:
71,325,120062,1,0,1:0:0:0:
158,359,120284,1,0,1:0:0:0:
158,359,120507,1,4,1:3:0:0:
0,131,120729,5,12,1:2:0:0:
0,131,121173,6,0,P|61:128|122:135,1,83.9999974365235,4|0,1:0|0:0,0:0:0:0:
264,258,121618,2,0,P|213:258|162:263,1,83.9999974365235,8|0,3:2|0:0,0:0:0:0:
175,118,122062,1,2,1:2:0:0:
180,89,122173,1,0,3:0:0:0:
185,60,122284,1,2,3:0:0:0:
190,30,122396,1,0,3:0:0:0:
196,1,122507,1,8,3:2:0:0:
330,128,122729,1,0,3:0:0:0:
330,128,122840,1,0,3:0:0:0:
330,128,122951,6,0,P|380:124|443:120,1,83.9999974365235,4|0,1:2|0:0,0:0:0:0:
512,238,123396,1,8,0:0:0:0:
386,201,123618,1,0,3:0:0:0:
321,265,123840,1,2,1:2:0:0:
326,294,123951,1,0,3:0:0:0:
331,323,124062,1,2,3:0:0:0:
336,353,124174,1,0,3:0:0:0:
342,382,124285,1,8,3:2:0:0:
196,344,124507,1,0,3:0:0:0:
196,344,124618,1,0,3:0:0:0:
196,344,124729,5,4,1:0:0:0:
345,379,124951,1,0,3:0:0:0:
318,187,125173,1,8,0:0:0:0:
437,268,125396,1,2,3:0:0:0:
224,228,125618,1,2,1:2:0:0:
231,199,125729,1,2,3:0:0:0:
235,169,125840,1,0,3:0:0:0:
216,146,125951,1,2,3:0:0:0:
194,125,126062,1,10,1:2:0:0:
199,96,126173,1,0,3:0:0:0:
207,67,126284,1,2,3:0:0:0:
100,12,126507,6,0,L|58:-1,2,41.9999987182618,4|0|0,1:2|0:0|1:2,0:0:0:0:
130,169,126951,2,0,L|142:223,1,41.9999987182618,8|0,1:2|0:0,0:0:0:0:
100,180,127173,2,0,L|42:156,1,41.9999987182618,2|0,3:0|0:0,0:0:0:0:
207,67,127396,1,2,1:2:0:0:
247,77,127507,1,0,1:0:0:0:
287,87,127618,1,2,1:3:0:0:
210,167,127840,6,0,L|230:238,1,41.9999987182618,10|0,1:1|0:0,0:0:0:0:
101,97,128062,2,0,L|43:73,1,41.9999987182618,2|0,3:1|0:0,0:0:0:0:
60,300,128284,6,0,P|72:367|76:415,1,83.9999974365235,4|0,1:0|0:0,0:0:0:0:
238,228,128729,2,0,P|223:161|217:125,1,83.9999974365235,8|0,0:2|0:0,0:0:0:0:
371,254,129173,1,2,1:2:0:0:
379,286,129284,1,0,0:0:0:0:
386,319,129396,1,2,3:0:0:0:
395,351,129507,1,0,3:0:0:0:
403,383,129618,1,8,1:2:0:0:
197,312,129840,1,0,3:0:0:0:
197,312,129951,1,0,3:0:0:0:
197,312,130062,6,0,P|143:324|94:330,1,83.9999974365235,4|0,1:2|0:0,0:0:0:0:
253,225,130507,1,8,3:2:0:0:
200,135,130729,1,0,3:0:0:0:
253,41,130951,1,2,1:2:0:0:
285,33,131062,1,0,0:0:0:0:
318,26,131174,1,2,3:0:0:0:
350,17,131285,1,0,3:0:0:0:
382,9,131396,1,8,1:2:0:0:
181,0,131618,1,0,3:0:0:0:
181,0,131729,1,0,3:0:0:0:
181,0,131840,5,4,1:2:0:0:
137,178,132062,1,0,3:0:0:0:
181,0,132284,1,10,3:2:0:0:
229,219,132507,1,0,0:0:0:0:
80,108,132729,1,2,1:2:0:0:
48,118,132840,1,2,3:0:0:0:
23,141,132951,1,0,3:0:0:0:
6,170,133062,1,2,3:0:0:0:
1,203,133173,1,10,3:2:0:0:
170,317,133396,1,2,3:0:0:0:
191,304,133507,1,0,3:0:0:0:
225,306,133618,5,4,1:0:0:0:
261,284,133729,1,0,3:0:0:0:
301,290,133840,1,2,3:0:0:0:
390,225,134062,1,8,3:2:0:0:
390,225,134284,1,2,3:2:0:0:
286,379,134507,1,4,1:2:0:0:
286,379,134618,1,0,3:0:0:0:
286,379,134729,1,0,3:0:0:0:
185,278,134951,1,8,3:2:0:0:
185,278,135173,1,2,3:2:0:0:
460,355,135396,6,0,P|478:291|476:211,1,115.50000352478,4|0,1:0|0:0,0:0:0:0:
459,256,135840,2,0,L|351:233,1,77.0000023498536,8|0,0:0|0:0,0:0:0:0:
262,125,136284,1,2,1:2:0:0:
262,125,136396,2,0,L|331:136,2,38.5000011749268,2|0|2,3:0|0:0|3:0,0:0:0:0:
232,138,136729,2,0,L|216:237,1,77.0000023498536,8|0,3:2|0:0,0:0:0:0:
437,152,137173,6,0,P|446:97|452:-17,1,154.000004699707,2|8,1:2|0:0,0:0:0:0:
118,107,138062,1,0,1:0:0:0:
91,104,138173,1,2,3:0:0:0:
64,101,138284,1,0,3:0:0:0:
36,98,138396,1,2,3:0:0:0:
9,96,138507,2,0,P|1:140|2:190,1,77.0000023498536,8|0,0:0|0:0,0:0:0:0:
213,297,138951,5,4,1:2:0:0:
213,297,139396,1,8,0:0:0:0:
132,246,139618,1,0,3:0:0:0:
132,246,139729,1,0,3:0:0:0:
132,246,139840,2,0,P|86:237|23:227,1,77.0000023498536,2|0,1:2|0:0,0:0:0:0:
230,154,140284,2,0,L|243:202,3,38.5000011749268,8|0|0|0,0:0|0:0|0:0|0:0,0:0:0:0:
309,233,140729,5,2,1:2:0:0:
128,327,140951,1,2,1:3:0:0:
98,161,141173,1,2,1:0:0:0:
302,316,141396,1,2,1:3:0:0:
402,238,141618,1,2,1:0:0:0:
490,282,141840,1,2,1:3:0:0:
422,131,142062,1,2,1:0:0:0:
309,233,142284,1,2,1:3:0:0:
142,144,142507,6,2,P|75:141|6:152,1,115.50000352478,4|0,1:0|0:0,0:1:0:0:
50,166,142951,2,0,L|65:253,1,77.0000023498536,8|0,0:0|0:0,0:0:0:0:
240,145,143396,1,2,1:2:0:0:
233,118,143507,1,2,3:0:0:0:
226,91,143618,1,0,3:0:0:0:
219,64,143729,1,2,3:0:0:0:
212,37,143840,1,8,3:2:0:0:
312,76,144062,1,0,3:0:0:0:
370,184,144284,6,0,P|437:181|506:192,1,115.50000352478,4|0,1:2|0:0,0:1:0:0:
462,206,144728,2,0,L|443:311,1,77.0000023498536,8|0,0:0|0:0,0:0:0:0:
302,384,145173,1,2,1:2:0:0:
284,352,145284,2,0,L|226:337,2,38.5000011749268,2|0|2,3:0|0:0|3:0,0:0:0:0:
362,335,145618,2,0,L|456:360,1,77.0000023498536,10|0,3:2|0:0,0:0:0:0:
291,215,146062,5,4,1:0:0:0:
291,215,146507,1,8,3:2:0:0:
291,215,146951,5,2,1:2:0:0:
234,100,147173,1,2,3:0:0:0:
385,176,147396,1,8,0:0:0:0:
280,315,147618,1,2,3:0:0:0:
131,213,147840,5,4,1:2:0:0:
131,213,147951,1,0,3:0:0:0:
131,213,148062,1,2,3:2:0:0:
187,149,148284,2,0,L|246:142,2,38.5000011749268,10|0|0,3:2|0:0|0:0,0:0:0:0:
37,167,148729,1,2,1:2:0:0:
12,201,148840,1,2,3:0:0:0:
26,240,148951,1,0,0:0:0:0:
15,281,149062,1,2,3:0:0:0:
0,293,149173,2,2,B|45:303|45:303|62:326|62:326|131:344,1,115.50000352478,8|0,1:0|0:0,0:1:0:0:
191,361,149618,5,4,1:0:0:0:
170,254,149840,1,0,3:0:0:0:
305,233,150062,1,8,3:2:0:0:
305,233,150173,1,0,1:0:0:0:
286,138,150396,1,8,3:1:0:0:
270,49,150618,1,8,3:1:0:0:
270,49,150729,1,2,1:2:0:0:
372,80,150951,2,0,P|427:66|469:57,1,87.5,8|0,0:0|0:0,0:0:0:0:
180,0,151396,6,0,P|130:12|85:27,1,87.5,4|0,1:2|0:0,0:0:0:0:
179,118,151840,1,8,3:2:0:0:
179,118,151951,1,0,1:0:0:0:
300,88,152173,1,8,3:1:0:0:
325,209,152396,1,8,3:1:0:0:
325,209,152507,1,2,1:2:0:0:
482,179,152729,1,8,3:2:0:0:
474,213,152840,1,0,3:0:0:0:
466,247,152951,1,2,3:0:0:0:
458,281,153062,1,0,3:0:0:0:
476,322,153173,6,0,P|427:294|343:286,1,131.25,4|2,1:0|0:0,0:0:0:0:
185,143,153840,1,2,3:2:0:0:
118,217,154062,1,0,1:0:0:0:
118,217,154173,1,0,0:0:0:0:
118,217,154284,1,0,3:0:0:0:
267,155,154507,1,8,0:0:0:0:
177,53,154729,1,2,3:0:0:0:
96,126,154951,6,0,L|37:113,2,43.75,4|0|0,1:2|0:0|0:0,0:0:0:0:
168,152,155284,1,2,0:0:0:0:
192,169,155396,2,0,P|234:156|303:143,1,87.5,8|0,0:0|0:0,0:0:0:0:
395,211,155840,5,2,1:2:0:0:
290,273,156062,1,0,3:0:0:0:
143,235,156284,1,8,0:0:0:0:
103,134,156507,1,0,3:0:0:0:
234,0,156729,6,0,B|246:79|278:39|292:138,1,131.25,4|0,1:0|0:0,0:0:0:0:
238,178,157173,1,8,3:2:0:0:
254,201,157284,2,0,L|242:257,1,43.75,2|0,3:0|0:0,0:0:0:0:
355,175,157507,2,0,L|500:153,1,131.25,2|0,1:2|0:0,0:0:0:0:
359,383,158062,1,8,0:0:0:0:
251,337,158284,1,0,3:0:0:0:
251,337,158396,1,0,3:0:0:0:
251,337,158507,6,0,L|161:350,1,87.5,4|0,1:2|0:0,0:0:0:0:
323,273,158951,1,8,0:0:0:0:
323,273,159062,1,0,1:0:0:0:
341,172,159284,1,8,3:1:0:0:
238,153,159507,1,8,3:1:0:0:
238,153,159618,1,2,1:2:0:0:
260,55,159840,2,0,P|313:66|369:74,1,87.5,8|0,0:0|0:0,0:0:0:0:
140,182,160284,5,4,1:0:0:0:
105,188,160396,1,0,3:0:0:0:
70,195,160507,1,2,3:0:0:0:
35,202,160618,1,0,3:0:0:0:
0,209,160729,1,8,3:2:0:0:
50,112,160951,1,0,3:0:0:0:
205,234,161173,1,4,1:2:0:0:
211,269,161285,1,2,3:0:0:0:
218,304,161396,1,0,3:0:0:0:
225,339,161507,1,2,3:0:0:0:
232,374,161618,1,8,3:2:0:0:
307,285,161840,1,0,3:0:0:0:
76,337,162062,5,4,1:2:0:0:
105,318,162173,1,0,3:0:0:0:
89,286,162284,1,2,3:0:0:0:
116,264,162396,1,0,3:0:0:0:
105,230,162507,1,8,3:2:0:0:
133,209,162618,1,2,3:0:0:0:
121,176,162729,1,0,3:0:0:0:
144,149,162840,1,2,3:0:0:0:
132,116,162951,1,2,1:2:0:0:
151,92,163062,1,0,3:0:0:0:
140,67,163173,1,2,3:0:0:0:
153,49,163284,1,0,3:0:0:0:
149,31,163396,1,8,1:2:0:0:
155,19,163507,1,0,3:0:0:0:
151,10,163618,1,0,1:0:0:0:
152,5,163729,1,0,3:0:0:0:
153,0,163840,5,2,1:2:0:0:
256,192,163951,12,4,165173,1:2:0:0:
452,237,165618,5,4,1:0:0:0:
452,237,166062,2,0,L|433:299,1,52.5000020027161,2|0,0:0|0:0,0:0:0:0:
370,384,166507,2,0,B|359:335|359:335|321:314|321:314|287:194,1,210.000008010865,2|0,3:2|1:0,0:0:0:0:
51,77,168284,1,2,0:0:0:0:
108,28,168507,1,0,3:0:0:0:
174,55,168729,1,2,0:0:0:0:
177,132,168951,1,0,3:0:0:0:
107,160,169173,6,0,B|301:226|156:246|393:326,1,315.000012016297,2|0,1:2|3:2,0:2:0:0:
372,318,170951,5,0,1:0:0:0:
372,318,171840,1,0,1:0:0:0:
443,0,172729,5,4,1:0:0:0:
401,7,172840,1,0,3:0:0:0:
359,15,172951,1,2,3:0:0:0:
317,23,173062,1,0,3:0:0:0:
275,31,173173,1,8,3:2:0:0:
299,136,173396,1,0,3:0:0:0:
299,136,173507,1,8,0:1:0:0:
328,239,173729,1,8,0:1:0:0:
328,239,173840,1,0,3:0:0:0:
472,139,174062,2,0,P|407:155|366:167,1,94.5000003604889,8|0,0:0|0:0,0:0:0:0:
168,82,174507,5,4,1:2:0:0:
126,75,174618,1,0,3:0:0:0:
84,67,174729,1,2,3:0:0:0:
42,59,174840,1,0,3:0:0:0:
0,51,174951,1,8,3:2:0:0:
166,3,175173,1,0,3:0:0:0:
166,3,175284,1,8,0:1:0:0:
64,148,175506,1,8,0:1:0:0:
64,148,175617,1,0,3:0:0:0:
186,186,175840,1,8,3:2:0:0:
152,294,176062,1,2,3:0:0:0:
352,312,176284,6,0,L|467:335,1,94.5000003604889,4|0,1:2|0:0,0:0:0:0:
283,237,176729,1,8,3:2:0:0:
283,237,176840,1,0,3:0:0:0:
283,237,176951,1,2,3:0:0:0:
117,293,177173,2,0,L|143:392,1,94.5000003604889,2|0,1:2|0:0,0:0:0:0:
159,356,177507,2,0,L|271:330,1,94.5000003604889,2|2,1:3|3:0,0:0:0:0:
274,357,177840,1,2,1:2:0:0:
155,213,178062,5,0,1:0:0:0:
146,170,178173,1,0,3:0:0:0:
137,127,178284,1,2,3:0:0:0:
129,85,178396,1,0,3:0:0:0:
121,43,178507,2,0,P|48:55|2:62,1,94.5000003604889,8|0,0:0|0:0,0:0:0:0:
251,163,178951,5,2,1:2:0:0:
329,87,179173,1,0,3:0:0:0:
329,87,179284,1,0,3:0:0:0:
329,87,179396,2,0,L|381:78,2,47.2500001802444,8|0|0,0:0|0:0|3:0,0:0:0:0:
318,285,179840,6,0,B|313:318|313:318|329:347|329:347|316:404,1,105.000004005432,6|0,1:0|0:0,0:0:0:0:
251,163,180284,1,8,1:2:0:0:
251,163,180396,1,0,0:0:0:0:
251,163,180507,1,0,3:0:0:0:
500,240,180729,2,0,B|495:273|495:273|511:302|511:302|498:359,1,105.000004005432,2|0,1:0|0:0,0:0:0:0:
395,299,181173,1,8,0:0:0:0:
442,177,181396,1,0,3:0:0:0:
442,177,181507,1,0,3:0:0:0:
442,177,181618,5,4,1:2:0:0:
491,8,181951,1,2,1:0:0:0:
251,163,182284,1,2,1:3:0:0:
153,231,182507,1,2,1:2:0:0:
153,231,182618,1,0,3:0:0:0:
153,231,182729,1,2,3:0:0:0:
55,293,182951,1,10,1:1:0:0:
198,336,183173,1,2,3:0:0:0:
394,378,183396,5,6,1:0:0:0:
237,181,183729,1,2,1:0:0:0:
118,15,184062,1,2,1:2:0:0:
243,57,184284,1,2,1:0:0:0:
243,57,184396,1,0,3:0:0:0:
243,57,184507,1,0,3:0:0:0:
355,89,184729,1,10,1:0:0:0:
468,124,184951,1,2,1:3:0:0:
318,236,185173,5,6,1:0:0:0:
301,5,185507,1,4,1:2:0:0:
512,116,185840,1,2,1:2:0:0:
374,121,186062,5,2,1:0:0:0:
374,121,186173,1,0,3:0:0:0:
374,121,186284,1,2,3:0:0:0:
428,51,186507,1,12,1:2:0:0:
284,106,186729,1,2,1:2:0:0:
403,200,186951,5,6,1:0:0:0:
394,246,187062,1,2,3:0:0:0:
386,292,187173,1,0,3:0:0:0:
377,338,187284,1,2,3:0:0:0:
368,384,187396,1,8,1:2:0:0:
215,354,187618,1,2,3:0:0:0:
215,354,187729,1,10,0:1:0:0:
248,214,187951,1,8,3:1:0:0:
248,214,188062,1,0,3:0:0:0:
96,191,188284,2,0,P|105:247|113:294,1,105.000004005432,10|0,1:0|0:0,0:0:0:0:
267,188,188729,5,6,1:0:0:0:
273,141,188840,1,0,3:0:0:0:
281,94,188951,1,2,3:0:0:0:
292,48,189062,1,0,3:0:0:0:
303,2,189173,1,10,3:2:0:0:
357,159,189396,1,2,3:0:0:0:
357,159,189507,1,10,0:1:0:0:
193,29,189729,1,8,3:1:0:0:
193,29,189840,1,0,3:0:0:0:
381,63,190062,1,10,1:0:0:0:
175,138,190284,1,2,1:3:0:0:
419,292,190507,6,2,L|481:307,3,52.5000020027161,6|0|0|0,1:0|0:0|0:0|0:0,0:1:0:0:
354,245,190951,2,0,B|361:189|394:225|404:116,1,105.000004005432,8|0,1:2|0:0,0:0:0:0:
219,23,191396,2,0,B|212:79|179:43|169:152,1,105.000004005432,2|0,1:1|0:0,0:0:0:0:
151,78,191729,2,0,P|89:64|28:53,1,105.000004005432,2|0,1:3|0:0,0:0:0:0:
30,31,192062,1,2,1:2:0:0:
105,240,192284,5,2,1:1:0:0:
146,233,192396,1,2,3:0:0:0:
187,227,192507,1,0,3:0:0:0:
228,221,192618,1,2,3:0:0:0:
269,214,192729,1,8,1:2:0:0:
292,132,192951,1,2,3:0:0:0:
346,303,193173,1,2,1:1:0:0:
346,303,193284,1,0,3:0:0:0:
346,303,193396,1,0,3:0:0:0:
170,153,193618,1,10,1:2:0:0:
344,43,193840,1,2,3:0:0:0:
257,378,194062,5,4,1:0:0:0:
201,331,194284,1,0,3:0:0:0:
201,331,194396,1,0,3:0:0:0:
201,331,194507,1,8,0:0:0:0:
120,339,194729,1,0,1:0:0:0:
120,339,194840,2,0,P|106:299|121:206,1,125.999996154785,2|0,3:2|1:0,0:0:0:0:
251,129,195396,2,0,L|234:215,1,83.9999974365235,8|0,0:0|0:0,0:0:0:0:
156,70,195840,5,6,1:2:0:0:
133,94,195951,1,0,3:0:0:0:
99,80,196062,1,2,3:0:0:0:
79,94,196173,1,0,3:0:0:0:
38,104,196284,1,8,3:2:0:0:
161,187,196507,1,4,3:0:0:0:
238,174,196729,1,4,3:0:0:0:
250,254,196951,1,2,3:0:0:0:
432,227,197173,1,4,1:2:0:0:
405,0,197618,5,4,1:0:0:0:
93,115,202951,6,2,B|82:150|82:150|70:159|70:159|58:196,1,78.7500030040742,2|0,0:0|3:0,0:1:0:0:
187,307,203507,1,0,0:0:0:0:
187,307,203618,2,2,B|198:342|198:342|210:351|210:351|222:388,1,78.7500030040742,2|0,0:0|3:0,0:1:0:0:
100,330,204173,1,2,0:0:0:0:
100,330,204284,2,2,L|133:215,1,105.000004005432,0|4,3:0|0:0,0:0:0:0:
256,192,210062,12,4,211840,0:1:0:0:
512,36,212507,5,2,0:0:0:0:
456,89,212729,2,0,P|420:75|400:72,1,52.5000020027161,0|0,3:0|0:0,0:0:0:0:
337,36,213173,2,0,P|311:46|281:54,1,52.5000020027161,0|0,3:0|0:0,0:0:0:0:
228,102,213618,2,0,P|190:87|106:68,1,105.000004005432,2|0,0:0|0:0,0:0:0:0:
11,2,214284,2,0,P|18:67|62:83,1,105.000004005432,2|0,0:0|0:0,0:0:0:0:
115,116,214951,2,0,P|152:100|181:93,1,52.5000020027161,0|0,3:0|0:0,0:0:0:0:
287,128,215396,5,2,3:2:0:0:
358,96,215618,1,0,3:0:0:0:
434,113,215840,1,0,3:0:0:0:
509,110,216062,1,2,0:0:0:0:
299,235,216507,6,0,L|291:280,2,26.2500010013581,2|0|0,3:2|0:0|0:0,0:0:0:0:
211,149,216951,2,0,L|203:114,1,26.2500010013581,0|0,3:0|0:0,0:0:0:0:
207,239,217173,6,0,P|174:252|99:265,1,105.000004005432,2|0,3:2|0:0,0:0:0:0:
305,145,217840,2,0,P|338:132|413:119,1,105.000004005432,2|0,3:2|0:0,0:0:0:0:
371,207,218507,1,0,3:0:0:0:
410,277,218729,1,2,0:0:0:0:
355,349,218951,6,0,P|329:330|306:320,2,52.5000020027161,2|0|0,3:2|3:0|0:0,0:0:0:0:
441,380,219618,2,0,P|433:317|442:258,1,105.000004005432,2|0,0:0|0:0,0:0:0:0:
437,276,220284,1,0,0:0:0:0:
157,35,220729,6,0,P|183:54|206:64,2,52.5000020027161,2|0|0,3:2|3:0|0:0,0:0:0:0:
71,4,221396,2,0,P|79:67|70:126,1,105.000004005432,2|0,0:0|0:0,0:0:0:0:
75,108,222062,1,0,0:0:0:0:
247,284,222507,5,2,0:0:0:0:
315,262,222729,1,0,3:0:0:0:
348,200,222951,1,2,0:0:0:0:
326,132,223173,1,0,3:0:0:0:
264,99,223395,1,2,0:0:0:0:
196,121,223617,1,0,3:0:0:0:
163,183,223840,1,0,3:0:0:0:
185,251,224062,1,0,3:0:0:0:
257,194,224284,5,0,1:0:0:0:
257,194,224507,1,2,1:2:0:0:
107,285,224729,1,8,1:2:0:0:
86,281,224840,1,0,3:0:0:0:
65,277,224951,1,2,3:0:0:0:
44,272,225062,1,0,3:0:0:0:
23,266,225173,1,2,1:2:0:0:
93,186,225396,1,2,1:3:0:0:
311,311,225618,2,2,P|377:301|431:258,1,105,6|0,1:2|0:0,0:0:0:0:
466,217,226062,6,0,B|480:277|500:249|515:324,1,105.000004005432,6|0,1:0|1:0,1:1:0:0:
363,384,226507,1,8,1:0:0:0:
240,276,226729,1,2,3:0:0:0:
242,249,226840,1,0,3:0:0:0:
244,222,226951,1,2,1:1:0:0:
279,199,227062,1,0,3:0:0:0:
314,176,227173,1,2,3:0:0:0:
322,134,227284,1,0,3:0:0:0:
327,92,227396,1,8,1:1:0:0:
176,180,227618,1,2,3:0:0:0:
86,114,227840,6,0,L|14:99,1,52.5000020027161,6|0,1:2|0:0,0:1:0:0:
176,180,228062,1,2,3:0:0:0:
176,0,228284,2,0,P|188:65|213:117,1,105.000004005432,8|0,1:0|0:0,0:0:0:0:
264,249,228729,5,2,1:0:0:0:
273,285,228840,1,0,3:0:0:0:
282,320,228951,1,0,3:0:0:0:
292,355,229062,1,0,3:0:0:0:
263,374,229173,1,10,1:0:0:0:
275,328,229284,1,0,3:0:0:0:
287,282,229396,1,0,3:0:0:0:
299,236,229507,1,0,3:0:0:0:
279,189,229618,5,6,1:0:0:0:
391,322,229840,1,2,3:0:0:0:
171,225,230062,1,8,1:0:0:0:
317,81,230284,2,2,L|377:71,3,52.5000020027161,2|0|0|0,1:3|0:0|0:3|0:0,0:1:0:0:
364,160,230729,1,0,3:0:0:0:
364,160,230840,1,0,3:0:0:0:
364,160,230951,1,10,1:0:0:0:
502,138,231173,1,2,3:0:0:0:
470,0,231396,5,4,1:2:0:0:
441,82,231618,1,2,3:0:0:0:
349,54,231840,1,8,1:0:0:0:
349,54,231951,1,0,3:0:0:0:
349,54,232062,1,2,3:0:0:0:
216,374,232507,1,2,3:0:0:0:
209,327,232618,1,0,3:0:0:0:
193,282,232729,1,10,1:0:0:0:
161,247,232840,1,0,3:0:0:0:
118,225,232951,1,2,3:0:0:0:
72,212,233062,1,0,3:0:0:0:
24,212,233173,6,0,P|12:269|19:340,1,105.000004005432,6|0,1:0|0:0,0:0:0:0:
136,384,233618,1,8,1:0:0:0:
291,245,233840,1,2,3:0:0:0:
248,267,233951,1,0,3:0:0:0:
204,285,234062,1,2,1:0:0:0:
157,294,234173,1,0,3:0:0:0:
109,293,234284,1,0,3:2:0:0:
314,161,234507,1,8,1:0:0:0:
352,188,234618,1,0,3:0:0:0:
395,207,234729,1,2,3:0:0:0:
440,221,234840,1,0,3:0:0:0:
486,229,234951,5,6,1:2:0:0:
512,127,235173,1,2,3:0:0:0:
409,126,235396,2,0,P|359:156|265:191,1,157.500006008148,10|0,1:0|0:0,0:0:0:0:
195,150,235840,2,0,L|213:87,2,52.5000020027161,2|0|0,1:0|0:0|0:0,0:0:0:0:
334,284,236284,2,0,B|361:341|334:329|360:384,1,105.000004005432,10|0,1:0|0:0,0:0:0:0:
100,155,236729,6,0,B|45:129|57:156|0:129,1,105.000004005432,6|0,1:0|0:0,0:0:0:0:
270,322,237173,1,8,1:0:0:0:
196,357,237396,1,2,3:2:0:0:
196,357,237840,1,2,3:2:0:0:
196,357,237951,1,0,3:0:0:0:
196,357,238062,1,10,1:0:0:0:
255,172,238284,1,2,3:0:0:0:
153,233,238507,5,2,1:0:0:0:
377,297,238729,1,2,3:2:0:0:
428,96,238951,1,10,1:0:0:0:
222,31,239173,1,2,3:0:0:0:
304,234,239396,5,2,1:1:0:0:
351,229,239507,1,0,3:0:0:0:
398,223,239618,1,2,3:0:0:0:
445,217,239729,1,0,3:0:0:0:
492,211,239840,1,8,1:0:0:0:
485,269,239951,1,0,3:0:0:0:
508,300,240062,1,2,3:0:0:0:
506,341,240173,1,0,3:0:0:0:
512,364,240284,6,0,P|445:344|374:335,1,105.000004005432,6|0,1:0|0:0,0:0:0:0:
218,274,240729,1,8,1:0:0:0:
221,226,240840,1,0,3:0:0:0:
230,179,240951,1,2,3:0:0:0:
246,135,241062,1,0,3:0:0:0:
274,97,241173,1,2,1:0:0:0:
187,0,241396,1,2,3:2:0:0:
168,43,241507,1,0,3:0:0:0:
137,79,241618,1,8,1:0:0:0:
94,100,241729,1,0,3:0:0:0:
47,107,241840,1,2,3:0:0:0:
127,288,242062,6,0,L|148:362,1,52.5000020027161,4|0,1:2|0:0,0:0:0:0:
153,191,242284,1,2,3:2:0:0:
37,269,242507,1,8,1:0:0:0:
229,339,242729,1,2,1:0:0:0:
229,339,243173,5,2,1:0:0:0:
234,292,243284,1,0,3:0:0:0:
254,248,243396,1,8,1:0:0:0:
295,224,243507,1,0,3:0:0:0:
326,189,243618,1,2,3:2:0:0:
334,142,243729,1,0,3:0:0:0:
336,94,243840,6,0,P|278:90|204:62,1,105.000004005432,6|0,1:0|0:0,0:0:0:0:
431,209,244284,1,8,1:0:0:0:
310,264,244507,2,0,P|386:282|463:395,1,210.000008010865,2|0,1:3|0:0,0:0:0:0:
512,92,245173,1,10,1:0:0:0:
504,138,245284,1,0,3:0:0:0:
474,175,245396,1,2,3:0:0:0:
431,196,245507,1,0,3:0:0:0:
383,199,245618,5,6,1:0:0:0:
304,91,245840,1,2,3:0:0:0:
207,131,246062,1,8,1:0:0:0:
207,131,246173,1,0,3:0:0:0:
207,131,246284,1,2,1:0:0:0:
16,52,246729,5,2,3:0:0:0:
8,98,246840,1,0,3:0:0:0:
0,144,246951,1,10,1:0:0:0:
207,131,247173,1,2,3:2:0:0:
207,131,247284,1,0,3:0:0:0:
207,131,247396,6,0,P|273:141|331:150,1,105.000004005432,6|0,1:0|0:0,0:0:0:0:
159,257,247840,1,8,1:0:0:0:
76,181,248062,2,2,P|18:217|19:362,1,210.000008010865,2|2,1:1|0:1,0:1:0:0:
182,384,248729,1,8,1:0:0:0:
182,384,248840,1,0,3:0:0:0:
182,384,248951,1,2,3:0:0:0:
92,317,249173,6,0,L|71:243,1,52.5000020027161,6|0,1:1|0:0,0:0:0:0:
156,172,249396,1,2,3:0:0:0:
260,245,249618,1,8,1:0:0:0:
417,155,249840,2,2,P|434:88|423:2,1,157.500006008148,2|2,1:0|1:2,0:1:0:0:
302,33,250284,2,0,L|369:49,1,52.5000020027161,0|0,1:0|0:0,0:0:0:0:
340,296,250507,1,2,1:3:0:0:
340,296,250951,5,6,1:0:0:0:
219,208,251173,1,2,1:2:0:0:
113,193,251396,1,8,1:0:0:0:
42,228,251618,1,2,1:3:0:0:
140,355,251840,5,6,1:0:0:0:
262,272,252062,1,2,1:2:0:0:
350,269,252284,1,8,1:0:0:0:
420,299,252507,1,2,1:3:0:0:
415,27,252729,5,4,1:2:0:0:
371,195,252952,1,2,1:2:0:0:
156,130,253174,1,12,1:2:0:0:
223,339,253396,1,2,1:2:0:0:
284,118,253618,5,2,1:0:0:0:
336,113,253729,1,0,1:0:0:0:
388,123,253840,1,2,1:3:0:0:
433,149,253951,1,0,1:0:0:0:
468,188,254062,1,10,1:0:0:0:
489,236,254173,1,0,1:0:0:0:
494,288,254284,1,2,1:2:0:0:
482,339,254395,1,0,1:0:0:0:
455,384,254507,6,2,B|417:371|417:371|401:349|401:349|362:331,1,105,6|2,1:0|3:0,0:1:0:0:
112,215,255173,1,2,1:0:0:0:
112,215,255284,1,0,3:0:0:0:
112,215,255396,1,2,1:2:0:0:
195,197,255618,1,0,3:0:0:0:
180,121,255840,1,2,3:0:0:0:
266,112,256062,1,0,3:0:0:0:
266,112,256173,1,0,3:0:0:0:
266,112,256284,5,4,1:2:0:0:
221,295,256507,1,8,0:0:0:0:
36,248,256729,1,8,0:0:0:0:
36,248,256840,1,0,3:0:0:0:
36,248,256951,2,0,L|19:193,2,35
66,356,257396,1,4,1:3:0:0:
48,121,257618,5,4,1:2:0:0:
501,268,258062,5,4,1:0:0:0:
464,198,258284,1,0,3:0:0:0:
466,121,258507,1,2,0:0:0:0:
479,49,258729,1,0,3:0:0:0:
407,70,258951,2,0,P|369:68|295:55,1,105.000004005432,2|0,3:2|3:0,0:0:0:0:
97,154,259840,2,0,P|135:152|209:139,1,105.000004005432,2|0,3:2|3:0,0:0:0:0:
263,196,260507,1,2,0:0:0:0:
263,196,260729,1,0,3:0:0:0:
263,196,261173,1,8,0:0:0:0:
340,384,261618,6,0,P|347:333|364:273,1,105.000004005432,4|0,0:0|0:0,0:0:0:0:
361,281,262284,1,2,0:0:0:0:
243,295,262507,2,2,L|228:236,1,52.5000020027161,2|2,3:2|3:2,3:2:0:0:
162,202,262951,2,2,L|147:143,1,52.5000020027161,2|2,3:2|3:2,3:2:0:0:
80,38,263396,5,0,1:0:0:0:
423,121,264284,5,0,1:0:0:0:
56,68,265173,5,4,1:0:0:0:
99,75,265284,1,0,3:0:0:0:
142,82,265395,1,2,3:0:0:0:
185,89,265506,1,0,3:0:0:0:
228,97,265617,1,8,3:2:0:0:
215,224,265839,1,0,3:0:0:0:
215,224,265950,1,8,0:1:0:0:
76,198,266172,1,8,0:1:0:0:
76,198,266283,1,0,3:0:0:0:
196,356,266506,1,8,3:2:0:0:
52,329,266728,1,2,3:0:0:0:
268,292,266951,5,4,1:2:0:0:
311,285,267062,1,0,3:0:0:0:
354,278,267173,1,2,3:0:0:0:
397,271,267284,1,0,3:0:0:0:
440,263,267395,1,8,3:2:0:0:
348,371,267618,1,0,3:0:0:0:
348,371,267729,1,8,0:1:0:0:
215,224,267951,1,8,0:1:0:0:
215,224,268062,1,0,3:0:0:0:
132,274,268284,1,8,1:2:0:0:
196,356,268507,1,2,3:0:0:0:
440,263,268729,6,0,P|453:190|433:104,1,146.999995513916,4|0,1:0|0:0,0:0:0:0:
392,61,269173,2,0,P|364:104|372:156,1,97.9999970092774,8|0,1:2|0:0,0:0:0:0:
230,205,269618,1,2,1:2:0:0:
186,198,269729,1,2,3:0:0:0:
142,192,269840,1,0,3:0:0:0:
98,186,269951,1,2,3:0:0:0:
54,180,270062,1,8,3:2:0:0:
211,114,270284,1,2,3:0:0:0:
221,0,270507,5,4,1:2:0:0:
152,54,270729,1,0,3:0:0:0:
152,54,270840,1,0,3:0:0:0:
152,54,270951,1,10,3:2:0:0:
286,60,271173,1,2,3:0:0:0:
305,225,271396,1,2,1:2:0:0:
296,272,271507,1,0,3:0:0:0:
327,309,271618,1,2,3:0:0:0:
309,358,271729,1,0,3:0:0:0:
331,383,271840,2,0,L|393:366,1,48.9999985046387,8|0,1:2|0:0,0:0:0:0:
512,251,272062,1,2,3:2:0:0:
512,251,272173,1,0,3:0:0:0:
512,251,272284,6,0,B|472:263|472:263|458:295|458:295|408:315,1,112,6|0,1:0|0:0,0:0:0:0:
226,226,272729,1,8,1:0:0:0:
226,226,272840,1,0,3:0:0:0:
226,226,272951,1,2,3:0:0:0:
389,99,273173,2,0,B|401:139|401:139|433:153|433:153|453:203,1,112,2|0,1:0|0:0,0:0:0:0:
332,381,273618,1,8,1:0:0:0:
175,295,273840,1,2,3:0:0:0:
175,295,273951,1,0,3:0:0:0:
175,295,274062,5,6,1:0:0:0:
87,249,274284,1,2,3:0:0:0:
87,249,274395,1,8,0:1:0:0:
0,209,274617,1,8,3:1:0:0:
0,209,274728,1,0,3:0:0:0:
88,35,274950,1,2,1:1:0:0:
127,150,275173,1,2,3:0:0:0:
166,259,275395,1,10,1:1:0:0:
207,368,275617,1,2,3:0:0:0:
415,298,275839,5,4,1:0:0:0:
207,368,276173,1,4,1:2:0:0:
45,223,276507,5,2,1:2:0:0:
195,197,276729,1,2,1:2:0:0:
195,197,276840,1,0,3:0:0:0:
195,197,276951,1,2,3:0:0:0:
330,163,277173,1,8,0:2:0:0:
479,131,277396,1,2,3:0:0:0:
296,326,277618,5,6,1:0:0:0:
378,50,277951,1,4,1:2:0:0:
116,120,278285,1,2,1:0:0:0:
267,180,278507,5,2,1:1:0:0:
267,180,278618,1,0,3:0:0:0:
267,180,278729,1,0,3:0:0:0:
332,260,278951,1,12,0:2:0:0:
177,223,279173,1,2,3:0:0:0:
438,181,279396,5,6,1:0:0:0:
441,135,279507,1,0,3:0:0:0:
446,90,279618,1,2,3:0:0:0:
450,45,279729,1,0,3:0:0:0:
455,0,279840,1,10,3:2:0:0:
304,106,280062,1,2,3:0:0:0:
304,106,280173,1,10,0:1:0:0:
342,236,280395,1,8,3:1:0:0:
342,236,280506,1,0,3:0:0:0:
210,275,280729,2,0,P|226:335|234:401,1,112,8|0,1:0|0:0,0:0:0:0:
42,236,281173,5,6,1:0:0:0:
69,198,281284,1,0,3:0:0:0:
108,172,281396,1,2,3:0:0:0:
151,155,281507,1,0,3:0:0:0:
197,149,281618,1,8,1:0:0:0:
342,236,281840,1,0,1:3:0:0:
342,236,281951,1,2,3:1:0:0:
149,234,282174,1,2,3:0:0:0:
128,281,282285,1,0,1:0:0:0:
118,331,282396,1,2,3:0:0:0:
123,381,282507,1,10,1:0:0:0:
396,301,282729,1,2,3:0:0:0:
309,75,282951,6,2,L|321:5,3,56,6|0|0|0,1:0|0:0|0:0|0:0,0:1:0:0:
359,131,283396,2,0,P|347:181|349:245,1,112,8|0,1:0|0:0,0:0:0:0:
144,280,283840,2,0,P|156:230|154:166,1,112,2|0,1:2|0:0,0:0:0:0:
118,189,284173,2,0,P|50:182|-10:161,1,112,8|0,1:0|1:0,0:0:0:0:
36,144,284507,1,2,1:2:0:0:
241,278,284729,2,0,L|280:397,1,112,2|0,1:0|0:0,0:0:0:0:
296,353,285062,2,0,P|346:330|421:315,1,112,8|0,1:1|1:0,0:0:0:0:
379,297,285396,1,2,1:2:0:0:
154,354,285618,5,4,1:2:0:0:
401,43,286062,1,8,1:2:0:0:
466,146,286284,1,0,3:0:0:0:
466,146,286396,1,0,3:0:0:0:
466,146,286507,6,2,P|403:140|272:74,1,195.999994018555,6|8,1:0|0:0,0:1:0:0:
85,5,287173,1,2,1:2:0:0:
85,5,287284,2,0,P|151:30|195:66,1,97.9999970092774,8|0,1:0|1:0,0:0:0:0:
131,110,287618,2,0,L|154:182,1,48.9999985046387,0|0,1:2|0:0,0:0:0:0:
293,11,287840,2,0,P|323:70|332:121,1,97.9999970092774,8|0,1:0|0:0,0:0:0:0:
111,239,288284,6,2,P|49:217|-12:209,1,97.9999970092774,4|0,1:2|0:0,0:1:0:0:
135,335,288729,1,8,0:0:0:0:
311,243,288951,1,2,3:0:0:0:
334,280,289062,1,0,3:0:0:0:
369,306,289173,1,2,1:2:0:0:
409,322,289284,1,0,3:0:0:0:
452,332,289396,1,2,3:0:0:0:
476,78,289618,2,2,P|506:140|511:226,1,146.999995513916,8|0,3:2|0:0,0:2:0:0:
437,225,290062,6,2,B|373:202|373:202|344:142|344:142|241:108,1,195.999994018555,4|0,1:0|0:0,0:1:0:0:
113,384,290729,2,2,L|326:343,1,195.999994018555,2|2,1:3|1:2,0:1:0:0:
162,212,291396,1,8,1:2:0:0:
304,265,291618,1,2,3:0:0:0:
220,83,291840,5,4,1:2:0:0:
139,136,292062,1,0,3:0:0:0:
139,136,292173,1,0,3:0:0:0:
139,136,292284,1,8,1:2:0:0:
357,204,292507,1,2,1:2:0:0:
357,204,292618,2,0,P|416:192|463:162,1,97.9999970092774,8|0,1:0|1:0,0:0:0:0:
422,103,292951,2,0,L|435:35,1,48.9999985046387,2|0,1:2|0:0,0:0:0:0:
274,250,293173,2,0,P|318:300|409:348,1,146.999995513916,8|0,1:0|0:0,0:0:0:0:
449,284,293618,6,0,P|482:318|494:366,1,97.9999970092774,6|0,1:0|0:0,0:0:0:0:
386,340,294062,1,8,0:0:0:0:
55,40,294507,2,0,P|13:64|0:110,1,97.9999970092774,6|0,1:0|0:0,0:0:0:0:
54,188,294951,1,8,1:2:0:0:
348,142,295396,6,2,P|360:226|335:300,1,146.999995513916,6|0,1:0|0:0,0:1:0:0:
273,305,295840,1,8,1:2:0:0:
235,282,295951,1,2,3:0:0:0:
193,266,296062,1,2,3:2:0:0:
149,260,296173,1,2,3:0:0:0:
105,266,296284,1,2,1:0:0:0:
200,367,296507,1,2,1:3:0:0:
310,203,296729,1,2,1:0:0:0:
227,112,296951,1,0,3:0:0:0:
227,112,297062,1,0,3:0:0:0:
227,112,297173,6,0,P|225:56|237:-2,1,97.9999970092774,6|0,1:0|0:0,0:0:0:0:
87,214,297618,2,0,P|31:170|7:107,1,97.9999970092774,8|0,1:2|0:0,0:0:0:0:
135,115,297951,2,0,P|157:164|190:202,1,97.9999970092774,8|0,1:0|1:0,0:0:0:0:
248,242,298284,2,0,L|265:308,1,48.9999985046387,2|0,1:2|0:0,0:0:0:0:
410,109,298507,1,8,1:2:0:0:
280,171,298729,1,2,3:0:0:0:
439,287,298951,6,0,P|440:344|428:398,1,97.9999970092774,6|0,1:0|0:0,0:0:0:0:
361,193,299396,1,10,1:2:0:0:
248,242,299618,1,0,3:0:0:0:
248,242,299729,1,0,3:0:0:0:
248,242,299840,1,2,1:2:0:0:
218,384,300062,1,2,1:3:0:0:
341,276,300284,1,8,1:2:0:0:
97,329,300507,1,2,3:0:0:0:
97,329,300618,1,0,3:0:0:0:
97,329,300729,6,2,P|62:258|71:145,1,181.999991668702,4|8,1:0|1:2,0:1:0:0:
252,4,301396,1,2,3:0:0:0:
268,36,301507,1,0,3:0:0:0:
281,69,301618,1,2,1:2:0:0:
288,104,301729,1,0,3:0:0:0:
288,140,301840,1,2,3:0:0:0:
137,227,302062,2,0,P|194:211|236:206,1,90.9999958343508,8|0,1:2|0:0,0:0:0:0:
392,130,302507,5,4,1:2:0:0:
341,222,302729,1,2,3:0:0:0:
414,304,302951,1,8,1:2:0:0:
470,212,303173,1,0,3:0:0:0:
470,212,303284,1,0,3:0:0:0:
470,212,303396,1,2,1:3:0:0:
311,294,303618,1,2,3:2:0:0:
470,212,303840,2,0,P|471:143|461:112,1,90.9999958343508,8|0,1:2|0:0,0:0:0:0:
218,358,304284,6,2,P|149:370|6:369,1,181.999991668702,4|0,1:0|0:0,0:1:0:0:
312,296,304951,2,2,P|381:284|524:285,1,181.999991668702,2|2,1:3|0:2,0:1:0:0:
220,240,305618,1,8,1:2:0:0:
265,139,305840,1,2,3:0:0:0:
192,42,306062,6,0,P|178:99|155:145,1,90.9999958343508,4|0,1:2|0:0,0:0:0:0:
322,62,306507,1,2,1:2:0:0:
339,209,306729,2,0,P|321:250|311:295,1,90.9999958343508,2|0,1:2|0:0,0:0:0:0:
291,305,307062,1,0,3:0:0:0:
271,316,307173,1,2,3:0:0:0:
188,208,307396,1,8,1:2:0:0:
105,253,307618,1,2,3:0:0:0:
235,87,307840,6,0,B|208:39|242:43|203:-23,1,90.9999958343508,6|0,1:0|0:0,0:0:0:0:
180,297,308284,1,8,1:2:0:0:
64,186,308507,1,0,3:0:0:0:
64,186,308618,1,0,3:0:0:0:
64,186,308729,2,0,B|37:138|71:142|32:75,1,90.9999958343508,2|0,1:0|0:0,0:0:0:0:
188,208,309173,1,8,1:2:0:0:
116,339,309396,1,0,3:0:0:0:
116,339,309507,1,0,3:0:0:0:
116,339,309618,5,4,1:2:0:0:
244,301,309840,1,2,3:0:0:0:
333,384,310062,1,8,1:2:0:0:
339,348,310173,1,2,3:0:0:0:
339,311,310285,1,2,3:2:0:0:
334,275,310396,1,2,3:0:0:0:
323,240,310507,1,2,1:2:0:0:
305,207,310618,1,0,3:0:0:0:
280,180,310729,1,2,3:0:0:0:
283,0,310951,1,8,1:2:0:0:
367,111,311173,1,2,3:0:0:0:
152,161,311396,6,0,P|94:153|47:140,1,90.9999958343508,4|0,1:2|0:0,0:0:0:0:
226,84,311840,1,8,1:2:0:0:
305,207,312062,1,0,3:0:0:0:
305,207,312173,1,0,3:0:0:0:
305,207,312284,1,2,1:2:0:0:
425,168,312507,1,2,3:0:0:0:
391,295,312729,2,0,P|398:354|408:395,1,90.9999958343508,8|0,1:2|0:0,0:0:0:0:
191,171,313173,6,0,P|176:257|166:287,1,105,4|0,1:2|0:0,0:0:0:0:
117,332,313618,2,2,B|32:359|32:359|80:322,1,140,8|0,1:2|0:0,0:1:0:0:
271,233,314062,1,2,3:2:0:0:
271,233,314173,1,0,3:0:0:0:
271,233,314284,1,2,3:0:0:0:
101,116,314507,1,8,1:2:0:0:
191,1,314729,1,2,3:0:0:0:
237,325,314951,6,0,B|335:278|483:286|483:286|445:295|426:316,1,315.000012016297,4|2,1:0|0:0,0:0:0:0:
153,249,316729,2,0,P|73:228|38:94,1,210.000008010865,0|0,3:0|3:0,0:0:0:0:
105,44,318062,2,0,L|117:106,1,52.5000020027161,2|0,0:0|0:0,0:0:0:0:
197,191,318507,5,2,0:0:0:0:
197,191,319618,1,2,0:0:0:0:
256,146,319840,1,0,3:0:0:0:
332,144,320062,1,0,3:0:0:0:
425,105,320284,6,0,P|455:133|522:162,1,105.000004005432,4|0,3:2|0:0,0:0:0:0:
376,232,320951,2,0,L|290:251,2,78.7500030040742,2|0|2,3:2|0:0|3:2,0:0:0:0:
208,15,322062,6,2,P|196:75|63:159,1,210.000008010865,2|0,3:2|0:0,0:0:0:0:
81,158,323396,1,0,0:0:0:0:
22,21,323840,6,0,L|80:38,2,52.5000020027161,2|0|0,0:0|0:0|0:0,0:0:0:0:
34,101,324507,1,0,0:0:0:0:
135,80,324729,2,0,P|191:67|225:60,1,78.7500030040742,0|0,3:0|0:0,0:0:0:0:
231,77,325173,2,0,P|269:65|306:59,1,52.5000020027161,2|0,0:0|0:0,0:0:0:0:
448,101,325618,5,2,3:2:0:0:
448,101,326729,5,2,0:0:0:0:
394,150,326951,1,2,0:0:0:0:
323,170,327173,1,0,3:0:0:0:
252,143,327396,1,2,0:0:0:0:
184,106,327618,1,0,3:0:0:0:
110,111,327840,1,2,0:0:0:0:
69,174,328062,1,0,3:0:0:0:
93,260,328284,1,2,0:0:0:0:
206,308,328507,1,0,3:0:0:0:
322,215,328729,1,2,0:0:0:0:
293,84,328951,1,0,3:0:0:0:
139,63,329173,6,2,B|62:57|14:-6|14:-6|50:14|89:19,1,210.000008010865,4|2,1:0|0:0,0:0:0:0:
283,280,330951,2,0,P|291:331|297:394,1,105.000004005432,2|0,3:2|0:0,0:0:0:0:
373,306,331618,2,0,P|403:302|491:300,1,105.000004005432,2|0,3:0|0:0,0:0:0:0:
351,230,332284,2,0,P|345:181|347:158,1,52.5000020027161,2|0,0:0|0:0,0:0:0:0:
210,333,332729,6,0,P|175:339|36:348,1,157.500006008148,2|0,3:2|0:0,0:0:0:0:
53,348,333840,2,0,P|50:315|47:291,2,52.5000020027161,2|0|2,0:0|3:0|0:0,0:0:0:0:
113,231,334507,6,0,P|131:266|200:307,1,105.000004005432,2|0,3:2|0:0,0:0:0:0:
362,192,335173,2,0,P|333:237|279:261,1,105.000004005432,2|0,0:0|0:0,0:0:0:0:
231,199,335840,1,0,3:0:0:0:
46,150,336284,6,0,L|31:81,2,52.5000020027161,2|0|0,3:2|0:0|3:0,0:0:0:0:
114,197,336951,2,0,L|155:362,1,157.500006008148,2|0,0:0|0:0,0:0:0:0:
481,93,338062,6,0,L|496:24,2,52.5000020027161,2|0|0,3:2|0:0|3:0,0:0:0:0:
413,140,338729,2,0,L|372:305,1,157.500006008148,2|0,0:0|0:0,0:0:0:0:
256,384,339840,5,2,0:0:0:0:
285,314,340062,1,0,3:0:0:0:
240,253,340284,1,2,0:0:0:0:
286,197,340507,1,0,3:0:0:0:
256,132,340729,1,2,0:0:0:0:
289,66,340951,1,0,3:0:0:0:
253,1,341173,1,0,3:0:0:0:
253,1,341396,1,0,3:0:0:0:
204,70,341618,1,2,0:0:0:0:
289,147,341840,1,0,3:0:0:0:
242,221,342062,1,2,0:0:0:0:
265,293,342284,1,0,3:0:0:0:
265,384,342729,6,2,L|290:188,1,183.750007009506,2|4,3:0|0:1,0:0:0:0:
