osu file format v14

[General]
AudioFilename: fluff.mp3
AudioLeadIn: 0
PreviewTime: 51759
Countdown: 0
SampleSet: Soft
StackLeniency: 0.7
Mode: 0
LetterboxInBreaks: 0
WidescreenStoryboard: 0

[Editor]
DistanceSpacing: 1.1
BeatDivisor: 4
GridSize: 4
TimelineZoom: 1

[Metadata]
Title:BLAZE
TitleUnicode:BLAZE
Artist:KOTOKO
ArtistUnicode:KOTOKO
Creator:Gaia
Version:Nyu's Easy
Source:灼眼のシャナⅡ
Tags:Inyuschan Nyu-chan Nyukai Shakugan no Shana II Second 2nd opening tv size
BeatmapID:1208452
BeatmapSetID:355132

[Difficulty]
HPDrainRate:2
CircleSize:3
OverallDifficulty:2
ApproachRate:3
SliderMultiplier:1
SliderTickRate:1

[Events]
//Background and Video events
Video,-413,"gaia+loves+knotts.flv"
0,0,"Blaze2.jpg",0,0
//Break Periods
//Storyboard Layer 0 (Background)
//Storyboard Layer 1 (Fail)
//Storyboard Layer 2 (Pass)
//Storyboard Layer 3 (Foreground)
//Storyboard Sound Samples

[TimingPoints]
80,468.75,4,2,1,60,1,0
8048,-100,4,2,1,50,0,0
22580,-100,4,2,1,60,0,0
37580,-100,4,2,1,50,0,0
52580,-100,4,2,1,70,0,0
87150,-100,4,2,1,40,0,0
89142,-100,4,2,1,10,0,0

[Colours]
Combo1 : 236,19,19
Combo2 : 206,206,206
Combo3 : 255,121,121
Combo4 : 255,255,128
Combo5 : 255,149,43

[HitObjects]
184,96,80,6,0,P|256:76|328:96,2,150,6|0|8,0:0|0:0|0:0,0:0:0:0:
128,192,1955,2,0,B|112:240|112:240|128:288,1,100,2|8,0:0|0:0,0:0:0:0:
216,352,2892,1,0,0:0:0:0:
308,292,3361,1,8,0:0:0:0:
388,216,3830,6,0,B|388:160|388:160|404:128|404:128|404:64,2,150,2|0|8,0:0|0:0|0:0,0:0:0:0:
308,292,5705,2,0,P|260:304|212:292,1,100,6|10,0:0|0:0,0:0:0:0:
136,216,6642,2,0,P|87:203|39:215,2,100,2|0|6,0:0|0:0|0:0,0:0:0:0:
200,308,8048,5,8,0:0:0:0:
312,308,8517,2,0,L|376:308,2,50,0|2|8,0:0|0:0|0:0,0:0:0:0:
256,212,9455,2,0,L|256:108,2,100,2|8|0,0:0|0:0|0:0,0:0:0:0:
200,308,10861,2,0,L|136:308,2,50,8|0|2,0:0|0:0|0:0,0:0:0:0:
308,288,11798,5,8,0:0:0:0:
412,252,12267,2,0,P|464:252|512:216,1,100,0|8,0:0|0:0,0:0:0:0:
452,128,13205,2,0,P|400:128|360:100,1,100,2|8,0:0|0:0,0:0:0:0:
256,76,14142,1,2,0:0:0:0:
150,101,14611,2,0,P|109:128|60:128,2,100,12|6|8,0:0|0:0|0:0,0:0:0:0:
256,136,16017,6,0,L|256:200,2,50,0|2|8,0:0|0:0|0:0,0:0:0:0:
362,101,16955,2,0,P|403:128|452:128,1,100,2|8,0:0|0:0,0:0:0:0:
508,224,17892,2,0,L|424:300,1,100,0|8,0:0|0:0,0:0:0:0:
328,328,18830,6,0,P|232:328|144:260,1,200,2|0,0:0|0:0,0:0:0:0:
72,192,20236,1,8,0:0:0:0:
150,114,20705,1,2,0:0:0:0:
256,80,21173,2,0,P|320:80|368:112,2,100,8|2|10,0:0|0:0|0:0,0:0:0:0:
150,114,22580,6,0,P|86:178|150:242,1,200,6|0,0:0|0:0,0:0:0:0:
256,212,23986,1,8,0:0:0:0:
362,241,24455,2,0,P|424:176|360:114,1,200,2|0,0:0|0:0,0:0:0:0:
256,152,25861,1,8,0:0:0:0:
152,114,26330,6,0,B|96:114|96:114|56:90,2,100,2|8|0,0:0|0:0|0:0,0:0:0:0:
256,152,27736,1,8,0:0:0:0:
360,114,28205,2,0,B|416:114|416:114|456:90,2,100,2|8|0,0:0|0:0|0:0,0:0:0:0:
256,152,29611,2,0,L|256:256,1,100,8|2,0:0|0:0,0:0:0:0:
344,316,30548,6,0,B|368:256|368:256|428:224|428:224|464:160,1,200,12|8,0:0|0:0,0:0:0:0:
472,56,31955,2,0,P|424:56|308:152,1,200,2|0,0:0|0:0,0:0:0:0:
256,244,33361,1,8,0:0:0:0:
183,328,33830,6,0,P|86:320|23:246,2,200,2|0|2,0:0|0:0|0:0,0:0:0:0:
256,244,36173,1,8,0:0:0:0:
352,192,36642,2,0,P|404:192|448:232,2,100,10|12|6,0:0|0:0|0:0,0:0:0:0:
256,244,38048,1,8,0:0:0:0:
160,192,38517,6,0,P|108:192|64:232,2,100,2|8|2,0:0|0:0|0:0,0:0:0:0:
256,244,39923,1,8,0:0:0:0:
344,312,40392,2,0,P|396:312|440:288,1,100,2|8,0:0|0:0,0:0:0:0:
484,192,41330,6,0,B|420:116|420:116|312:116,1,200,6|2,0:0|0:0,0:0:0:0:
256,204,42736,1,8,0:0:0:0:
192,116,43205,2,0,B|92:116|92:116|28:192,1,200,2|2,0:0|0:0,0:0:0:0:
68,296,44611,1,8,0:0:0:0:
176,324,45080,6,0,B|224:324|256:272|256:272|288:324|336:324,1,200,6|2,0:0|0:0,0:0:0:0:
388,228,46486,1,8,0:0:0:0:
320,140,46955,2,0,P|256:104|192:140,2,150,2|0|8,0:0|0:0|0:0,0:0:0:0:
320,252,48830,6,0,P|256:288|192:252,2,150,2|0|8,0:0|0:0|0:0,0:0:0:0:
288,148,50705,2,0,L|416:256,2,150,2|0|8,0:0|0:0|0:0,0:0:0:0:
200,80,52580,6,0,B|140:80|140:80|120:112|52:112,2,150,6|0|8,0:0|0:0|0:0,0:0:0:0:
312,80,54455,2,0,B|372:80|372:80|392:112|460:112,2,150,2|0|8,0:0|0:0|0:0,0:0:0:0:
256,176,56330,6,0,L|256:336,2,150,2|0|8,0:0|0:0|0:0,0:0:0:0:
328,92,58205,2,0,P|384:92|432:128,2,100,2|8|2,0:0|0:0|0:0,0:0:0:0:
256,176,59611,1,8,0:0:0:0:
183,91,60080,6,0,B|112:92|112:92|48:152,2,150,6|0|8,0:0|0:0|0:0,0:0:0:0:
256,176,61955,2,0,L|256:336,2,150,2|0|8,0:0|0:0|0:0,0:0:0:0:
328,91,63830,6,0,B|400:92|400:92|464:152,2,150,2|0|8,0:0|0:0|0:0,0:0:0:0:
256,176,65705,2,0,P|256:240|216:280,1,100,2|8,0:0|0:0,0:0:0:0:
124,272,66642,1,2,0:0:0:0:
48,192,67111,1,12,0:0:0:0:
124,112,67580,6,0,P|188:112|260:56,2,150,6|0|8,0:0|0:0|0:0,0:0:0:0:
48,192,69455,2,0,L|204:328,1,200,2|2,0:0|0:0,0:0:0:0:
300,284,70861,1,8,0:0:0:0:
360,192,71330,6,0,B|360:136|360:136|380:100|380:100|380:36,2,150,2|0|8,0:0|0:0|0:0,0:0:0:0:
256,224,73205,1,2,0:0:0:0:
152,188,73673,1,8,0:0:0:0:
240,120,74142,2,0,L|304:28,1,100,2|8,0:0|0:0,0:0:0:0:
408,32,75080,6,0,P|448:32|496:128,2,150,6|0|8,0:0|0:0|0:0,0:0:0:0:
320,100,76955,2,0,P|256:136|192:100,2,150,2|0|8,0:0|0:0|0:0,0:0:0:0:
428,104,78830,6,0,L|344:300,1,200,6|2,0:0|0:0,0:0:0:0:
256,344,80236,1,8,0:0:0:0:
162,287,80705,2,0,B|144:244|144:244|144:192,2,100,6|8|6,0:0|0:0|0:0,0:0:0:0:
256,344,82111,1,2,0:0:0:0:
349,287,82580,6,0,B|368:244|368:244|368:192,1,100,2|8,0:0|0:0,0:0:0:0:
300,104,83517,2,0,P|232:104|192:76,1,100,2|8,0:0|0:0,0:0:0:0:
120,156,84455,2,0,L|192:308,2,150,6|0|8,0:0|0:0|0:0,0:0:0:0:
70,61,86330,2,0,B|123:40|166:61|166:61|220:60,1,150,2|6,0:0|0:0,0:0:0:0:
256,192,87267,12,0,89142,0:0:0:0:
