osu file format v14

[General]
AudioFilename: fluff.mp3
AudioLeadIn: 0
PreviewTime: 51759
Countdown: 0
SampleSet: Soft
StackLeniency: 0.7
Mode: 0
LetterboxInBreaks: 0
WidescreenStoryboard: 0

[Editor]
DistanceSpacing: 0.6
BeatDivisor: 8
GridSize: 4
TimelineZoom: 1.4

[Metadata]
Title:BLAZE
TitleUnicode:BLAZE
Artist:KOTOKO
ArtistUnicode:KOTOKO
Creator:Gaia
Version:Insane
Source:灼眼のシャナⅡ
Tags:Inyuschan Nyu-chan Nyukai Shakugan no Shana II Second 2nd opening tv size
BeatmapID:1149288
BeatmapSetID:355132

[Difficulty]
HPDrainRate:6
CircleSize:4
OverallDifficulty:7
ApproachRate:9
SliderMultiplier:1.8
SliderTickRate:2

[Events]
//Background and Video events
Video,-413,"gaia+loves+knotts.flv"
0,0,"Blaze2.jpg",0,0
//Break Periods
//Storyboard Layer 0 (Background)
//Storyboard Layer 1 (Fail)
//Storyboard Layer 2 (Pass)
//Storyboard Layer 3 (Foreground)
//Storyboard Sound Samples

[TimingPoints]
80,468.75,4,2,1,60,1,0
7111,-153.846153846154,4,2,1,60,0,0
7580,-100,4,2,1,60,0,0
8048,-100,4,2,1,50,0,0
14611,-71.4285714285714,4,2,1,50,0,0
15080,-100,4,2,1,50,0,0
22580,-90.9090909090909,4,2,1,60,0,0
30080,-153.846153846154,4,2,1,60,0,0
30548,-90.9090909090909,4,2,1,60,0,0
37580,-100,4,2,1,50,0,0
41330,-90.9090909090909,4,2,1,50,0,0
45080,-100,4,2,1,50,0,0
52580,-83.3333333333333,4,2,1,70,0,0
59376,-62.5,4,2,1,70,0,0
59611,-83.3333333333333,4,2,1,70,0,0
59845,-62.5,4,2,1,70,0,0
60080,-83.3333333333333,4,2,1,70,0,0
87150,-100,4,2,1,40,0,0
89142,-100,4,2,1,10,0,0

[Colours]
Combo1 : 236,19,19
Combo2 : 206,206,206
Combo3 : 255,121,121
Combo4 : 255,255,128
Combo5 : 255,149,43

[HitObjects]
144,88,80,6,0,P|133:143|120:196,1,90,6|0,0:0|0:0,0:0:0:0:
108,192,431,1,2,0:0:0:0:
108,192,548,2,0,P|122:238|136:288,1,90,8|0,0:0|0:0,0:0:0:0:
88,348,900,2,0,P|164:356|216:296,1,135,2|2,0:0|0:0,0:0:0:0:
316,112,1486,1,8,0:0:0:0:
304,116,1603,1,0,0:0:0:0:
292,120,1720,1,0,0:0:0:0:
284,124,1837,1,0,0:0:0:0:
276,128,1955,5,2,0:0:0:0:
116,80,2189,1,2,0:0:0:0:
220,224,2423,1,8,0:0:0:0:
220,224,2540,1,2,0:0:0:0:
48,276,2775,2,0,P|60:220|116:184,1,90,2|0,0:0|0:0,0:0:0:0:
100,88,3126,2,0,P|84:83|40:80,1,45,2|0,0:0|0:0,0:0:0:0:
204,136,3361,1,8,0:0:0:0:
240,132,3478,1,2,0:0:0:0:
276,128,3595,1,8,0:0:0:0:
400,56,3830,5,2,0:0:0:0:
400,56,3947,1,0,0:0:0:0:
400,56,4064,2,0,P|415:84|416:108,1,45,0|0,0:0|0:0,0:0:0:0:
376,216,4298,1,8,0:0:0:0:
376,216,4415,1,0,0:0:0:0:
376,216,4533,2,0,P|401:203|436:192,1,45,0|2,0:0|0:0,0:0:0:0:
308,307,4767,1,0,0:0:0:0:
308,307,4884,1,0,0:0:0:0:
308,307,5001,2,0,L|238:294,1,45,2|0,0:0|0:0,0:0:0:0:
143,283,5236,2,0,P|146:306|151:328,3,45,8|0|0|0,0:0|0:0|0:0|0:0,0:0:0:0:
197,213,5705,5,6,0:0:0:0:
214,192,5822,1,0,0:0:0:0:
218,165,5939,1,2,0:0:0:0:
213,138,6056,1,0,0:0:0:0:
198,115,6173,1,10,0:0:0:0:
175,100,6290,1,0,0:0:0:0:
149,91,6408,2,0,L|90:101,1,45,2|2,0:0|0:0,0:0:0:0:
74,196,6642,5,2,0:0:0:0:
122,187,6759,1,2,0:0:0:0:
170,178,6876,1,2,0:0:0:0:
218,165,6994,1,2,0:0:0:0:
260,137,7111,6,0,B|272:100|236:88|248:40,1,87.749995983124
352,88,7580,6,0,P|344:156|332:236,1,135,6|0,0:0|0:0,0:0:0:0:
280,292,8048,2,0,P|228:296|192:208,1,135,8|2,0:0|0:0,0:0:0:0:
112,164,8517,2,0,P|100:208|96:272,1,90,0|2,0:0|0:0,0:0:0:0:
192,88,8986,2,0,P|156:68|96:52,1,90,8|2,0:0|0:0,0:0:0:0:
264,168,9455,5,2,0:0:0:0:
248,0,9689,1,2,0:0:0:0:
84,136,9923,1,8,0:0:0:0:
84,136,10040,1,2,0:0:0:0:
316,88,10275,2,0,P|366:78|428:68,1,90,2|0,0:0|0:0,0:0:0:0:
428,84,10626,1,2,0:0:0:0:
336,300,10861,1,8,0:0:0:0:
336,300,10978,2,0,P|296:294|228:280,1,90,2|0,0:0|0:0,0:0:0:0:
184,232,11330,6,0,P|208:292|164:348,1,135,2|2,0:0|0:0,0:0:0:0:
76,356,11798,2,0,P|52:296|96:240,1,135,8|2,0:0|0:0,0:0:0:0:
128,152,12267,2,0,P|100:141|32:124,1,90,0|2,0:0|0:0,0:0:0:0:
247,284,12736,2,0,P|291:277|359:260,1,90,8|0,0:0|0:0,0:0:0:0:
452,108,13205,21,2,0:0:0:0:
448,84,13322,1,2,0:0:0:0:
444,56,13439,1,2,0:0:0:0:
264,8,13673,2,0,P|232:56|240:108,1,90,8|0,0:0|0:0,0:0:0:0:
364,140,14025,1,0,0:0:0:0:
364,140,14142,2,0,P|338:88|289:69,1,90,2|0,0:0|0:0,0:0:0:0:
176,220,14611,54,0,B|232:192|308:212|308:212|288:200|276:164,1,188.999994232178,12|0,0:0|0:0,0:0:0:0:
364,140,15080,22,0,P|352:215|344:280,1,135,6|2,0:0|0:0,0:0:0:0:
380,348,15548,2,0,P|324:312|220:308,1,135,8|2,0:0|0:0,0:0:0:0:
152,348,16017,2,0,P|193:344|252:328,1,90,0|2,0:0|0:0,0:0:0:0:
40,256,16486,2,0,P|16:303|8:356,1,90,8|0,0:0|0:0,0:0:0:0:
136,200,16955,5,2,0:0:0:0:
32,28,17189,1,2,0:0:0:0:
268,64,17423,1,8,0:0:0:0:
268,64,17540,1,2,0:0:0:0:
104,176,17775,2,0,P|67:171|4:160,1,90,2|0,0:0|0:0,0:0:0:0:
48,60,18126,2,0,P|84:66|121:71,1,45,2|0,0:0|0:0,0:0:0:0:
268,64,18361,1,8,0:0:0:0:
284,95,18478,1,0,0:0:0:0:
284,130,18595,1,2,0:0:0:0:
274,164,18712,1,0,0:0:0:0:
247,188,18830,6,0,P|257:258|272:327,1,135,2|2,0:0|0:0,0:0:0:0:
342,363,19298,2,0,P|407:361|431:275,1,135,8|2,0:0|0:0,0:0:0:0:
498,214,19767,2,0,P|509:266|519:325,1,90,0|2,0:0|0:0,0:0:0:0:
391,97,20236,2,0,P|379:149|370:208,1,90,8|0,0:0|0:0,0:0:0:0:
170,325,20705,5,2,0:0:0:0:
134,317,20822,1,2,0:0:0:0:
98,309,20939,1,2,0:0:0:0:
39,103,21173,1,8,0:0:0:0:
39,103,21290,2,0,L|129:90,1,90,2|2,0:0|0:0,0:0:0:0:
237,45,21642,5,2,0:0:0:0:
230,80,21759,1,2,0:0:0:0:
223,115,21876,1,2,0:0:0:0:
216,150,21994,1,2,0:0:0:0:
178,180,22111,5,10,0:0:0:0:
186,215,22228,1,2,0:0:0:0:
193,250,22345,1,2,0:0:0:0:
199,285,22462,1,2,0:0:0:0:
264,336,22580,6,0,P|328:348|384:288,1,148.50000453186,6|2,0:0|0:0,0:0:0:0:
412,208,23048,2,0,L|396:104,1,99.0000030212403,8|0,0:0|0:0,0:0:0:0:
380,28,23400,1,2,0:0:0:0:
380,28,23517,1,0,0:0:0:0:
280,208,23751,1,2,0:0:0:0:
492,152,23986,2,0,L|476:48,1,99.0000030212403,8|0,0:0|0:0,0:0:0:0:
256,188,24455,5,2,0:0:0:0:
468,312,24689,1,2,0:0:0:0:
380,80,24923,1,8,0:0:0:0:
380,80,25040,1,2,0:0:0:0:
228,264,25275,1,2,0:0:0:0:
228,264,25392,2,0,P|202:257|156:240,1,49.5000015106202,0|0,0:0|0:0,0:0:0:0:
126,191,25626,2,0,L|74:207,1,49.5000015106202,2|0,0:0|0:0,0:0:0:0:
0,232,25861,1,8,0:0:0:0:
0,232,25978,1,0,0:0:0:0:
0,232,26095,1,0,0:0:0:0:
156,36,26330,6,0,P|208:64|204:176,1,148.50000453186,2|2,0:0|0:0,0:0:0:0:
344,188,26798,2,0,P|308:136|324:76,1,99.0000030212403,8|0,0:0|0:0,0:0:0:0:
396,120,27150,1,2,0:0:0:0:
396,120,27267,1,0,0:0:0:0:
244,284,27501,1,2,0:0:0:0:
48,112,27736,2,0,P|106:117|176:124,1,99.0000030212403,8|0,0:0|0:0,0:0:0:0:
324,268,28205,21,2,0:0:0:0:
284,276,28322,1,0,0:0:0:0:
244,284,28439,1,2,0:0:0:0:
88,228,28673,2,0,P|103:282|120:340,1,99.0000030212403,8|0,0:0|0:0,0:0:0:0:
136,340,29025,1,2,0:0:0:0:
172,104,29259,1,0,0:0:0:0:
172,104,29376,1,2,0:0:0:0:
39,237,29611,2,0,L|103:225,1,49.5000015106202,8|0,0:0|0:0,0:0:0:0:
160,188,29845,2,0,P|191:195|212:204,1,49.5000015106202,0|0,0:0|0:0,0:0:0:0:
280,240,30080,54,0,B|336:224|384:220,1,87.749995983124,2|2,0:0|0:0,0:0:0:0:
456,192,30548,22,0,P|392:192|344:120,1,148.50000453186,12|2,0:0|0:0,0:0:0:0:
272,68,31017,2,0,P|257:125|248:172,1,99.0000030212403,0|2,0:0|0:0,0:0:0:0:
280,240,31369,1,0,0:0:0:0:
280,240,31486,1,8,0:0:0:0:
184,88,31720,1,0,0:0:0:0:
436,112,31955,5,2,0:0:0:0:
120,172,32189,1,2,0:0:0:0:
360,248,32423,1,8,0:0:0:0:
360,248,32540,1,2,0:0:0:0:
176,324,32775,2,0,P|128:316|76:308,1,99.0000030212403,2|0,0:0|0:0,0:0:0:0:
0,300,33126,1,2,0:0:0:0:
214,232,33361,1,8,0:0:0:0:
242,204,33478,1,0,0:0:0:0:
249,164,33595,1,0,0:0:0:0:
238,125,33712,1,0,0:0:0:0:
207,99,33830,6,0,L|368:68,1,148.50000453186,2|0,0:0|0:0,0:0:0:0:
412,12,34298,2,0,P|436:64|412:128,1,99.0000030212403,8|0,0:0|0:0,0:0:0:0:
368,168,34650,1,2,0:0:0:0:
368,168,34767,1,0,0:0:0:0:
400,320,35001,1,2,0:0:0:0:
400,320,35119,1,0,0:0:0:0:
400,320,35236,2,0,P|446:312|508:300,1,99.0000030212403,8|0,0:0|0:0,0:0:0:0:
272,252,35705,5,2,0:0:0:0:
232,248,35822,1,2,0:0:0:0:
192,244,35939,1,2,0:0:0:0:
76,80,36173,1,8,0:0:0:0:
76,80,36290,1,2,0:0:0:0:
104,264,36525,6,0,L|116:300,2,24.7500007553101,2|0|10,0:0|0:0|0:0,0:0:0:0:
116,176,36759,1,2,0:0:0:0:
146,143,36876,1,2,0:0:0:0:
188,129,36994,1,2,0:0:0:0:
232,133,37111,1,12,0:0:0:0:
270,155,37228,1,0,0:0:0:0:
299,188,37345,1,0,0:0:0:0:
306,231,37462,1,0,0:0:0:0:
290,268,37580,6,0,L|272:76,2,180,6|8|2,0:0|0:0|0:0,0:0:0:0:
324,12,38986,1,8,0:0:0:0:
408,188,39220,1,2,0:0:0:0:
176,172,39455,6,0,B|124:196|48:140|-4:172,2,180,2|8|2,0:0|0:0|0:0,0:0:0:0:
392,120,40626,1,0,0:0:0:0:
392,120,40744,1,2,0:0:0:0:
392,120,40861,1,8,0:0:0:0:
192,252,41095,2,0,P|167:257|132:260,1,45,4|0,0:0|0:0,0:0:0:0:
288,192,41330,6,0,L|272:296,1,99.0000030212403,6|0,0:0|0:0,0:0:0:0:
312,364,41681,1,0,0:0:0:0:
312,364,41798,1,8,0:0:0:0:
136,100,42033,2,0,P|120:93|64:76,1,49.5000015106202,0|0,0:0|0:0,0:0:0:0:
292,64,42267,2,0,P|337:55|400:44,1,99.0000030212403,2|0,0:0|0:0,0:0:0:0:
464,80,42619,1,0,0:0:0:0:
464,80,42736,2,0,P|461:120|452:148,1,49.5000015106202,8|0,0:0|0:0,0:0:0:0:
384,256,42970,2,0,L|368:208,1,49.5000015106202,2|0,0:0|0:0,0:0:0:0:
252,92,43205,6,0,P|260:152|220:180,1,99.0000030212403,2|0,0:0|0:0,0:0:0:0:
160,208,43556,1,0,0:0:0:0:
160,208,43673,1,8,0:0:0:0:
8,92,43908,2,0,P|38:81|80:72,1,49.5000015106202,0|2,0:0|0:0,0:0:0:0:
160,208,44142,2,0,P|124:199|40:188,1,99.0000030212403,2|0,0:0|0:0,0:0:0:0:
12,256,44494,1,2,0:0:0:0:
12,256,44611,2,0,L|32:320,1,49.5000015106202,8|0,0:0|0:0,0:0:0:0:
168,288,44845,2,0,L|188:352,1,49.5000015106202,2|0,0:0|0:0,0:0:0:0:
292,160,45080,6,0,P|232:96|124:104,2,180,6|8|2,0:0|0:0|0:0,0:0:0:0:
380,308,46251,1,0,0:0:0:0:
380,308,46369,1,0,0:0:0:0:
380,308,46486,2,0,L|460:292,1,45,8|0,0:0|0:0,0:0:0:0:
468,224,46720,2,0,L|528:240,1,45,2|0,0:0|0:0,0:0:0:0:
420,124,46955,6,0,P|356:152|284:160,1,135,2|0,0:0|0:0,0:0:0:0:
212,128,47423,1,8,0:0:0:0:
60,28,47658,1,0,0:0:0:0:
60,28,47775,1,0,0:0:0:0:
60,28,47892,2,0,P|70:78|88:144,1,90,2|0,0:0|0:0,0:0:0:0:
84,224,48244,1,2,0:0:0:0:
84,224,48361,2,0,P|62:219|16:216,1,45,8|0,0:0|0:0,0:0:0:0:
160,320,48595,2,0,P|132:324|108:328,1,45,2|0,0:0|0:0,0:0:0:0:
260,240,48830,6,0,P|288:284|268:376,1,135,2|0,0:0|0:0,0:0:0:0:
364,384,49298,2,0,P|408:376|468:364,1,90,8|0,0:0|0:0,0:0:0:0:
127,233,49767,2,0,P|82:225|23:213,1,90,2|0,0:0|0:0,0:0:0:0:
316,48,50236,2,0,P|307:87|296:120,1,45,8|0,0:0|0:0,0:0:0:0:
276,180,50470,2,0,L|292:248,1,45,6|0,0:0|0:0,0:0:0:0:
336,320,50705,5,2,0:0:0:0:
296,312,50822,1,2,0:0:0:0:
256,304,50939,1,2,0:0:0:0:
68,212,51173,1,8,0:0:0:0:
108,211,51290,1,0,0:0:0:0:
145,195,51408,1,0,0:0:0:0:
177,170,51525,1,2,0:0:0:0:
187,131,51642,1,8,0:0:0:0:
181,90,51759,1,0,0:0:0:0:
147,67,51876,6,0,L|71:88,1,45,2|0,0:0|0:0,0:0:0:0:
296,26,52111,1,8,0:0:0:0:
296,26,52228,1,8,0:0:0:0:
296,26,52345,1,2,0:0:0:0:
296,26,52462,1,2,0:0:0:0:
296,26,52580,6,0,P|286:83|280:164,1,107.999996704102,6|0,0:0|0:0,0:0:0:0:
348,192,52931,1,0,0:0:0:0:
348,192,53048,2,0,L|424:176,1,53.9999983520508,8|0,0:0|0:0,0:0:0:0:
276,264,53283,2,0,P|307:273|340:280,1,53.9999983520508,0|0,0:0|0:0,0:0:0:0:
172,228,53517,2,0,P|175:258|184:284,1,53.9999983520508,2|0,0:0|0:0,0:0:0:0:
200,136,53751,2,0,P|164:120|76:116,2,107.999996704102,0|8|0,0:0|0:0|0:0,0:0:0:0:
433,255,54455,5,2,0:0:0:0:
433,255,54572,2,0,P|370:269|313:279,1,107.999996704102,0|0,0:0|0:0,0:0:0:0:
232,256,54923,2,0,P|239:292|252:336,1,53.9999983520508,8|0,0:0|0:0,0:0:0:0:
288,184,55158,2,0,P|263:173|192:156,1,53.9999983520508,0|0,0:0|0:0,0:0:0:0:
56,240,55392,2,0,P|81:231|106:220,1,53.9999983520508,2|0,0:0|0:0,0:0:0:0:
156,138,55626,1,0,0:0:0:0:
156,138,55744,1,2,0:0:0:0:
156,138,55861,2,0,P|146:83|128:6,1,107.999996704102,8|2,0:0|0:0,0:0:0:0:
442,86,56330,6,0,P|358:58|310:90,1,107.999996704102,2|0,0:0|0:0,0:0:0:0:
278,130,56681,1,2,0:0:0:0:
278,130,56798,2,0,L|290:198,1,53.9999983520508,8|0,0:0|0:0,0:0:0:0:
156,138,57033,2,0,L|146:84,1,53.9999983520508,0|0,0:0|0:0,0:0:0:0:
47,45,57267,1,2,0:0:0:0:
14,80,57384,1,0,0:0:0:0:
1,126,57501,1,0,0:0:0:0:
3,174,57619,1,0,0:0:0:0:
32,212,57736,2,0,P|47:206|92:194,1,53.9999983520508,8|0,0:0|0:0,0:0:0:0:
165,263,57970,2,0,P|180:268|225:281,1,53.9999983520508,2|0,0:0|0:0,0:0:0:0:
292,372,58205,38,0,P|340:308|304:220,1,161.999995056153,2|2,0:0|0:0,0:0:0:0:
197,172,58673,2,0,P|208:231|221:308,1,107.999996704102,8|0,0:0|0:0,0:0:0:0:
116,60,59142,54,0,L|56:48,1,53.9999983520508,2|0,0:0|0:0,0:0:0:0:
348,92,59376,54,0,L|432:76,1,72,4|0,0:0|0:0,0:0:0:0:
132,76,59611,6,0,L|72:64,1,53.9999983520508,8|0,0:0|0:0,0:0:0:0:
364,112,59845,54,0,L|448:96,1,72,4|0,0:0|0:0,0:0:0:0:
228,24,60080,37,6,0:0:0:0:
228,24,60197,2,0,L|248:140,1,107.999996704102
184,216,60548,2,0,P|173:249|172:280,1,53.9999983520508,8|0,0:0|0:0,0:0:0:0:
308,344,60783,2,0,P|304:317|295:291,1,53.9999983520508,0|0,0:0|0:0,0:0:0:0:
104,196,61017,2,0,P|93:229|92:260,1,53.9999983520508,2|0,0:0|0:0,0:0:0:0:
312,256,61251,2,0,P|362:244|448:228,2,107.999996704102,0|8|0,0:0|0:0|0:0,0:0:0:0:
88,104,61955,5,2,0:0:0:0:
88,104,62072,2,0,P|138:115|224:132,1,107.999996704102,0|0,0:0|0:0,0:0:0:0:
280,100,62423,2,0,P|273:64|260:32,1,53.9999983520508,8|0,0:0|0:0,0:0:0:0:
144,208,62658,2,0,P|181:209|224:204,1,53.9999983520508,0|0,0:0|0:0,0:0:0:0:
368,68,62892,2,0,P|372:102|372:136,1,53.9999983520508,2|0,0:0|0:0,0:0:0:0:
288,184,63126,1,0,0:0:0:0:
288,184,63244,1,0,0:0:0:0:
288,184,63361,2,0,P|273:243|268:312,1,107.999996704102,8|2,0:0|0:0,0:0:0:0:
464,312,63830,38,0,P|400:272|352:264,1,107.999996704102,2|0,0:0|0:0,0:0:0:0:
176,288,64181,1,2,0:0:0:0:
176,288,64298,2,0,P|187:331|200:368,1,53.9999983520508,8|0,0:0|0:0,0:0:0:0:
324,176,64533,2,0,L|336:116,1,53.9999983520508,0|0,0:0|0:0,0:0:0:0:
328,24,64767,1,2,0:0:0:0:
100,16,65001,2,0,P|114:81|128:140,1,107.999996704102,0|8,0:0|0:0,0:0:0:0:
152,152,65353,2,0,P|84:135|16:124,1,107.999996704102,0|2,0:0|0:0,0:0:0:0:
20,220,65705,38,0,P|87:236|156:248,1,107.999996704102,2|0,0:0|0:0,0:0:0:0:
204,216,66056,1,2,0:0:0:0:
204,216,66173,2,0,L|288:200,1,53.9999983520508,8|0,0:0|0:0,0:0:0:0:
456,76,66525,2,0,L|496:92,2,26.9999991760254,2|0|2,0:0|0:0|0:0,0:0:0:0:
392,12,66759,1,0,0:0:0:0:
372,30,66876,1,2,0:0:0:0:
364,56,66994,1,0,0:0:0:0:
368,82,67111,5,12,0:0:0:0:
388,126,67228,1,0,0:0:0:0:
391,174,67345,1,2,0:0:0:0:
377,220,67462,1,0,0:0:0:0:
344,256,67580,6,0,P|259:244|168:236,1,161.999995056153,6|0,0:0|0:0,0:0:0:0:
88,204,68048,2,0,P|105:266|120:328,1,107.999996704102,8|0,0:0|0:0,0:0:0:0:
0,144,68517,2,0,P|29:110|100:100,1,107.999996704102,2|0,0:0|0:0,0:0:0:0:
308,44,68986,2,0,P|289:118|272:212,1,161.999995056153,8|0,0:0|0:0,0:0:0:0:
344,256,69455,6,0,P|393:247|468:224,1,107.999996704102,2|0,0:0|0:0,0:0:0:0:
488,160,69806,1,0,0:0:0:0:
488,160,69923,1,8,0:0:0:0:
336,352,70158,1,0,0:0:0:0:
336,352,70275,1,0,0:0:0:0:
336,352,70392,2,0,P|288:346|192:332,1,107.999996704102,2|0,0:0|0:0,0:0:0:0:
152,288,70744,1,2,0:0:0:0:
136,292,70861,2,0,P|117:325|108:352,1,53.9999983520508,8|0,0:0|0:0,0:0:0:0:
80,172,71095,2,0,P|50:177|24:188,1,53.9999983520508,2|0,0:0|0:0,0:0:0:0:
208,96,71330,6,0,P|156:60|56:44,1,161.999995056153,2|0,0:0|0:0,0:0:0:0:
280,24,71798,2,0,P|330:16|424:8,1,107.999996704102,8|0,0:0|0:0,0:0:0:0:
476,28,72150,1,0,0:0:0:0:
476,28,72267,2,0,P|488:104|452:148,1,107.999996704102,2|0,0:0|0:0,0:0:0:0:
344,336,72736,2,0,P|380:344|424:352,1,53.9999983520508,8|0,0:0|0:0,0:0:0:0:
248,248,72970,2,0,P|273:238|320:232,1,53.9999983520508,2|0,0:0|0:0,0:0:0:0:
168,328,73205,6,0,P|142:292|138:224,1,107.999996704102,2|0,0:0|0:0,0:0:0:0:
52,56,73673,1,8,0:0:0:0:
52,56,73790,2,0,P|44:107|28:176,1,107.999996704102,0|0,0:0|0:0,0:0:0:0:
12,192,74142,1,2,0:0:0:0:
208,80,74376,1,0,0:0:0:0:
208,80,74494,1,2,0:0:0:0:
208,80,74611,2,0,P|203:52|196:16,1,53.9999983520508,8|0,0:0|0:0,0:0:0:0:
320,136,74845,1,0,0:0:0:0:
320,136,74962,1,0,0:0:0:0:
320,136,75080,6,0,L|296:332,1,161.999995056153,6|0,0:0|0:0,0:0:0:0:
360,364,75548,2,0,P|408:356|448:312,1,107.999996704102,8|0,0:0|0:0,0:0:0:0:
184,240,76017,2,0,P|196:288|212:360,1,107.999996704102,2|0,0:0|0:0,0:0:0:0:
120,144,76486,2,0,P|128:120|144:84,1,53.9999983520508,8|0,0:0|0:0,0:0:0:0:
72,240,76720,2,0,P|41:238|4:232,1,53.9999983520508,2|0,0:0|0:0,0:0:0:0:
208,212,76955,6,0,P|288:191|384:176,1,161.999995056153,2|0,0:0|0:0,0:0:0:0:
419,110,77423,2,0,L|368:96,1,53.9999983520508,8|0,0:0|0:0,0:0:0:0:
264,36,77658,2,0,P|224:48|184:64,1,53.9999983520508
120,144,77892,1,2,0:0:0:0:
248,284,78126,1,2,0:0:0:0:
292,74,78361,1,8,0:0:0:0:
72,132,78595,1,4,0:0:0:0:
366,178,78830,6,0,P|394:238|330:310,1,161.999995056153,6|0,0:0|0:0,0:0:0:0:
248,284,79298,2,0,L|136:296,1,107.999996704102,8|0,0:0|0:0,0:0:0:0:
48,308,79650,1,2,0:0:0:0:
48,308,79767,1,2,0:0:0:0:
112,88,80001,1,4,0:0:0:0:
112,88,80119,1,0,0:0:0:0:
112,88,80236,2,0,L|192:96,1,53.9999983520508,8|0,0:0|0:0,0:0:0:0:
252,140,80470,2,0,L|316:124,1,53.9999983520508,2|0,0:0|0:0,0:0:0:0:
400,48,80705,6,0,P|428:104|412:172,1,107.999996704102,6|0,0:0|0:0,0:0:0:0:
376,208,81056,1,0,0:0:0:0:
376,208,81173,2,0,L|496:192,1,107.999996704102,8|0,0:0|0:0,0:0:0:0:
304,320,81642,2,0,L|184:304,1,107.999996704102,6|2,0:0|0:0,0:0:0:0:
140,244,81994,1,0,0:0:0:0:
140,244,82111,2,0,P|120:273|112:304,1,53.9999983520508,2|0,0:0|0:0,0:0:0:0:
252,140,82345,2,0,P|242:114|226:93,1,53.9999983520508,2|0,0:0|0:0,0:0:0:0:
32,52,82580,6,0,P|64:148|180:152,2,215.999993408203,2|8|2,0:0|0:0|0:0,0:0:0:0:
336,28,83751,1,0,0:0:0:0:
344,40,83869,1,2,0:0:0:0:
352,52,83986,2,0,L|340:128,1,53.9999983520508,8|0,0:0|0:0,0:0:0:0:
188,228,84220,2,0,L|179:174,1,53.9999983520508,2|0,0:0|0:0,0:0:0:0:
244,72,84455,5,6,0:0:0:0:
388,192,84689,2,0,P|340:183|256:176,1,107.999996704102,2|8,0:0|0:0,0:0:0:0:
264,255,85040,2,0,P|317:260|370:269,1,107.999996704102,2|2,0:0|0:0,0:0:0:0:
434,334,85392,2,0,L|466:322,2,26.9999991760254
340,353,85626,1,2,0:0:0:0:
297,345,85743,1,0,0:0:0:0:
251,339,85860,1,8,0:0:0:0:
206,335,85977,1,0,0:0:0:0:
162,339,86095,2,0,P|127:361|108:379,1,53.9999983520508,2|2,0:0|0:0,0:0:0:0:
21,283,86330,5,2,0:0:0:0:
2,232,86447,1,2,0:0:0:0:
14,179,86564,1,2,0:0:0:0:
48,137,86681,1,2,0:0:0:0:
100,125,86798,1,2,0:0:0:0:
153,131,86915,1,2,0:0:0:0:
190,170,87033,5,6,0:0:0:0:
256,192,87150,12,0,89142,0:0:0:0:
