osu file format v14

[General]
AudioFilename: fluff.mp3
AudioLeadIn: 0
PreviewTime: 51759
Countdown: 0
SampleSet: Soft
StackLeniency: 0.7
Mode: 0
LetterboxInBreaks: 0
WidescreenStoryboard: 0

[Editor]
DistanceSpacing: 1.2
BeatDivisor: 4
GridSize: 4
TimelineZoom: 1

[Metadata]
Title:BLAZE
TitleUnicode:BLAZE
Artist:KOTOKO
ArtistUnicode:KOTOKO
Creator:Gaia
Version:Hard
Source:灼眼のシャナⅡ
Tags:Inyuschan Nyu-chan Nyukai Shakugan no Shana II Second 2nd opening tv size
BeatmapID:781983
BeatmapSetID:355132

[Difficulty]
HPDrainRate:5
CircleSize:4
OverallDifficulty:6
ApproachRate:7.5
SliderMultiplier:1.4
SliderTickRate:2

[Events]
//Background and Video events
Video,-413,"gaia+loves+knotts.flv"
0,0,"Blaze2.jpg",0,0
//Break Periods
//Storyboard Layer 0 (Background)
//Storyboard Layer 1 (Fail)
//Storyboard Layer 2 (Pass)
//Storyboard Layer 3 (Foreground)
//Storyboard Sound Samples

[TimingPoints]
80,468.75,4,2,1,60,1,0
8048,-100,4,2,1,50,0,0
22580,-100,4,2,1,60,0,0
37580,-100,4,2,1,50,0,0
52580,-100,4,2,1,70,0,0
87150,-100,4,2,1,40,0,0
89142,-100,4,2,1,10,0,0

[Colours]
Combo1 : 236,19,19
Combo2 : 206,206,206
Combo3 : 255,121,121
Combo4 : 255,255,128
Combo5 : 255,149,43

[HitObjects]
296,168,80,6,0,L|280:88,1,70,6|0,0:0|0:0,0:0:0:0:
296,60,431,1,2,0:0:0:0:
296,60,548,2,0,P|361:79|448:100,1,140,8|0,0:0|0:0,0:0:0:0:
472,172,1251,1,2,0:0:0:0:
448,252,1486,1,8,0:0:0:0:
308,348,1955,1,2,0:0:0:0:
284,268,2190,1,2,0:0:0:0:
256,188,2423,2,0,L|276:72,2,105,10|2|2,0:0|0:0|0:0,0:0:0:0:
168,268,3361,2,0,L|176:312,2,35,8|2|8,0:0|0:0|0:0,0:0:0:0:
92,188,3830,5,2,0:0:0:0:
120,108,4064,1,0,0:0:0:0:
200,136,4298,2,0,P|260:160|324:160,2,105,8|2|2,0:0|0:0|0:0,0:0:0:0:
240,60,5236,2,0,P|280:64|324:84,1,70,8|0,0:0|0:0,0:0:0:0:
380,116,5705,2,0,L|388:168,3,35,6|0|2|0,0:0|0:0|0:0|0:0,0:0:0:0:
404,188,6173,2,0,L|400:232,3,35,10|0|2|2,0:0|0:0|0:0|0:0,0:0:0:0:
408,264,6642,2,0,L|384:304,3,35,2|2|2|2,0:0|0:0|0:0|0:0,0:0:0:0:
352,308,7111,2,0,L|244:300,1,105
204,296,7580,5,6,0:0:0:0:
76,188,8048,2,0,L|68:80,1,105,8|2,0:0|0:0,0:0:0:0:
92,48,8517,2,0,P|132:32|168:36,1,70,0|2,0:0|0:0,0:0:0:0:
220,92,8986,2,0,P|251:106|286:106,1,70,8|2,0:0|0:0,0:0:0:0:
360,60,9455,1,2,0:0:0:0:
436,100,9689,1,2,0:0:0:0:
476,176,9923,1,8,0:0:0:0:
476,176,10040,2,0,L|452:264,1,70,2|2,0:0|0:0,0:0:0:0:
436,280,10392,2,0,P|394:286|336:276,1,70,0|2,0:0|0:0,0:0:0:0:
304,228,10861,2,0,L|296:184,2,35,8|2|0,0:0|0:0|0:0,0:0:0:0:
220,224,11330,6,0,L|224:100,1,105,2|2,0:0|0:0,0:0:0:0:
212,80,11798,1,8,0:0:0:0:
136,48,12033,1,0,0:0:0:0:
136,48,12150,2,0,P|76:84|68:128,1,105,2|2,0:0|0:0,0:0:0:0:
112,184,12736,2,0,P|120:228|116:272,1,70,8|0,0:0|0:0,0:0:0:0:
68,320,13205,2,0,L|4:308,2,35,2|2|2,0:0|0:0|0:0,0:0:0:0:
144,356,13673,2,0,L|236:348,1,70,8|0,0:0|0:0,0:0:0:0:
296,328,14142,2,0,L|384:336,1,70,2|0,0:0|0:0,0:0:0:0:
464,288,14611,2,0,P|444:240|424:184,1,105,12|0,0:0|0:0,0:0:0:0:
392,168,15080,6,0,L|256:156,1,105,6|2,0:0|0:0,0:0:0:0:
248,148,15548,2,0,P|224:100|248:44,2,105,8|2|2,0:0|0:0|0:0,0:0:0:0:
296,216,16486,2,8,P|308:264|292:304,1,70,8|0,0:0|0:0,0:0:0:0:
236,332,16955,1,2,0:0:0:0:
152,328,17189,1,2,0:0:0:0:
68,324,17423,1,8,0:0:0:0:
68,324,17540,2,0,P|36:268|40:232,1,70,2|2,0:0|0:0,0:0:0:0:
60,232,17892,2,0,L|52:152,1,70,0|2,0:0|0:0,0:0:0:0:
44,80,18361,2,0,L|8:56,2,35,8|0|2,0:0|0:0|0:0,0:0:0:0:
124,104,18830,6,0,P|181:97|236:92,1,105,2|2,0:0|0:0,0:0:0:0:
268,84,19298,2,0,P|232:64|200:4,2,105,8|2|2,0:0|0:0|0:0,0:0:0:0:
348,112,20236,2,0,P|368:160|368:204,1,70,8|0,0:0|0:0,0:0:0:0:
328,260,20705,2,0,L|340:300,2,35,2|2|2,0:0|0:0|0:0,0:0:0:0:
256,220,21173,1,8,0:0:0:0:
256,220,21290,2,0,L|172:216,1,70,2|2,0:0|0:0,0:0:0:0:
148,232,21642,2,0,L|96:252,3,35,2|2|2|2,0:0|0:0|0:0|0:0,0:0:0:0:
84,276,22111,2,0,L|64:328,3,35,10|2|2|2,0:0|0:0|0:0|0:0,0:0:0:0:
88,348,22580,6,0,L|196:336,1,105,6|2,0:0|0:0,0:0:0:0:
236,336,23048,2,0,P|220:276|228:228,2,105,8|2|2,0:0|0:0|0:0,0:0:0:0:
316,312,23986,2,0,P|316:272|304:232,1,70,8|0,0:0|0:0,0:0:0:0:
272,168,24455,1,2,0:0:0:0:
296,88,24689,1,2,0:0:0:0:
240,28,24923,1,8,0:0:0:0:
240,28,25040,2,0,L|160:24,1,70,2|2,0:0|0:0,0:0:0:0:
140,52,25392,2,0,L|56:48,1,70,0|2,0:0|0:0,0:0:0:0:
20,116,25861,2,0,P|12:160|24:192,1,70,8|0,0:0|0:0,0:0:0:0:
136,212,26330,6,0,L|244:196,1,105,2|2,0:0|0:0,0:0:0:0:
272,168,26798,2,0,P|312:140|384:152,2,105,8|2|2,0:0|0:0|0:0,0:0:0:0:
308,244,27736,2,0,P|343:239|388:212,1,70,8|0,0:0|0:0,0:0:0:0:
444,180,28205,2,0,L|500:188,2,35,2|0|2,0:0|0:0|0:0,0:0:0:0:
396,108,28673,2,0,P|401:54|408:-4,2,105,8|2|2,0:0|0:0|0:0,0:0:0:0:
312,124,29611,2,0,L|224:128,1,70,8|0,0:0|0:0,0:0:0:0:
172,80,30080,6,0,L|59:85,1,105,2|2,0:0|0:0,0:0:0:0:
40,116,30548,2,0,P|84:148|92:220,2,105,12|2|2,0:0|0:0|0:0,0:0:0:0:
16,196,31486,2,0,L|28:288,1,70,8|0,0:0|0:0,0:0:0:0:
76,332,31955,1,2,0:0:0:0:
160,324,32189,1,2,0:0:0:0:
244,316,32423,1,8,0:0:0:0:
244,316,32540,2,0,L|332:304,1,70,2|2,0:0|0:0,0:0:0:0:
352,292,32892,2,0,P|376:248|376:212,1,70,0|2,0:0|0:0,0:0:0:0:
320,168,33361,2,0,P|326:133|345:104,1,70,8|0,0:0|0:0,0:0:0:0:
412,52,33830,6,0,P|344:76|264:60,1,140,2|8,0:0|0:0,0:0:0:0:
196,44,34533,1,0,0:0:0:0:
196,44,34650,2,0,P|140:52|96:96,1,105,2|2,0:0|0:0,0:0:0:0:
88,164,35236,2,0,L|104:236,1,70,8|0,0:0|0:0,0:0:0:0:
160,296,35705,2,0,L|156:344,2,35,2|2|2,0:0|0:0|0:0,0:0:0:0:
240,268,36173,1,8,0:0:0:0:
240,268,36290,2,0,L|336:256,1,70,2|2,0:0|0:0,0:0:0:0:
348,244,36642,2,0,L|392:248,3,35,10|2|2|2,0:0|0:0|0:0|0:0,0:0:0:0:
424,248,37111,2,0,L|476:236,3,35,12|0|0|0,0:0|0:0|0:0|0:0,0:0:0:0:
496,224,37580,6,0,P|508:176|468:80,1,140,6|8,0:0|0:0,0:0:0:0:
312,100,38517,2,0,P|300:148|340:244,1,140,2|8,0:0|0:0,0:0:0:0:
396,280,39220,1,2,0:0:0:0:
314,363,39455,2,0,L|166:351,1,140,2|8,0:0|0:0,0:0:0:0:
88,212,40392,2,0,L|192:220,1,105,2|2,0:0|0:0,0:0:0:0:
236,216,40861,1,8,0:0:0:0:
308,172,41095,1,4,0:0:0:0:
412,228,41330,6,0,L|420:360,1,105,6|0,0:0|0:0,0:0:0:0:
388,360,41798,2,0,P|336:376|300:360,1,70,8|0,0:0|0:0,0:0:0:0:
201,300,42267,2,0,P|245:272|305:276,1,105,2|0,0:0|0:0,0:0:0:0:
321,240,42736,2,0,L|305:160,1,70,8|2,0:0|0:0,0:0:0:0:
208,68,43205,2,0,L|228:192,1,105,2|0,0:0|0:0,0:0:0:0:
192,196,43673,2,0,P|140:172|88:180,1,105,8|2,0:0|0:0,0:0:0:0:
68,212,44142,2,0,L|88:328,1,105,2|0,0:0|0:0,0:0:0:0:
95,356,44611,1,8,0:0:0:0:
179,344,44845,1,2,0:0:0:0:
291,318,45080,6,0,L|443:334,1,140,6|8,0:0|0:0,0:0:0:0:
512,180,46017,2,0,L|372:165,1,140,2|8,0:0|0:0,0:0:0:0:
296,132,46720,1,2,0:0:0:0:
220,100,46955,2,0,L|80:114,1,140,2|8,0:0|0:0,0:0:0:0:
32,184,47658,1,0,0:0:0:0:
96,240,47892,2,0,P|120:296|120:360,1,105,2|2,0:0|0:0,0:0:0:0:
160,360,48361,2,0,P|200:368|240:360,1,70,8|2,0:0|0:0,0:0:0:0:
292,312,48830,6,0,P|348:280|432:288,1,140,2|8,0:0|0:0,0:0:0:0:
492,132,49767,2,0,P|436:164|352:156,1,140,2|8,0:0|0:0,0:0:0:0:
288,80,50470,1,6,0:0:0:0:
224,136,50705,2,0,L|232:176,2,35,2|2|2,0:0|0:0|0:0,0:0:0:0:
164,76,51173,2,0,L|124:72,3,35,8|0|0|2,0:0|0:0|0:0|0:0,0:0:0:0:
92,92,51642,1,8,0:0:0:0:
32,152,51876,1,2,0:0:0:0:
80,220,52111,1,8,0:0:0:0:
80,220,52228,2,0,P|96:272|96:312,1,70,8|2,0:0|0:0,0:0:0:0:
128,316,52580,5,6,0:0:0:0:
128,316,52697,2,0,P|186:309|248:304,1,105,0|8,0:0|0:0,0:0:0:0:
316,292,53283,2,0,L|400:300,1,70,0|2,0:0|0:0,0:0:0:0:
460,256,53751,2,0,P|480:216|480:164,2,70,0|8|0,0:0|0:0|0:0,0:0:0:0:
400,196,54455,1,2,0:0:0:0:
400,196,54572,2,0,P|420:132|448:104,1,105,0|8,0:0|0:0,0:0:0:0:
424,24,55158,2,0,P|368:16|328:32,1,70,0|2,0:0|0:0,0:0:0:0:
300,80,55626,1,0,0:0:0:0:
300,80,55744,1,2,0:0:0:0:
300,80,55861,1,8,0:0:0:0:
244,144,56095,1,2,0:0:0:0:
176,232,56330,6,0,L|192:336,1,105,2|2,0:0|0:0,0:0:0:0:
164,364,56798,2,0,P|104:376|68:364,1,70,8|0,0:0|0:0,0:0:0:0:
52,304,57267,2,0,L|56:140,1,140,2|8,0:0|0:0,0:0:0:0:
96,92,57970,1,2,0:0:0:0:
164,40,58205,2,0,P|224:24|296:44,1,105,2|2,0:0|0:0,0:0:0:0:
300,56,58673,2,0,L|296:140,1,70,8|0,0:0|0:0,0:0:0:0:
216,232,59142,1,2,0:0:0:0:
204,240,59376,1,4,0:0:0:0:
336,308,59611,1,8,0:0:0:0:
344,324,59845,1,4,0:0:0:0:
424,200,60080,5,6,0:0:0:0:
424,200,60197,2,0,L|416:88,1,105,0|8,0:0|0:0,0:0:0:0:
352,40,60783,2,0,P|288:32|264:40,1,70,0|2,0:0|0:0,0:0:0:0:
216,84,61251,2,0,P|152:92|128:84,2,70,0|8|0,0:0|0:0|0:0,0:0:0:0:
296,116,61955,1,2,0:0:0:0:
296,116,62072,2,0,P|316:184|316:220,1,105,0|8,0:0|0:0,0:0:0:0:
244,260,62658,2,0,L|168:256,1,70,0|2,0:0|0:0,0:0:0:0:
76,184,63126,2,0,L|0:188,2,70,0|8|2,0:0|0:0|0:0,0:0:0:0:
140,128,63830,6,0,L|258:134,1,105,2|2,0:0|0:0,0:0:0:0:
288,136,64298,1,8,0:0:0:0:
360,176,64533,2,0,P|380:232|384:272,1,70,0|2,0:0|0:0,0:0:0:0:
316,332,65001,2,0,P|296:276|292:236,1,70,0|8,0:0|0:0,0:0:0:0:
260,244,65353,2,0,L|184:252,1,70,0|2,0:0|0:0,0:0:0:0:
160,280,65705,2,0,L|24:264,1,105,2|2,0:0|0:0,0:0:0:0:
32,232,66173,1,8,0:0:0:0:
4,156,66408,1,0,0:0:0:0:
4,156,66525,1,2,0:0:0:0:
4,156,66642,2,0,P|-4:120|8:76,1,70,2|2,0:0|0:0,0:0:0:0:
76,48,67111,2,0,L|120:52,3,35,12|0|2|0,0:0|0:0|0:0|0:0,0:0:0:0:
152,56,67580,6,0,L|316:48,1,140,6|8,0:0|0:0,0:0:0:0:
368,84,68283,1,0,0:0:0:0:
436,136,68517,2,0,B|456:172|456:172|453:221|444:296,1,140,2|8,0:0|0:0,0:0:0:0:
292,340,69455,2,0,P|296:291|304:228,1,105,2|0,0:0|0:0,0:0:0:0:
312,196,69923,1,8,0:0:0:0:
268,124,70158,2,0,P|228:112|176:120,1,70,0|2,0:0|0:0,0:0:0:0:
128,156,70626,1,0,0:0:0:0:
128,156,70744,1,2,0:0:0:0:
128,156,70861,2,0,P|88:168|36:160,1,70,8|2,0:0|0:0,0:0:0:0:
16,96,71330,6,0,L|32:268,1,140,2|8,0:0|0:0,0:0:0:0:
92,288,72033,1,0,0:0:0:0:
96,292,72150,1,0,0:0:0:0:
100,296,72267,2,0,P|176:312|232:272,1,140,2|8,0:0|0:0,0:0:0:0:
272,208,72970,1,2,0:0:0:0:
264,124,73205,1,2,0:0:0:0:
184,96,73439,1,0,0:0:0:0:
128,156,73673,1,8,0:0:0:0:
128,156,73790,2,0,P|144:208|148:252,1,70
180,248,74142,2,0,P|228:260|256:256,1,70,2|0,0:0|0:0,0:0:0:0:
360,176,74611,2,0,P|312:164|284:168,1,70,8|0,0:0|0:0,0:0:0:0:
184,96,75080,6,0,P|252:88|320:32,1,140,6|8,0:0|0:0,0:0:0:0:
392,24,75783,1,0,0:0:0:0:
452,84,76017,2,0,L|432:252,1,140,2|8,0:0|0:0,0:0:0:0:
388,292,76720,1,2,0:0:0:0:
336,360,76955,2,0,P|268:360|224:336,1,105,2|0,0:0|0:0,0:0:0:0:
208,312,77423,2,0,P|148:300|120:312,1,70,8|0,0:0|0:0,0:0:0:0:
60,328,77892,1,2,0:0:0:0:
12,260,78126,1,2,0:0:0:0:
28,176,78361,1,8,0:0:0:0:
104,140,78595,1,4,0:0:0:0:
184,168,78830,6,0,L|328:156,1,140,6|8,0:0|0:0,0:0:0:0:
396,200,79533,1,0,0:0:0:0:
400,204,79650,1,2,0:0:0:0:
404,208,79767,2,0,P|428:248|428:292,1,70,2|4,0:0|0:0,0:0:0:0:
352,352,80236,2,0,P|328:312|328:268,1,70,8|2,0:0|0:0,0:0:0:0:
292,260,80587,1,0,0:0:0:0:
292,260,80705,2,0,L|168:272,1,105,6|0,0:0|0:0,0:0:0:0:
148,288,81173,1,8,0:0:0:0:
68,264,81408,1,0,0:0:0:0:
20,196,81642,2,0,L|32:100,1,70,6|2,0:0|0:0,0:0:0:0:
72,52,82111,2,0,L|116:64,3,35,2|0|2|0,0:0|0:0|0:0|0:0,0:0:0:0:
148,56,82580,6,0,L|308:44,1,140,2|8,0:0|0:0,0:0:0:0:
436,124,83517,2,0,L|324:132,1,105,2|2,0:0|0:0,0:0:0:0:
288,140,83986,1,8,0:0:0:0:
244,212,84220,1,2,0:0:0:0:
204,284,84455,2,0,L|120:276,1,70,6|2,0:0|0:0,0:0:0:0:
64,236,84923,1,8,0:0:0:0:
64,236,85040,2,0,P|52:188|60:148,1,70,2|2,0:0|0:0,0:0:0:0:
84,136,85392,2,0,L|153:142,1,70,0|2,0:0|0:0,0:0:0:0:
224,188,85861,2,0,L|293:181,1,70,8|2,0:0|0:0,0:0:0:0:
336,176,86212,1,2,0:0:0:0:
336,176,86330,6,0,L|400:168,3,35,2|2|2|2,0:0|0:0|0:0|0:0,0:0:0:0:
408,188,86798,2,0,L|460:200,2,35,2|2|6,0:0|0:0|0:0,0:0:0:0:
256,192,87150,12,0,89142,0:0:0:0:
