osu file format v14

[General]
AudioFilename: fluff.mp3
AudioLeadIn: 0
PreviewTime: 51759
Countdown: 0
SampleSet: Soft
StackLeniency: 0.7
Mode: 0
LetterboxInBreaks: 0
WidescreenStoryboard: 0

[Editor]
DistanceSpacing: 0.8
BeatDivisor: 4
GridSize: 4
TimelineZoom: 1

[Metadata]
Title:BLAZE
TitleUnicode:BLAZE
Artist:KOTOKO
ArtistUnicode:KOTOKO
Creator:Gaia
Version:Normal
Source:灼眼のシャナⅡ
Tags:Inyuschan Nyu-chan Nyukai Shakugan no Shana II Second 2nd opening tv size
BeatmapID:1202239
BeatmapSetID:355132

[Difficulty]
HPDrainRate:4
CircleSize:3.5
OverallDifficulty:4
ApproachRate:4.5
SliderMultiplier:1.2
SliderTickRate:1

[Events]
//Background and Video events
Video,-413,"gaia+loves+knotts.flv"
0,0,"Blaze2.jpg",0,0
//Break Periods
//Storyboard Layer 0 (Background)
//Storyboard Layer 1 (Fail)
//Storyboard Layer 2 (Pass)
//Storyboard Layer 3 (Foreground)
//Storyboard Sound Samples

[TimingPoints]
80,468.75,4,2,1,60,1,0
8048,-100,4,2,1,50,0,0
22580,-100,4,2,1,60,0,0
37580,-100,4,2,1,50,0,0
52580,-100,4,2,1,70,0,0
87150,-100,4,2,1,40,0,0
89142,-100,4,2,1,10,0,0

[Colours]
Combo1 : 236,19,19
Combo2 : 206,206,206
Combo3 : 255,121,121
Combo4 : 255,255,128
Combo5 : 255,149,43

[HitObjects]
275,51,80,5,6,0:0:0:0:
214,125,548,2,0,P|168:118|100:102,2,90,8|2|2,0:0|0:0|0:0,0:0:0:0:
255,149,1486,1,8,0:0:0:0:
335,202,1955,2,0,P|345:240|350:276,1,60,2|2,0:0|0:0,0:0:0:0:
384,292,2423,2,0,P|428:306|479:315,2,90,10|2|2,0:0|0:0|0:0,0:0:0:0:
339,310,3361,1,8,0:0:0:0:
255,262,3830,5,2,0:0:0:0:
163,289,4298,2,0,P|148:337|163:393,2,90,8|2|2,0:0|0:0|0:0,0:0:0:0:
138,247,5236,1,8,0:0:0:0:
65,183,5705,2,0,L|51:54,1,120,6|10,0:0|0:0,0:0:0:0:
86,29,6408,1,2,0:0:0:0:
86,29,6642,2,0,P|144:18|172:89,1,120,2|0,0:0|0:0,0:0:0:0:
216,149,7580,5,6,0:0:0:0:
305,113,8048,1,8,0:0:0:0:
388,160,8517,2,0,P|386:194|379:246,1,60,0|2,0:0|0:0,0:0:0:0:
358,260,8986,1,8,0:0:0:0:
281,318,9455,2,0,P|268:288|260:241,1,60,2|2,0:0|0:0,0:0:0:0:
228,228,9923,1,8,0:0:0:0:
228,228,10158,2,0,P|164:247|100:264,1,120,0|2,0:0|0:0,0:0:0:0:
84,220,10861,2,0,P|91:190|103:163,1,60,8|0,0:0|0:0,0:0:0:0:
132,124,11330,5,2,0:0:0:0:
216,80,11798,1,8,0:0:0:0:
216,80,12033,2,0,P|210:53|196:8,2,60,0|0|2,0:0|0:0|0:0,0:0:0:0:
252,108,12736,1,8,0:0:0:0:
324,171,13205,2,0,P|332:149|353:107,2,60,2|2|8,0:0|0:0|0:0,0:0:0:0:
356,264,14142,2,0,P|316:255|237:245,1,120,2|12,0:0|0:0,0:0:0:0:
148,280,15080,6,0,P|154:218|160:152,1,120,6|8,0:0|0:0,0:0:0:0:
140,68,16017,2,0,P|106:82|76:108,2,60,0|2|8,0:0|0:0|0:0,0:0:0:0:
168,28,16720,2,0,P|230:42|296:56,1,120,0|2,0:0|0:0,0:0:0:0:
332,64,17423,1,8,0:0:0:0:
332,64,17658,2,0,P|376:112|372:164,1,120,0|2,0:0|0:0,0:0:0:0:
332,192,18361,1,8,0:0:0:0:
240,168,18830,6,0,P|246:227|260:296,1,120,2|8,0:0|0:0,0:0:0:0:
280,328,19533,2,0,P|316:322|348:312,2,60,0|0|2,0:0|0:0|0:0,0:0:0:0:
240,352,20236,1,8,0:0:0:0:
156,304,20705,2,0,L|92:288,1,60,2|2,0:0|0:0,0:0:0:0:
68,252,21173,1,8,0:0:0:0:
68,252,21408,2,0,P|40:176|76:140,1,120,0|2,0:0|0:0,0:0:0:0:
96,120,22111,1,10,0:0:0:0:
152,44,22580,6,0,P|97:34|28:20,2,120,6|8|0,0:0|0:0|0:0,0:0:0:0:
188,76,23751,2,0,P|210:71|260:64,1,60,2|8,0:0|0:0,0:0:0:0:
336,28,24455,2,0,P|365:32|395:38,1,60,2|2,0:0|0:0,0:0:0:0:
436,64,24923,1,8,0:0:0:0:
436,64,25158,2,0,P|426:117|412:212,1,120,0|2,0:0|0:0,0:0:0:0:
412,232,25861,1,8,0:0:0:0:
364,316,26330,6,0,P|304:340|232:316,1,120,2|8,0:0|0:0,0:0:0:0:
204,316,27033,2,0,P|187:352|180:380,2,60,0|0|2,0:0|0:0|0:0,0:0:0:0:
196,268,27736,1,8,0:0:0:0:
152,180,28205,2,0,P|114:185|76:204,2,60,2|2|8,0:0|0:0|0:0,0:0:0:0:
184,144,28908,2,0,P|250:157|328:168,1,120,0|2,0:0|0:0,0:0:0:0:
344,144,29611,1,8,0:0:0:0:
428,100,30080,5,2,0:0:0:0:
484,176,30548,2,0,L|456:320,1,120,12|0,0:0|0:0,0:0:0:0:
420,320,31251,2,0,P|389:315|344:296,1,60,2|8,0:0|0:0,0:0:0:0:
276,260,31955,2,0,P|245:264|200:284,1,60,2|2,0:0|0:0,0:0:0:0:
172,260,32423,1,8,0:0:0:0:
172,260,32658,2,0,P|136:204|156:152,1,120,0|2,0:0|0:0,0:0:0:0:
184,124,33361,1,8,0:0:0:0:
240,48,33830,6,0,P|193:41|112:28,1,120,2|8,0:0|0:0,0:0:0:0:
28,16,34767,2,0,P|30:53|44:100,1,60,0|2,0:0|0:0,0:0:0:0:
60,116,35236,1,8,0:0:0:0:
68,212,35705,2,0,P|32:226|-4:236,2,60,2|2|8,0:0|0:0|0:0,0:0:0:0:
144,156,36642,2,0,P|150:111|168:60,2,90,10|2|0,0:0|0:0|0:0,0:0:0:0:
164,200,37580,6,0,P|220:236|292:220,1,120,6|8,0:0|0:0,0:0:0:0:
324,152,38517,2,0,P|380:116|452:132,1,120,2|8,0:0|0:0,0:0:0:0:
472,148,39220,1,2,0:0:0:0:
472,148,39455,2,0,L|444:308,1,120,2|8,0:0|0:0,0:0:0:0:
364,308,40392,2,0,L|343:189,1,120,2|8,0:0|0:0,0:0:0:0:
308,156,41095,1,4,0:0:0:0:
308,156,41330,6,0,P|320:108|324:64,2,90,6|0|0,0:0|0:0|0:0,0:0:0:0:
264,176,42267,2,0,P|211:161|144:148,1,120,2|8,0:0|0:0,0:0:0:0:
104,128,42970,1,2,0:0:0:0:
104,128,43205,2,0,P|89:89|80:32,2,90,2|0|0,0:0|0:0|0:0,0:0:0:0:
116,176,44142,2,0,P|108:235|96:304,1,120,2|8,0:0|0:0,0:0:0:0:
72,336,44845,1,2,0:0:0:0:
72,336,45080,6,0,P|127:324|196:316,1,120,6|8,0:0|0:0,0:0:0:0:
248,240,46017,2,0,P|307:247|366:259,1,120,2|8,0:0|0:0,0:0:0:0:
408,236,46720,1,2,0:0:0:0:
408,236,46955,2,0,P|440:188|416:116,1,120,2|8,0:0|0:0,0:0:0:0:
360,64,47892,2,0,P|327:112|339:170,1,120,2|8,0:0|0:0,0:0:0:0:
312,212,48595,1,2,0:0:0:0:
312,212,48830,6,0,P|250:200|188:192,1,120,2|8,0:0|0:0,0:0:0:0:
100,212,49767,2,0,P|60:268|120:336,1,120,2|8,0:0|0:0,0:0:0:0:
104,348,50470,1,6,0:0:0:0:
104,348,50705,2,0,L|200:328,1,60,2|2,0:0|0:0,0:0:0:0:
208,311,51173,2,0,P|199:251|193:191,1,120,8|8,0:0|0:0,0:0:0:0:
132,116,52111,2,0,P|140:85|168:44,1,60,8|0,0:0|0:0,0:0:0:0:
184,24,52580,6,0,P|244:41|324:60,1,120,6|8,0:0|0:0,0:0:0:0:
368,120,53517,1,2,0:0:0:0:
368,120,53751,2,0,P|396:107|448:96,2,60,0|8|0,0:0|0:0|0:0,0:0:0:0:
332,152,54455,2,0,P|304:216|320:272,1,120,2|8,0:0|0:0,0:0:0:0:
232,308,55392,1,2,0:0:0:0:
232,308,55626,2,0,P|229:346|224:376,2,60,0|8|2,0:0|0:0|0:0,0:0:0:0:
200,272,56330,6,0,P|150:287|92:296,2,90,2|2|0,0:0|0:0|0:0,0:0:0:0:
220,228,57267,2,0,P|162:215|84:196,1,120,2|8,0:0|0:0,0:0:0:0:
68,168,57970,1,2,0:0:0:0:
68,168,58205,2,0,P|52:108|112:64,1,120,2|8,0:0|0:0,0:0:0:0:
172,28,59142,2,0,P|209:47|248:64,1,60,2|4,0:0|0:0,0:0:0:0:
272,64,59611,2,0,P|295:52|352:40,1,60,8|4,0:0|0:0,0:0:0:0:
376,44,60080,6,0,P|424:100|392:168,1,120,6|8,0:0|0:0,0:0:0:0:
396,236,61017,1,2,0:0:0:0:
396,236,61251,2,0,P|428:231|472:220,2,60,0|8|0,0:0|0:0|0:0,0:0:0:0:
356,212,61955,2,0,P|306:200|236:188,1,120,2|8,0:0|0:0,0:0:0:0:
160,136,62892,1,2,0:0:0:0:
160,136,63126,2,0,P|149:107|144:60,2,60,0|8|2,0:0|0:0|0:0,0:0:0:0:
128,172,63830,6,0,P|84:158|24:144,2,90,2|2|0,0:0|0:0|0:0,0:0:0:0:
160,208,64767,2,0,P|176:272|184:336,1,120,2|8,0:0|0:0,0:0:0:0:
268,372,65705,2,0,L|288:248,1,120,2|8,0:0|0:0,0:0:0:0:
380,224,66642,2,0,L|360:100,1,120,2|12,0:0|0:0,0:0:0:0:
332,68,67345,1,2,0:0:0:0:
332,68,67580,6,0,P|284:32|220:40,1,120,6|8,0:0|0:0,0:0:0:0:
180,52,68283,2,0,P|196:105|212:180,1,120
192,212,68986,1,8,0:0:0:0:
120,276,69455,2,0,P|72:269|24:256,2,90,2|0|0,0:0|0:0|0:0,0:0:0:0:
144,316,70392,1,2,0:0:0:0:
220,372,70861,2,0,L|300:352,1,60,8|2,0:0|0:0,0:0:0:0:
280,308,71330,6,0,P|340:328|416:348,1,120,2|8,0:0|0:0,0:0:0:0:
472,284,72267,2,0,P|456:216|440:144,1,120,2|8,0:0|0:0,0:0:0:0:
428,120,72970,1,2,0:0:0:0:
428,120,73205,2,0,B|396:96|352:92|352:92|312:112,1,120,2|8,0:0|0:0,0:0:0:0:
248,176,74142,1,2,0:0:0:0:
164,128,74611,1,8,0:0:0:0:
80,176,75080,6,0,P|52:260|92:324,1,120,6|8,0:0|0:0,0:0:0:0:
132,352,76017,2,0,L|276:324,1,120,2|8,0:0|0:0,0:0:0:0:
288,296,76720,1,2,0:0:0:0:
288,296,76955,2,0,P|341:317|400:328,2,90,2|0|0,0:0|0:0|0:0,0:0:0:0:
268,252,77892,2,0,P|270:227|276:188,1,60,2|2,0:0|0:0,0:0:0:0:
308,160,78361,2,0,P|302:132|292:96,1,60,8|4,0:0|0:0,0:0:0:0:
264,64,78830,6,0,P|192:40|144:84,1,120,6|8,0:0|0:0,0:0:0:0:
72,100,79767,2,0,P|81:145|96:228,1,120,2|8,0:0|0:0,0:0:0:0:
100,264,80470,1,2,0:0:0:0:
100,264,80705,2,0,B|68:253|44:248|44:248|12:256,2,90,6|0|0,0:0|0:0|0:0,0:0:0:0:
132,296,81642,2,0,L|272:272,1,120,6|2,0:0|0:0,0:0:0:0:
296,264,82345,1,2,0:0:0:0:
296,264,82580,6,0,P|332:204|288:148,1,120,2|8,0:0|0:0,0:0:0:0:
248,92,83517,2,0,P|297:82|376:68,1,120,2|8,0:0|0:0,0:0:0:0:
408,88,84220,2,0,P|417:122|432:160,1,60,2|6,0:0|0:0,0:0:0:0:
472,160,84689,2,0,P|452:200|442:244,1,90,2|2,0:0|0:0,0:0:0:0:
456,292,85275,2,0,P|406:283|348:272,1,90,2|2,0:0|0:0,0:0:0:0:
340,236,85861,2,0,L|260:248,1,60,8|2,0:0|0:0,0:0:0:0:
240,220,86330,5,2,0:0:0:0:
240,220,86564,2,0,L|168:200,1,60,2|2,0:0|0:0,0:0:0:0:
136,224,87033,1,6,0:0:0:0:
256,192,87267,12,0,89142,0:0:0:0:
