osu file format v14

[General]
AudioFilename: audio.mp3
AudioLeadIn: 0
PreviewTime: 49648
Countdown: 0
SampleSet: Soft
StackLeniency: 0.8
Mode: 0
LetterboxInBreaks: 0
WidescreenStoryboard: 1

[Editor]
Bookmarks: 5804,17342,26573,35804,49650,58881,68111,77198,86573,95804,105034,118881,128111,137342,158111,167342,176573,183496,194458,194530,194602,194890
DistanceSpacing: 0.3
BeatDivisor: 4
GridSize: 32
TimelineZoom: 1.5

[Metadata]
Title:Art as <3
TitleUnicode:Art as ♡
Artist:KOTOKO
ArtistUnicode:KOTOKO
Creator:Shikibe Mayu
Version:Purity
Source:イノセントガール
Tags:Shizuku- Kazato Asa Yogurtt Amateurre Kowari Innocent Girl Front Wing eroge vn visual novel rock video game japanese heart
BeatmapID:2887788
BeatmapSetID:1399810

[Difficulty]
HPDrainRate:6.5
CircleSize:4
OverallDifficulty:9
ApproachRate:9.6
SliderMultiplier:1.8
SliderTickRate:0.5

[Events]
//Background and Video events
0,0,"f10a8bc1c.jpg",0,0
//Break Periods
2,86772,94096
//Storyboard Layer 0 (Background)
//Storyboard Layer 1 (Fail)
//Storyboard Layer 2 (Pass)
//Storyboard Layer 3 (Foreground)
//Storyboard Layer 4 (Overlay)
//Storyboard Sound Samples

[TimingPoints]
35,288.461538461538,4,2,1,50,1,0
3352,-200,4,2,1,50,0,0
5515,-100,4,2,1,50,0,0
5804,-100,4,2,1,70,0,0
17342,-125,4,2,1,60,0,0
26573,-100,4,2,1,70,0,0
29890,-83.3333333333333,4,2,1,70,0,0
31188,-100,4,2,1,70,0,0
35804,-100,4,2,1,60,0,0
42583,-100,4,2,1,70,0,0
45900,-142.857142857143,4,2,1,70,0,0
46909,-142.857142857143,4,2,1,50,0,0
47342,-125,4,2,1,50,0,0
48496,-125,4,2,1,70,0,0
49650,-90.9090909090909,4,2,1,80,0,1
61477,-66.6666666666667,4,2,1,80,0,1
62054,-90.9090909090909,4,2,1,80,0,1
68111,-100,4,2,1,70,0,0
75034,-142.857142857143,4,2,1,60,0,0
77198,-100,4,2,1,70,0,0
82246,-111.111111111111,4,2,1,70,0,0
84554,-125,4,2,1,70,0,0
86572,-125,4,2,1,50,0,0
94650,-125,4,2,1,60,0,0
99121,-100,4,2,1,70,0,0
105034,-100,4,2,1,60,0,0
111813,-100,4,2,1,70,0,0
115131,-142.857142857143,4,2,1,70,0,0
115996,-142.857142857143,4,2,1,50,0,0
117727,-76.9230769230769,4,2,1,70,0,0
118881,-90.9090909090909,4,2,1,80,0,1
130708,-66.6666666666667,4,2,1,80,0,1
130996,-90.9090909090909,4,2,1,80,0,1
137054,-83.3333333333333,4,2,1,80,0,1
137342,-100,4,2,1,70,0,0
151044,-125,4,2,1,70,0,0
151477,-83.3333333333333,4,2,1,70,0,0
152342,-100,4,2,1,70,0,0
154073,-83.3333333333333,4,2,1,70,0,0
158111,-90.9090909090909,4,2,1,80,0,1
169506,-200,4,2,1,80,0,1
169938,-76.9230769230769,4,2,1,80,0,1
170515,-90.9090909090909,4,2,1,80,0,1
176573,-100,4,2,1,80,0,0
183496,-125,4,2,1,60,0,0
185804,-125,4,2,1,80,0,1
186092,-90.9090909090909,4,2,1,80,0,1
190708,-71.4285714285714,4,2,1,80,0,1
190924,-71.4285714285714,4,2,1,5,0,1
190996,-71.4285714285714,4,2,1,80,0,1
191212,-71.4285714285714,4,2,1,5,0,1
191284,-71.4285714285714,4,2,1,80,0,1
191500,-71.4285714285714,4,2,1,5,0,1
191573,-71.4285714285714,4,2,1,80,0,1
191789,-71.4285714285714,4,2,1,5,0,1
191861,-71.4285714285714,4,2,1,80,0,1
192077,-71.4285714285714,4,2,1,5,0,1
192150,-71.4285714285714,4,2,1,80,0,1
192366,-71.4285714285714,4,2,1,5,0,1
192438,-71.4285714285714,4,2,1,80,0,1
192654,-71.4285714285714,4,2,1,5,0,1
192727,-71.4285714285714,4,2,1,60,0,0
194602,-66.6666666666667,4,2,1,60,0,0
194890,-66.6666666666667,4,2,1,5,0,0

[Colours]
Combo1 : 148,86,92
Combo2 : 217,149,168
Combo3 : 202,155,199
Combo4 : 197,114,129

[HitObjects]
477,127,1044,6,0,B|377:113|417:183|310:171,1,180,4|0,3:2|3:0,2:0:0:0:
174,106,1477,1,8,2:0:0:0:
265,291,1621,1,0,3:0:0:0:
338,92,1765,1,8,2:0:0:0:
104,184,1909,1,0,3:0:0:0:
104,184,2198,6,0,B|64:152|64:152|86:25,1,180,4|0,3:2|3:0,2:0:0:0:
224,208,2631,1,8,2:0:0:0:
40,288,2775,1,0,3:0:0:0:
174,106,2919,5,8,2:0:0:0:
280,136,3063,1,8,2:3:0:0:
386,166,3208,1,4,2:3:0:0:
185,311,3352,6,0,B|133:311|104:250|104:250|128:302|107:363|55:389|-16:380|-60:321|-2:266|39:287,1,405,4|4,3:1|3:2,2:0:0:0:
415,373,5227,5,2,2:0:0:0:
415,373,5299,1,2,2:0:0:0:
415,373,5371,1,2,2:0:0:0:
415,373,5443,1,2,2:0:0:0:
415,373,5515,2,0,L|423:329,1,45,2|2,2:0|2:0,2:0:0:0:
320,232,5659,2,0,L|328:276,1,45,2|2,2:0|2:0,2:0:0:0:
492,200,5804,6,0,P|440:158|374:160,1,135,4|0,3:1|2:0,2:0:0:0:
339,144,6092,2,0,P|326:187|319:231,1,90,8|0,2:0|3:0,2:0:0:0:
233,57,6381,5,2,3:2:0:0:
85,90,6525,1,2,3:2:0:0:
247,54,6669,1,8,2:0:0:0:
32,166,6813,6,0,B|-19:118|-19:118|3:10,1,180,6|0,3:2|3:0,2:0:0:0:
97,245,7246,6,0,P|52:252|8:262,1,90,8|2,2:0|2:0,2:0:0:0:
8,262,7462,1,2,2:0:0:0:
8,262,7534,1,2,3:2:0:0:
160,326,7679,1,2,3:2:0:0:
199,152,7823,1,8,2:0:0:0:
78,379,7967,6,0,P|166:363|255:349,1,180,6|0,3:2|3:0,2:0:0:0:
428,171,8400,1,10,2:0:0:0:
365,366,8544,1,0,1:0:0:0:
365,366,8616,1,0,1:0:0:0:
365,366,8688,1,2,3:2:0:0:
296,125,8833,1,0,3:0:0:0:
261,364,8977,1,10,2:0:0:0:
97,245,9121,6,0,B|160:233|160:233|206:259|206:259|268:248,1,180,4|0,3:2|3:0,2:0:0:0:
506,214,9554,1,8,2:0:0:0:
352,53,9698,1,2,2:0:0:0:
408,272,9842,2,0,P|419:315|407:357,1,90,2|2,3:2|3:2,2:0:0:0:
390,377,10059,1,0,3:0:0:0:
390,377,10131,1,8,2:0:0:0:
264,176,10275,1,2,3:2:0:0:
504,232,10419,5,4,3:2:0:0:
288,320,10563,1,0,3:0:0:0:
388,127,10708,1,8,2:0:0:0:
168,48,10852,1,2,3:2:0:0:
239,0,11140,5,2,3:2:0:0:
331,248,11284,1,10,2:0:0:0:
67,201,11429,1,6,3:2:0:0:
20,277,11717,5,2,3:2:0:0:
285,170,11861,1,10,2:0:0:0:
41,23,12006,2,0,P|61:110|66:200,1,180,6|2,3:2|3:2,2:0:0:0:
200,351,12438,1,10,2:0:0:0:
272,128,12583,5,2,3:2:0:0:
263,108,12655,1,0,3:0:0:0:
254,88,12727,1,6,3:2:0:0:
127,285,12871,1,2,3:2:0:0:
366,195,13015,1,10,2:0:0:0:
289,363,13159,2,0,P|245:355|200:351,1,90,2|0,3:2|3:2,2:0:0:0:
366,195,13448,2,0,P|374:239|378:284,1,90,2|10,3:2|2:0,2:0:0:0:
178,118,13736,6,0,B|113:128|113:128|89:161|89:161|16:174,1,180,4|2,3:2|3:2,2:0:0:0:
164,205,14169,1,8,2:0:0:0:
51,72,14313,1,2,2:0:0:0:
304,134,14458,5,0,3:0:0:0:
103,288,14602,1,2,3:2:0:0:
333,363,14746,2,0,P|377:352|422:346,1,90,10|0,2:0|2:0,2:0:0:0:
303,210,15034,5,4,3:2:0:0:
293,192,15131,2,0,P|300:163|303:133,1,60,2|2,2:0|2:0,2:0:0:0:
394,13,15323,5,10,2:0:0:0:
384,31,15419,2,0,P|391:59|394:89,1,60,2|2,2:0|2:0,2:0:0:0:
437,231,15611,5,0,3:0:0:0:
199,157,15756,1,0,3:0:0:0:
480,36,15900,1,10,2:0:0:0:
228,260,16044,6,0,B|129:235|129:235|107:271|63:270,1,180,12|0,2:0|3:0,2:0:0:0:
199,157,16477,1,8,2:0:0:0:
77,74,16621,1,0,3:0:0:0:
159,328,16765,5,10,2:0:0:0:
302,133,16909,1,0,3:0:0:0:
16,192,17054,1,10,2:0:0:0:
314,361,17198,5,0,3:0:0:0:
324,362,17270,1,0,3:0:0:0:
332,363,17342,2,0,P|403:347|474:336,1,144,4|0,3:2|3:2,2:0:0:0:
474,336,17775,1,2,2:0:0:0:
384,263,17919,6,0,P|387:228|392:192,1,72,0|0,3:2|2:0,2:0:0:0:
296,144,18208,2,0,P|292:179|287:215,1,72,2|0,3:2|2:0,2:0:0:0:
152,280,18496,6,0,P|95:238|26:251,1,144,2|0,3:2|3:2,2:0:0:0:
26,250,18929,1,2,2:0:0:0:
92,348,19073,2,0,P|161:328|232:320,1,144,0|0,3:2|3:2,2:0:0:0:
487,165,19650,6,0,P|418:168|368:118,1,144,2|0,3:2|3:2,2:0:0:0:
429,22,20083,2,0,P|441:55|446:91,2,72,2|0|0,2:0|3:2|2:0,2:0:0:0:
285,214,20515,2,0,P|251:204|216:197,1,72,2|0,3:2|2:0,2:0:0:0:
56,80,20804,6,0,P|127:70|196:49,1,144,2|0,3:2|3:2,2:0:0:0:
270,318,21381,2,0,P|201:325|150:278,1,144,2|0,3:2|3:2,2:0:0:0:
149,276,21813,1,0,2:0:0:0:
82,228,21958,6,0,P|98:298|109:369,1,144,2|0,3:2|3:2,2:0:0:0:
284,247,22390,2,0,P|276:282|270:317,1,72,2|0,2:0|3:2,2:0:0:0:
166,190,22679,1,0,2:0:0:0:
165,190,22823,2,0,P|200:180|235:169,1,72,2|0,3:2|2:0,2:0:0:0:
393,207,23111,6,0,B|400:163|400:163|384:127|384:127|392:67,1,144,2|0,3:2|3:2,2:0:0:0:
391,67,23544,1,2,2:0:0:0:
473,244,23688,2,0,P|421:290|351:285,1,144,0|0,3:2|3:2,2:0:0:0:
144,79,24265,6,0,P|179:74|212:61,1,72,2|0,3:2|2:0,2:0:0:0:
80,144,24554,1,0,3:2:0:0:
99,1,24698,2,0,L|79:143,1,144,2|0,2:0|2:0,2:0:0:0:
124,314,25131,2,0,P|88:319|54:329,1,72,2|0,3:2|2:0,2:0:0:0:
197,159,25419,5,2,3:2:0:0:
241,362,25563,1,8,2:3:0:0:
377,260,25708,2,0,P|341:256|306:248,1,72,4|0,2:3|2:0,2:0:0:0:
197,159,25996,5,8,2:0:0:0:
372,103,26140,1,0,3:0:0:0:
295,273,26284,1,8,2:0:0:0:
256,48,26429,5,0,1:0:0:0:
246,43,26501,1,0,1:0:0:0:
234,35,26573,2,0,B|190:8|145:35|145:35|121:83|76:75,1,180,4|10,3:2|2:0,2:0:0:0:
198,230,27006,2,0,P|204:186|216:143,1,90,2|0,2:0|3:0,2:0:0:0:
99,312,27294,5,0,2:0:0:0:
15,209,27438,2,0,P|59:197|103:186,1,90,10|0,2:0|2:0,2:0:0:0:
269,317,27727,6,0,B|328:317|379:335|379:335|398:305|429:291,1,180,2|10,3:2|2:0,2:0:0:0:
299,171,28159,1,2,2:0:0:0:
408,71,28304,5,0,3:0:0:0:
351,246,28448,1,2,3:2:0:0:
190,145,28592,2,0,P|146:155|102:166,1,90,10|0,2:0|2:0,2:0:0:0:
138,340,28881,6,0,P|159:301|160:257,1,90,2|0,3:2|2:0,2:0:0:0:
19,156,29169,1,10,2:0:0:0:
263,255,29313,6,0,P|328:239|394:226,1,135,2|0,2:0|2:0,2:0:0:0:
432,240,29602,2,0,P|437:195|444:150,1,90,2|10,3:2|2:0,2:0:0:0:
184,48,29890,6,0,B|133:56|75:88|75:88|15:51|48:7,1,216,6|0,3:1|3:0,2:0:0:0:
280,148,30323,1,8,2:0:0:0:
106,255,30467,1,0,1:0:0:0:
99,238,30539,1,0,1:0:0:0:
93,223,30611,1,0,3:0:0:0:
310,302,30756,1,0,3:0:0:0:
72,384,30900,1,8,2:0:0:0:
144,144,31044,1,2,2:0:0:0:
319,319,31188,6,0,P|406:328|462:263,1,180,4|10,3:2|2:0,2:0:0:0:
294,162,31621,1,2,2:0:0:0:
418,65,31765,2,0,P|409:109|402:153,1,90,0|0,3:0|3:2,2:0:0:0:
203,369,32054,5,10,2:0:0:0:
372,249,32198,1,2,2:0:0:0:
100,321,32342,6,0,P|57:307|13:298,1,90,6|0,3:2|2:0,2:0:0:0:
212,130,32631,1,10,2:0:0:0:
106,66,32775,2,0,P|123:154|137:243,1,180,2|2,2:0|3:2,2:0:0:0:
332,363,33208,1,10,2:0:0:0:
370,164,33352,5,0,1:0:0:0:
366,150,33424,1,0,1:0:0:0:
361,134,33496,1,6,3:2:0:0:
224,296,33640,1,0,2:0:0:0:
248,48,33784,1,10,2:0:0:0:
456,192,33929,6,0,B|356:176|389:249|287:228,1,180,2|2,2:0|3:2,2:0:0:0:
64,168,34361,1,10,2:0:0:0:
128,368,34506,1,6,3:1:0:0:
235,155,34650,5,2,2:0:0:0:
0,256,34794,1,0,3:0:0:0:
52,27,34938,1,8,2:0:0:0:
148,185,35083,1,2,2:0:0:0:
318,32,35227,5,0,3:0:0:0:
64,168,35371,1,0,1:0:0:0:
51,163,35443,1,0,1:0:0:0:
38,158,35515,1,10,2:0:0:0:
280,288,35659,1,2,2:0:0:0:
138,31,35804,5,10,2:0:0:0:
375,207,35948,1,10,2:0:0:0:
88,280,36092,1,10,2:0:0:0:
318,32,36236,1,2,2:0:0:0:
318,32,36525,6,0,P|360:46|404:53,1,90,2|8,3:2|2:0,2:0:0:0:
462,239,36813,6,0,B|394:231|394:231|349:253|349:253|287:246,1,180,6|0,3:1|3:0,2:0:0:0:
52,136,37246,1,10,2:0:0:0:
117,326,37390,1,0,1:0:0:0:
117,326,37462,1,0,1:0:0:0:
117,326,37534,2,0,P|156:313|216:300,1,90,2|0,3:2|3:0,2:0:0:0:
32,240,37823,1,10,2:0:0:0:
249,205,37967,6,0,P|236:295|227:384,1,180,4|0,3:2|3:0,2:0:0:0:
134,213,38400,1,10,2:0:0:0:
346,312,38544,1,2,2:0:0:0:
364,306,38616,1,2,2:0:0:0:
384,299,38688,1,2,3:2:0:0:
211,122,38833,1,0,3:0:0:0:
150,370,38977,5,8,2:0:0:0:
11,181,39121,1,2,2:0:0:0:
243,244,39265,6,0,P|287:235|331:225,1,90,4|0,3:1|3:0,2:0:0:0:
119,112,39554,1,8,2:0:0:0:
290,10,39698,1,0,3:0:0:0:
141,220,39842,2,0,P|149:264|159:308,1,90,10|0,2:0|3:0,2:0:0:0:
159,308,40059,1,8,2:0:0:0:
159,308,40131,1,10,2:0:0:0:
225,160,40275,1,0,3:0:0:0:
26,260,40419,5,10,2:0:0:0:
80,24,40563,1,10,2:0:0:0:
280,232,40708,1,10,2:0:0:0:
121,200,40852,1,2,2:0:0:0:
121,200,41140,6,0,P|171:191|221:173,1,90,2|8,3:2|2:0,2:0:0:0:
271,48,41429,6,0,P|184:56|120:-2,1,180,6|0,3:1|3:0,2:0:0:0:
208,176,41861,1,10,2:0:0:0:
368,120,42006,1,0,1:0:0:0:
380,125,42078,1,0,1:0:0:0:
392,129,42150,2,0,P|435:116|479:106,1,90,2|0,3:2|3:0,2:0:0:0:
361,35,42438,1,10,2:0:0:0:
312,252,42583,6,0,P|223:237|134:222,1,180,4|0,3:2|3:0,2:0:0:0:
320,112,43015,1,8,2:0:0:0:
167,75,43159,1,0,1:0:0:0:
167,75,43232,1,0,1:0:0:0:
167,75,43304,1,2,3:2:0:0:
216,268,43448,1,0,3:0:0:0:
35,146,43592,5,8,2:0:0:0:
16,352,43736,1,2,2:0:0:0:
293,191,43881,6,0,B|388:173|388:173|419:208|461:207,1,180,4|8,3:2|2:0,2:0:0:0:
287,80,44313,1,0,1:0:0:0:
397,329,44458,1,2,3:2:0:0:
455,126,44602,1,0,3:0:0:0:
215,267,44746,2,0,P|172:255|128:247,1,90,8|2,2:0|2:0,2:0:0:0:
377,91,45034,5,12,2:0:0:0:
149,6,45179,1,0,3:0:0:0:
328,218,45323,1,0,3:0:0:0:
54,296,45467,1,12,2:0:0:0:
228,86,45611,1,8,2:3:0:0:
228,86,45900,6,0,B|341:58|313:162|434:129|434:129|363:95|386:8|437:-8|489:26|480:64,1,441,4|2,3:1|2:3,2:0:0:0:
480,63,46982,1,2,2:3:0:0:
480,63,47054,1,2,2:3:0:0:
434,220,47198,1,2,2:3:0:0:
263,168,47342,6,0,P|193:182|122:196,1,144,2|0,2:3|2:0,2:0:0:0:
96,296,47775,2,0,P|166:282|237:267,1,144,2|0,2:3|2:0,2:0:0:0:
136,125,48208,2,0,P|129:160|121:195,1,72,2|0,2:3|2:0,2:0:0:0:
351,367,48496,5,0,3:0:0:0:
279,132,48640,1,8,2:0:0:0:
505,273,48784,1,0,3:0:0:0:
262,348,48929,1,0,3:0:0:0:
431,105,49073,5,8,2:0:0:0:
203,54,49217,1,0,3:0:0:0:
374,240,49361,1,10,2:0:0:0:
139,358,49506,5,0,1:0:0:0:
128,351,49578,1,0,1:0:0:0:
119,345,49650,2,0,P|128:271|139:198,1,148.5,6|0,3:1|2:0,2:0:0:0:
120,178,49938,1,8,2:0:0:0:
244,317,50083,1,0,1:0:0:0:
30,240,50227,1,2,3:2:0:0:
240,96,50371,2,0,P|289:88|337:75,1,99,0|8,3:0|2:0,2:0:0:0:
512,224,50659,6,0,B|469:270|469:270|335:247,1,198,2|0,2:0|2:0,2:0:0:0:
176,208,51092,1,10,2:0:0:0:
226,375,51236,2,0,B|251:333|251:333|244:283,1,99,0|0,1:0|3:2,2:0:0:0:
54,168,51525,1,2,3:2:0:0:
248,72,51669,1,8,2:0:0:0:
96,264,51813,1,2,2:0:0:0:
160,8,51958,1,0,3:2:0:0:
159,8,52246,6,0,P|207:22|255:33,1,99,8|0,2:0|1:0,2:0:0:0:
271,17,52462,1,0,1:0:0:0:
271,17,52534,1,2,3:2:0:0:
416,160,52679,2,0,P|368:174|320:185,1,99,0|8,3:0|2:0,2:0:0:0:
152,368,52967,6,0,B|162:303|162:303|138:248|138:248|150:176,1,198,2|0,2:0|3:0,2:0:0:0:
256,248,53400,1,10,2:0:0:0:
149,82,53544,2,0,P|102:97|54:109,1,99,0|0,1:0|3:2,2:0:0:0:
272,262,53833,1,2,3:2:0:0:
55,226,53977,1,8,2:0:0:0:
208,0,54121,6,0,P|188:96|177:195,1,198,6|0,3:2|3:0,2:0:0:0:
216,384,54554,1,8,2:0:0:0:
55,226,54698,1,0,1:0:0:0:
328,259,54842,6,0,P|376:248|424:238,1,99,2|0,3:2|3:0,2:0:0:0:
216,384,55131,2,0,P|171:326|176:253,1,148.5,10|0,2:0|2:0,2:0:0:0:
144,232,55419,2,0,P|95:243|47:255,1,99,2|0,3:2|2:0,2:0:0:0:
252,301,55708,1,8,2:0:0:0:
263,32,55852,6,0,B|210:82|210:82|233:204,1,198,2|0,3:2|3:2,2:0:0:0:
413,124,56284,1,8,2:0:0:0:
476,353,56429,5,0,1:0:0:0:
471,359,56501,1,0,1:0:0:0:
466,364,56573,2,0,P|394:349|320:338,1,148.5,4|0,3:1|2:0,2:0:0:0:
296,360,56861,2,0,P|272:316|276:268,1,99,10|0,2:0|2:0,2:0:0:0:
512,99,57150,1,2,3:2:0:0:
321,54,57294,1,0,3:0:0:0:
396,221,57438,2,0,P|406:172|412:123,1,99,10|0,2:0|3:0,2:0:0:0:
152,296,57727,5,10,2:0:0:0:
88,56,57871,1,0,3:0:0:0:
310,157,58015,1,0,3:0:0:0:
56,312,58159,5,10,2:0:0:0:
288,240,58304,1,0,3:0:0:0:
16,128,58448,1,0,3:0:0:0:
266,366,58592,2,0,P|313:350|361:340,1,99,10|0,2:0|2:0,2:0:0:0:
492,167,58881,6,0,P|418:154|345:141,1,148.5,6|0,3:1|2:0,2:0:0:0:
330,173,59169,1,8,2:0:0:0:
133,223,59313,1,0,1:0:0:0:
265,32,59458,1,2,3:2:0:0:
112,232,59602,2,0,P|63:223|14:215,1,99,0|8,3:0|2:0,2:0:0:0:
280,288,59890,6,0,B|385:266|385:266|415:306|462:305,1,198,2|0,2:0|2:0,2:0:0:0:
225,152,60323,1,10,2:0:0:0:
130,329,60467,2,0,P|123:280|112:232,1,99,0|0,1:0|3:2,2:0:0:0:
284,105,60756,1,2,3:2:0:0:
89,9,60900,1,8,2:0:0:0:
223,240,61044,1,2,2:0:0:0:
237,244,61116,1,2,2:0:0:0:
253,252,61188,2,0,P|301:241|349:230,1,99,0|0,3:2|3:0,2:0:0:0:
349,229,61477,6,0,B|278:224|278:224|243:278|243:278|177:293,1,202.5,12|0,2:0|2:0,2:0:0:0:
151,301,61765,5,2,3:2:0:0:
100,66,61909,1,0,3:0:0:0:
349,229,62054,2,0,P|391:220|453:208,1,99,10|0,0:0|0:0,0:0:0:0:
274,12,62342,2,0,P|247:53|245:102,1,99,2|0,3:2|3:0,2:0:0:0:
259,370,62631,5,8,2:0:0:0:
76,244,62775,1,0,1:0:0:0:
63,248,62847,1,0,1:0:0:0:
50,252,62919,1,2,3:2:0:0:
147,301,63063,2,0,B|168:257|168:257|156:208,1,99,0|8,3:2|2:0,2:0:0:0:
376,16,63352,6,0,P|362:114|349:212,1,198,4|0,3:1|3:2,2:0:0:0:
236,85,63784,1,8,2:0:0:0:
427,287,63929,2,0,P|378:295|330:308,1,99,6|0,3:2|2:0,2:0:0:0:
112,153,64217,5,0,3:2:0:0:
83,362,64361,1,8,2:0:0:0:
300,223,64506,6,0,B|221:213|249:273|162:260,1,148.5,4|0,3:2|2:0,2:0:0:0:
146,249,64794,1,2,3:2:0:0:
264,344,64938,1,8,2:0:0:0:
311,120,65083,2,0,P|407:112|469:185,1,198,4|0,3:2|3:2,2:0:0:0:
448,32,65515,1,8,2:0:0:0:
237,164,65659,5,0,3:0:0:0:
228,158,65732,1,0,3:0:0:0:
219,151,65804,2,0,P|227:101|236:54,1,99,10|0,2:0|3:0,2:0:0:0:
374,197,66092,1,0,3:0:0:0:
133,263,66236,6,0,B|78:254|32:240|32:240|-21:274|6:319,1,198,10|0,2:0|3:0,2:0:0:0:
236,185,66669,1,10,2:0:0:0:
99,58,66813,1,0,3:0:0:0:
86,62,66885,1,0,3:0:0:0:
74,67,66958,1,2,3:0:0:0:
258,287,67102,1,14,2:0:0:0:
51,162,67246,1,0,3:0:0:0:
296,32,67390,1,0,3:0:0:0:
160,328,67534,5,8,2:0:0:0:
399,172,67679,1,0,3:0:0:0:
128,16,67823,2,0,P|145:85|159:161,1,148.5,10|0,2:0|2:0,2:0:0:0:
140,181,68111,6,0,P|96:173|52:163,1,90,4|0,3:1|3:2,2:0:0:0:
242,315,68400,1,8,2:0:0:0:
50,379,68544,1,2,1:2:0:0:
220,232,68688,1,0,3:0:0:0:
38,157,68833,2,0,P|51:200|59:244,1,90,2|8,3:2|2:0,2:0:0:0:
160,360,69121,6,0,B|219:346|219:346|269:369|269:369|331:355,1,180,2|0,2:0|3:0,2:0:0:0:
394,171,69554,1,8,2:0:0:0:
512,288,69698,1,2,2:0:0:0:
503,292,69770,1,2,2:0:0:0:
494,298,69842,2,0,P|449:289|405:281,1,90,2|0,3:2|3:0,2:0:0:0:
251,106,70131,2,0,B|198:142|198:142|127:131,1,135,8|0,2:0|2:0,2:0:0:0:
107,149,70419,6,0,P|98:104|85:61,1,90,4|0,3:1|2:0,2:0:0:0:
257,254,70708,1,8,2:0:0:0:
48,344,70852,1,2,2:0:0:0:
200,184,70996,1,2,3:2:0:0:
0,144,71140,1,2,3:2:0:0:
222,346,71284,2,0,P|266:336|310:327,1,90,8|0,2:0|1:0,2:0:0:0:
416,72,71573,5,2,3:2:0:0:
200,184,71717,1,0,3:2:0:0:
432,264,71861,1,8,2:0:0:0:
272,47,72006,6,0,P|185:60|115:6,1,180,2|0,3:2|3:0,2:0:0:0:
16,216,72438,2,0,P|60:209|101:191,1,90,10|0,2:0|2:0,2:0:0:0:
352,320,72727,6,0,B|337:253|337:253|357:209|357:209|343:147,1,180,4|8,3:1|2:0,2:0:0:0:
496,40,73159,2,0,P|488:84|481:128,1,90,2|0,3:2|3:0,2:0:0:0:
458,277,73448,1,0,3:2:0:0:
259,171,73592,2,0,P|297:149|341:147,1,90,8|0,2:0|2:0,2:0:0:0:
221,369,73881,5,12,2:0:0:0:
72,161,74025,1,0,3:2:0:0:
320,224,74169,1,0,3:2:0:0:
48,352,74313,2,0,P|41:307|33:263,1,90,8|0,2:0|2:0,2:0:0:0:
240,64,74602,5,8,2:0:0:0:
136,320,74746,1,4,2:3:0:0:
136,320,75034,6,0,P|228:301|321:285,1,189,4|0,3:1|2:0,2:0:0:0:
321,285,75756,2,0,P|314:315|308:346,1,62.9999999999999,2|0,2:0|1:0,2:0:0:0:
401,239,76044,2,0,P|407:208|413:177,1,62.9999999999999,2|0,2:0|1:0,2:0:0:0:
496,312,76333,2,0,P|465:318|434:324,1,62.9999999999999,2|0,2:0|1:0,2:0:0:0:
339,126,76621,6,0,P|401:133|454:101,1,126,2|2,2:0|2:0,2:0:0:0:
454,101,77054,1,2,3:2:0:0:
321,284,77198,6,0,P|232:265|143:256,1,180,6|0,3:2|3:0,2:0:0:0:
104,344,77631,1,10,2:0:0:0:
1,173,77775,1,0,1:0:0:0:
8,177,77847,1,0,1:0:0:0:
15,180,77919,2,0,P|59:182|100:165,1,90,2|0,3:2|3:0,2:0:0:0:
264,192,78208,1,10,2:0:0:0:
160,72,78352,6,0,P|147:161|134:250,1,180,4|0,3:2|3:0,2:0:0:0:
280,368,78784,1,8,2:0:0:0:
72,344,78929,2,0,P|140:289|226:303,1,180,2|2,3:2|3:2,2:0:0:0:
382,233,79361,2,0,P|395:276|402:320,1,90,8|2,2:0|3:2,2:0:0:0:
497,97,79650,5,4,3:2:0:0:
295,239,79794,1,0,3:0:0:0:
236,33,79938,1,8,2:0:0:0:
485,191,80083,1,2,3:2:0:0:
408,136,80371,5,2,3:2:0:0:
304,384,80515,1,10,2:0:0:0:
146,196,80659,1,6,3:2:0:0:
146,196,80948,5,2,3:2:0:0:
497,97,81092,1,10,2:0:0:0:
200,272,81236,6,0,P|113:280|55:215,1,180,6|2,3:2|3:2,2:0:0:0:
290,135,81669,1,10,2:0:0:0:
91,24,81813,1,2,3:2:0:0:
326,223,81958,1,6,3:2:0:0:
326,223,82246,6,0,P|404:202|484:190,1,162,2|8,2:0|2:0,2:0:0:0:
336,128,82679,1,2,3:2:0:0:
312,312,82823,1,2,2:0:0:0:
340,113,82967,6,0,P|280:124|221:138,1,121.5,4|0,3:2|2:0,2:0:0:0:
204,144,83256,1,10,2:0:0:0:
66,51,83400,2,0,P|105:57|144:68,1,81.0000000000001,2|0,2:0|3:0,2:0:0:0:
224,240,83688,5,8,2:0:0:0:
88,159,83833,2,0,P|73:239|62:319,1,162,2|0,2:0|2:0,2:0:0:0:
245,382,84265,1,4,3:2:0:0:
245,382,84554,6,0,P|234:310|223:239,1,144,2|0,2:0|2:0,2:0:0:0:
248,120,84986,1,2,2:0:0:0:
165,160,85275,5,2,2:0:0:0:
296,195,85419,2,0,B|323:135|433:95|530:129|568:225|487:357|355:314|311:208|381:120|457:77|512:87,1,576,2|2,2:0|2:0,2:0:0:0:
421,180,94650,5,4,2:3:0:0:
359,68,94794,2,0,P|350:102|345:138,2,72,4|4|0,2:3|2:3|3:0,2:0:0:0:
472,256,95227,5,8,2:0:0:0:
288,208,95371,1,0,3:0:0:0:
344,376,95515,1,8,2:0:0:0:
343,375,95804,6,0,P|274:358|202:352,1,144,4|2,3:2|2:0,2:0:0:0:
202,352,96236,1,0,3:2:0:0:
75,295,96381,2,0,P|81:330|86:365,1,72,8|0,2:0|2:0,2:0:0:0:
160,272,96669,2,0,P|166:236|171:201,1,72,2|0,2:0|2:0,2:0:0:0:
147,94,96958,6,0,P|78:104|25:59,1,144,2|2,3:2|2:0,2:0:0:0:
25,59,97390,1,0,3:2:0:0:
185,182,97534,2,0,P|195:110|208:40,1,144,8|2,2:0|2:0,2:0:0:0:
300,107,97967,1,0,2:0:0:0:
232,264,98111,6,0,P|162:272|105:229,1,144,4|2,3:2|2:0,2:0:0:0:
173,111,98544,1,0,3:2:0:0:
173,111,98616,1,0,3:0:0:0:
173,111,98688,2,0,P|180:146|184:181,2,72,8|0|2,2:0|2:0|2:0,2:0:0:0:
176,367,99121,6,0,P|246:315|333:326,1,180,6|0,3:1|3:0,2:0:0:0:
505,227,99554,1,8,2:0:0:0:
344,160,99698,1,0,1:0:0:0:
329,167,99770,1,0,1:0:0:0:
314,174,99842,1,0,3:0:0:0:
487,331,99986,1,0,3:0:0:0:
264,264,100131,1,8,2:0:0:0:
464,120,100275,1,2,2:0:0:0:
288,352,100419,6,0,B|191:366|218:295|118:314,1,180,4|10,3:2|2:0,2:0:0:0:
248,232,100852,1,2,2:0:0:0:
141,129,100996,2,0,P|152:172|158:216,1,90,0|0,3:0|2:0,2:0:0:0:
354,51,101284,1,10,2:0:0:0:
394,257,101429,1,2,2:0:0:0:
488,176,101573,6,0,P|399:159|311:139,1,180,6|10,3:2|2:0,2:0:0:0:
158,216,102006,1,2,2:0:0:0:
64,64,102150,1,0,3:0:0:0:
260,203,102294,1,2,3:2:0:0:
72,311,102438,6,0,P|63:267|50:224,1,90,10|0,2:0|2:0,2:0:0:0:
184,66,102727,2,0,P|170:132|160:198,1,135,6|0,3:2|2:0,2:0:0:0:
158,216,103015,1,10,2:0:0:0:
288,352,103159,6,0,B|351:340|351:340|399:365|399:365|459:350,1,180,2|2,2:0|3:2,2:0:0:0:
288,224,103592,1,10,2:0:0:0:
480,136,103736,1,6,3:1:0:0:
262,75,103881,5,2,2:0:0:0:
430,235,104025,1,0,3:0:0:0:
201,277,104169,1,8,2:0:0:0:
360,104,104313,1,0,1:0:0:0:
364,87,104385,1,0,1:0:0:0:
368,70,104458,1,0,3:0:0:0:
187,185,104602,1,2,3:2:0:0:
384,320,104746,1,10,2:0:0:0:
179,367,104890,1,2,2:0:0:0:
374,214,105034,5,10,2:0:0:0:
88,152,105179,1,10,2:0:0:0:
296,368,105323,1,10,2:0:0:0:
208,48,105467,1,2,2:0:0:0:
208,48,105756,2,0,P|165:58|121:68,1,90,2|8,3:2|2:0,2:0:0:0:
7,295,106044,6,0,P|72:354|158:342,1,180,6|0,3:1|3:0,2:0:0:0:
256,240,106477,1,10,2:0:0:0:
88,144,106621,1,0,1:0:0:0:
88,144,106693,1,0,1:0:0:0:
88,144,106765,1,2,3:2:0:0:
273,233,106909,1,0,3:0:0:0:
224,32,107054,1,10,2:0:0:0:
96,264,107198,6,0,P|184:245|273:233,1,180,4|0,3:2|3:0,2:0:0:0:
432,72,107631,1,10,2:0:0:0:
488,240,107775,1,2,2:0:0:0:
484,250,107847,1,2,2:0:0:0:
480,260,107919,1,2,3:2:0:0:
264,144,108063,1,0,3:0:0:0:
312,352,108208,1,8,2:0:0:0:
424,168,108352,1,2,2:0:0:0:
164,275,108496,6,0,P|100:257|33:248,1,135,4|0,3:1|2:0,2:0:0:0:
16,256,108784,1,8,2:0:0:0:
208,192,108929,1,0,3:0:0:0:
32,120,109073,1,10,2:0:0:0:
104,336,109217,1,0,3:0:0:0:
107,345,109289,1,8,2:0:0:0:
110,353,109361,2,0,P|154:360|198:371,1,90,10|0,2:0|3:0,2:0:0:0:
456,144,109650,5,10,2:0:0:0:
152,264,109794,1,10,2:0:0:0:
408,368,109938,1,10,2:0:0:0:
272,72,110083,1,2,2:0:0:0:
272,72,110371,2,0,B|249:106|249:106|261:153,1,90,2|8,3:2|2:0,2:0:0:0:
198,371,110659,6,0,P|112:346|23:333,1,180,6|0,3:1|3:0,2:0:0:0:
206,218,111092,1,10,2:0:0:0:
48,120,111236,1,0,1:0:0:0:
34,124,111309,1,0,1:0:0:0:
20,128,111381,1,2,3:2:0:0:
128,304,111525,1,0,3:0:0:0:
200,64,111669,1,10,2:0:0:0:
344,232,111813,6,0,B|397:240|448:253|448:253|487:228|471:190,1,180,4|0,3:2|3:0,2:0:0:0:
280,328,112246,1,8,2:0:0:0:
176,144,112390,1,0,1:0:0:0:
179,130,112462,1,0,1:0:0:0:
182,116,112534,1,2,2:0:0:0:
344,232,112679,1,0,3:0:0:0:
280,0,112823,1,8,2:0:0:0:
493,89,112967,1,2,2:0:0:0:
228,221,113111,6,0,P|142:230|85:165,1,180,4|8,3:2|2:0,2:0:0:0:
193,55,113544,2,0,P|182:99|175:144,1,90,0|2,1:0|2:0,2:0:0:0:
264,336,113833,1,0,3:0:0:0:
48,280,113977,2,0,P|91:269|136:262,1,90,8|2,2:0|2:0,2:0:0:0:
464,128,114265,5,12,2:0:0:0:
193,55,114409,1,0,3:0:0:0:
432,288,114554,1,0,3:0:0:0:
146,356,114698,1,12,2:0:0:0:
361,146,114842,1,8,2:3:0:0:
361,146,115131,6,0,B|190:115|256:253|69:216,1,315,4|0,3:1|2:0,2:0:0:0:
0,144,115996,1,2,2:3:0:0:
0,144,116573,1,2,2:3:0:0:
0,144,117150,1,2,2:3:0:0:
0,144,117727,6,0,B|55:133|55:133|98:163|98:163|163:149,1,175.5,4|0,3:2|2:0,2:0:0:0:
252,127,118015,6,0,B|193:102|193:102|219:210,1,175.5,4|0,3:2|2:0,2:0:0:0:
151,264,118304,6,0,P|224:244|223:320,1,175.5,4|0,3:2|2:0,2:0:0:0:
152,352,118592,6,0,B|207:341|207:341|250:371|250:371|315:357,1,175.5,4|0,3:2|2:0,2:0:0:0:
392,384,118881,6,0,P|400:310|413:237,1,148.5,6|0,3:1|2:0,2:0:0:0:
448,224,119169,1,8,2:0:0:0:
304,80,119313,1,0,1:0:0:0:
464,8,119458,1,2,3:2:0:0:
332,186,119602,2,0,P|284:177|237:162,1,99,0|8,3:0|2:0,2:0:0:0:
2,308,119890,6,0,P|72:372|167:358,1,198,2|0,2:0|2:0,2:0:0:0:
253,269,120323,1,10,2:0:0:0:
82,179,120467,2,0,P|93:227|100:276,1,99,0|0,1:0|3:2,2:0:0:0:
304,171,120756,1,2,3:2:0:0:
349,377,120900,1,8,2:0:0:0:
173,220,121044,1,2,2:0:0:0:
444,308,121188,1,0,3:2:0:0:
444,308,121477,6,0,P|455:260|459:210,1,99,8|0,2:0|1:0,2:0:0:0:
448,176,121693,1,0,1:0:0:0:
448,176,121765,1,2,3:2:0:0:
273,13,121909,1,0,3:0:0:0:
332,253,122054,1,8,2:0:0:0:
511,120,122198,6,0,P|412:113|317:85,1,198,2|0,2:0|3:0,2:0:0:0:
192,224,122631,1,10,2:0:0:0:
80,64,122775,1,0,1:0:0:0:
83,49,122847,1,0,1:0:0:0:
86,34,122919,1,0,3:2:0:0:
0,208,123063,2,0,P|14:256|22:304,1,99,2|8,3:2|2:0,2:0:0:0:
195,133,123352,6,0,P|291:120|362:185,1,198,6|0,3:2|3:0,2:0:0:0:
480,96,123784,1,8,2:0:0:0:
412,288,123929,1,0,1:0:0:0:
404,292,124001,1,0,1:0:0:0:
396,296,124073,2,0,P|348:284|299:275,1,99,2|0,3:2|3:0,2:0:0:0:
91,188,124361,1,10,2:0:0:0:
148,384,124506,1,2,2:0:0:0:
20,139,124650,6,0,B|59:84|127:107|127:107|152:139|196:132,1,198,2|8,3:2|2:0,2:0:0:0:
384,228,125083,1,2,3:2:0:0:
319,28,125227,2,0,P|308:76|304:125,1,99,0|0,3:0|3:2,2:0:0:0:
460,360,125515,2,0,P|471:311|475:262,1,99,8|0,2:0|1:0,2:0:0:0:
384,228,125732,5,0,1:0:0:0:
372,224,125804,2,0,L|225:248,1,148.5,4|0,3:1|2:0,2:0:0:0:
160,324,126092,2,0,P|208:331|256:343,1,99,10|0,2:0|2:0,2:0:0:0:
120,149,126381,1,2,3:2:0:0:
59,372,126525,1,0,3:0:0:0:
300,216,126669,2,0,P|310:167|314:118,1,99,10|0,2:0|3:0,2:0:0:0:
84,292,126958,5,10,2:0:0:0:
22,59,127102,1,0,3:0:0:0:
246,146,127246,1,0,3:0:0:0:
0,228,127390,5,10,2:0:0:0:
233,274,127534,1,0,3:0:0:0:
152,57,127679,1,0,3:0:0:0:
187,369,127823,5,10,2:0:0:0:
187,369,127895,1,0,1:0:0:0:
187,369,127967,1,0,1:0:0:0:
187,369,128039,1,0,1:0:0:0:
187,369,128111,2,0,P|283:348|381:333,1,198,6|8,3:1|2:0,2:0:0:0:
440,112,128544,1,0,1:0:0:0:
244,224,128688,1,2,3:2:0:0:
288,24,128833,2,0,P|340:16|392:4,1,99,0|8,3:0|2:0,2:0:0:0:
512,176,129121,6,0,B|452:204|452:204|322:179,1,198,2|0,2:0|3:2,2:0:0:0:
144,232,129554,1,10,2:0:0:0:
199,15,129698,2,0,P|215:62|223:111,1,99,0|0,1:0|3:2,2:0:0:0:
84,384,129986,1,2,3:2:0:0:
32,152,130131,1,8,2:0:0:0:
248,308,130275,1,2,2:0:0:0:
262,304,130347,1,2,2:0:0:0:
279,304,130419,2,0,P|327:310|375:324,1,99,0|0,3:2|3:0,2:0:0:0:
374,324,130708,6,0,P|286:303|312:216,1,202.5,12|0,2:0|2:0,2:0:0:0:
280,148,130996,6,0,P|327:161|376:166,1,99,2|0,3:2|3:0,2:0:0:0:
200,40,131284,2,0,L|53:62,1,148.5,10|0,2:0|2:0,2:0:0:0:
24,72,131573,5,2,3:2:0:0:
240,192,131717,1,0,3:0:0:0:
0,304,131861,1,8,2:0:0:0:
212,376,132006,1,0,1:0:0:0:
216,364,132078,1,0,1:0:0:0:
221,350,132150,1,2,3:2:0:0:
95,172,132294,2,0,P|49:189|1:199,1,99,0|8,3:2|2:0,2:0:0:0:
255,7,132583,6,0,P|326:72|421:60,1,198,4|0,3:1|3:2,2:0:0:0:
244,216,133015,1,8,2:0:0:0:
456,331,133159,2,0,P|463:283|464:233,1,99,6|0,3:2|2:0,2:0:0:0:
292,120,133448,5,0,3:2:0:0:
352,368,133592,1,8,2:0:0:0:
69,285,133736,2,0,B|140:269|140:269|173:227|173:227|244:216,1,198,4|2,3:2|3:2,2:0:0:0:
361,42,134169,1,8,2:0:0:0:
463,232,134313,2,0,P|413:226|366:211,1,99,4|0,3:2|2:0,2:0:0:0:
201,87,134602,1,0,3:2:0:0:
300,289,134746,1,8,2:0:0:0:
81,371,134890,5,0,3:0:0:0:
73,357,134962,1,0,3:0:0:0:
65,344,135034,2,0,P|73:295|81:246,1,99,10|0,2:0|3:0,2:0:0:0:
12,75,135323,1,0,3:0:0:0:
190,256,135467,6,0,B|261:244|261:244|296:207|296:207|370:196,1,198,10|0,2:0|3:0,2:0:0:0:
229,36,135900,2,0,P|219:84|209:133,1,99,10|0,2:0|3:0,2:0:0:0:
448,312,136188,5,2,3:0:0:0:
328,80,136333,1,14,2:0:0:0:
264,376,136477,1,0,3:0:0:0:
512,192,136621,1,0,3:0:0:0:
229,36,136765,5,8,2:0:0:0:
360,336,136909,1,0,3:0:0:0:
0,231,137054,2,0,B|40:217|52:174|52:174|75:203|121:206,1,162,10|0,2:0|2:0,2:0:0:0:
172,269,137342,6,0,B|161:215|140:175|140:175|143:135|180:107,1,180,4|8,3:2|2:0,2:0:0:0:
373,32,137775,1,2,2:0:0:0:
270,226,137919,5,0,3:0:0:0:
449,275,138063,1,0,3:0:0:0:
288,96,138208,1,8,2:0:0:0:
160,352,138352,6,0,P|73:358|16:293,1,180,2|0,3:2|3:0,2:0:0:0:
240,168,138784,1,8,2:0:0:0:
56,80,138929,1,2,2:0:0:0:
54,93,139001,1,2,2:0:0:0:
52,106,139073,1,0,3:0:0:0:
104,272,139217,1,0,3:0:0:0:
176,64,139361,2,0,P|220:55|263:43,1,90,8|2,2:0|2:0,2:0:0:0:
512,192,139650,6,0,B|475:231|475:231|350:208,1,180,0|8,3:0|2:0,2:0:0:0:
144,168,140083,1,2,2:0:0:0:
344,336,140227,1,0,3:0:0:0:
112,384,140371,1,0,3:0:0:0:
248,160,140515,2,0,P|242:115|233:71,1,90,8|0,2:0|2:0,2:0:0:0:
8,272,140804,6,0,P|93:255|162:308,1,180,2|8,3:2|2:0,2:0:0:0:
232,71,141236,2,0,P|192:89|148:101,1,90,2|0,2:0|3:0,2:0:0:0:
315,256,141525,1,0,3:0:0:0:
363,31,141669,1,8,2:0:0:0:
481,173,141813,1,2,2:0:0:0:
192,216,141958,6,0,B|128:206|128:206|82:226|82:226|17:216,1,180,4|10,3:2|2:0,2:0:0:0:
154,384,142390,2,0,P|148:339|138:295,1,90,2|0,2:0|3:0,2:0:0:0:
280,168,142679,1,2,3:2:0:0:
152,24,142823,2,0,P|141:67|136:112,1,90,8|0,2:0|2:0,2:0:0:0:
300,289,143111,6,0,B|364:292|412:314|412:314|432:288|459:270,1,180,2|10,3:2|2:0,2:0:0:0:
304,128,143544,1,2,2:0:0:0:
440,16,143688,5,0,3:0:0:0:
384,200,143833,1,2,3:2:0:0:
208,56,143977,2,0,P|168:64|121:77,1,90,8|0,2:0|2:0,2:0:0:0:
8,272,144265,6,0,B|64:280|117:298|117:298|152:288|177:267,1,180,4|10,3:2|2:0,2:0:0:0:
351,87,144698,2,0,P|363:131|371:175,1,90,2|0,2:0|3:0,2:0:0:0:
488,88,144986,1,2,3:2:0:0:
399,271,145131,2,0,P|355:268|312:254,1,90,8|0,2:0|2:0,2:0:0:0:
135,44,145419,6,0,B|84:38|40:23|40:23|-4:46|4:90,1,180,2|10,3:2|2:0,2:0:0:0:
178,217,145852,1,2,2:0:0:0:
21,349,145996,1,0,3:0:0:0:
88,152,146140,1,2,3:2:0:0:
246,326,146284,2,0,P|299:311|343:301,1,90,8|0,2:0|2:0,2:0:0:0:
498,102,146573,5,12,2:0:0:0:
474,64,146645,1,0,3:0:0:0:
436,40,146717,1,2,3:2:0:0:
391,36,146789,1,2,3:2:0:0:
350,53,146861,1,8,2:0:0:0:
246,326,147006,1,0,3:0:0:0:
112,64,147150,5,10,2:0:0:0:
368,152,147294,1,2,3:2:0:0:
381,148,147366,1,2,3:2:0:0:
394,145,147438,1,8,2:0:0:0:
168,376,147583,1,0,3:0:0:0:
500,256,147727,5,12,2:0:0:0:
204,32,147871,1,2,3:2:0:0:
206,18,147943,1,2,3:2:0:0:
209,4,148015,1,8,2:0:0:0:
246,326,148159,1,0,3:0:0:0:
0,172,148304,5,8,2:0:0:0:
24,134,148376,1,0,3:0:0:0:
63,112,148448,1,2,3:2:0:0:
107,110,148520,1,2,3:2:0:0:
148,129,148592,1,8,2:0:0:0:
352,369,148736,6,0,L|395:358,1,45,0|0,3:0|2:0,2:0:0:0:
448,216,148881,5,12,2:0:0:0:
404,205,148953,1,0,3:0:0:0:
360,195,149025,1,2,3:2:0:0:
316,185,149097,1,2,3:2:0:0:
272,175,149169,1,8,2:0:0:0:
104,360,149313,1,0,3:0:0:0:
24,134,149458,6,0,P|45:139|67:143,1,45,8|0,2:0|2:0,2:0:0:0:
232,252,149602,2,0,P|210:257|188:261,1,45,2|2,3:2|2:0,2:0:0:0:
172,96,149746,2,0,P|182:53|190:8,1,90,8|0,2:0|3:0,2:0:0:0:
190,8,149962,1,0,2:0:0:0:
190,8,150034,5,12,2:0:0:0:
272,372,150179,1,2,3:2:0:0:
24,134,150323,1,8,2:0:0:0:
424,48,150467,1,0,3:0:0:0:
104,340,150611,5,8,2:0:0:0:
464,384,150756,1,8,2:0:0:0:
340,0,150900,1,8,2:0:0:0:
212,160,151044,6,0,L|229:302,1,144,0|0,3:0|3:0,2:0:0:0:
312,348,151405,5,0,3:0:0:0:
326,323,151477,2,0,B|203:299|247:391|124:365,1,216,12|2,2:1|2:0,2:0:0:0:
0,212,151909,1,0,3:0:0:0:
232,272,152054,1,8,2:0:0:0:
156,60,152198,1,2,2:0:0:0:
100,284,152342,6,0,P|112:327|118:371,1,90,4|0,3:2|3:0,2:0:0:0:
0,212,152631,1,8,2:0:0:0:
232,272,152775,2,0,B|292:257|292:257|337:280|337:280|403:266,1,180,0|0,1:0|3:0,2:0:0:0:
252,32,153208,2,0,B|228:72|228:72|239:113,1,90,8|2,2:0|2:0,2:0:0:0:
304,380,153496,5,12,2:0:0:0:
364,156,153640,1,0,2:0:0:0:
496,272,153784,6,0,B|446:263|446:263|417:277|417:277|365:267,1,135,0|0,3:0|2:0,2:0:0:0:
306,340,154073,2,0,P|317:265|248:235,1,162,8|0,2:3|2:0,2:0:0:0:
248,235,154361,1,4,3:1:0:0:
256,192,154434,12,2,155804,2:0:0:0:
256,192,155876,12,0,156669,2:0:0:0:
287,139,156958,5,4,3:2:0:0:
397,292,157102,1,8,2:0:0:0:
437,81,157246,1,8,2:0:0:0:
192,144,157390,1,8,2:0:0:0:
492,220,157534,5,8,2:0:0:0:
194,302,157679,1,8,2:0:0:0:
288,6,157823,1,8,2:0:0:0:
355,374,157967,5,8,2:0:0:0:
343,367,158039,1,8,2:0:0:0:
330,359,158111,2,0,P|257:369|184:381,1,148.5,4|0,3:1|2:0,2:0:0:0:
160,368,158400,1,8,2:0:0:0:
312,184,158544,1,0,1:0:0:0:
96,144,158688,5,2,3:2:0:0:
281,277,158833,2,0,P|331:266|385:255,1,99,0|8,3:0|2:0,2:0:0:0:
488,88,159121,6,0,P|418:22|323:35,1,198,2|0,2:0|3:0,2:0:0:0:
176,256,159554,1,10,2:0:0:0:
0,111,159698,2,0,P|49:116|97:126,1,99,0|0,1:0|3:2,2:0:0:0:
288,208,159986,1,2,3:2:0:0:
35,264,160131,1,8,2:0:0:0:
192,64,160275,1,2,2:0:0:0:
244,340,160419,1,0,3:2:0:0:
244,340,160708,6,0,P|292:332|339:316,1,99,8|0,2:0|1:0,2:0:0:0:
362,304,160924,1,0,1:0:0:0:
362,304,160996,1,2,3:2:0:0:
163,185,161140,1,0,3:0:0:0:
376,104,161284,1,8,2:0:0:0:
120,272,161429,6,0,B|62:230|62:230|82:105,1,198,2|0,2:0|3:0,2:0:0:0:
272,208,161861,1,10,2:0:0:0:
208,16,162006,1,0,1:0:0:0:
193,20,162078,1,0,1:0:0:0:
179,25,162150,1,0,3:2:0:0:
364,195,162294,2,0,B|388:151|388:151|375:103,1,99,2|8,3:2|2:0,2:0:0:0:
96,368,162583,6,0,B|172:355|172:355|215:376|215:376|287:364,1,198,6|0,3:2|3:0,2:0:0:0:
480,328,163015,1,8,2:0:0:0:
280,136,163159,1,0,1:0:0:0:
273,149,163232,1,0,1:0:0:0:
266,162,163304,2,0,L|280:259,1,99,2|0,3:2|3:0,2:0:0:0:
448,104,163592,1,10,2:0:0:0:
400,328,163736,1,2,2:0:0:0:
184,128,163881,6,0,B|81:119|113:199|2:184,1,198,2|8,3:2|2:0,2:0:0:0:
184,304,164313,1,2,3:2:0:0:
288,152,164458,2,0,P|274:104|267:55,1,99,0|0,3:2|3:2,2:0:0:0:
80,280,164746,2,0,P|93:327|100:376,1,99,8|0,2:0|2:0,2:0:0:0:
288,152,165034,6,0,P|360:166|434:174,1,148.5,4|0,3:1|2:0,2:0:0:0:
464,192,165323,2,0,B|491:151|491:151|478:102,1,99,10|0,2:0|2:0,2:0:0:0:
282,285,165611,1,2,2:0:0:0:
226,59,165756,1,0,3:0:0:0:
408,280,165900,2,0,P|398:328|391:377,1,99,10|0,2:0|3:0,2:0:0:0:
152,240,166188,5,10,2:0:0:0:
392,104,166333,1,0,3:0:0:0:
120,16,166477,1,0,3:0:0:0:
344,192,166621,5,10,2:0:0:0:
64,312,166765,1,0,3:0:0:0:
390,377,166909,1,0,3:0:0:0:
145,129,167054,6,0,L|96:136,1,49.5,10|0,2:0|1:0,2:0:0:0:
240,264,167198,2,0,L|288:256,1,49.5,0|0,1:0|1:0,2:0:0:0:
112,368,167342,5,14,2:0:0:0:
248,112,167486,1,0,1:0:0:0:
245,97,167559,1,0,1:0:0:0:
242,82,167631,1,10,2:0:0:0:
288,376,167775,1,0,3:0:0:0:
120,232,167919,5,10,2:0:0:0:
424,296,168063,2,0,L|472:287,2,49.5,8|8|8,2:3|2:3|2:3,2:0:0:0:
184,64,168352,6,0,B|296:48|252:128|368:104,1,198,14|0,2:0|3:0,2:0:0:0:
496,32,168784,1,8,2:0:0:0:
304,200,168929,2,0,P|308:224|312:248,2,49.5,2|2|0,2:0|2:0|3:0,2:0:0:0:
466,355,169217,2,0,B|476:304|476:304|449:265,1,99,8|0,2:3|3:0,2:0:0:0:
280,341,169506,6,0,L|369:328,1,90,2|0,3:0|3:2,2:0:0:0:
370,328,169866,1,0,3:2:0:0:
370,328,169938,2,0,B|273:310|306:383|206:367,1,175.5,12|0,2:1|2:0,2:0:0:0:
168,358,170227,5,2,3:2:0:0:
216,138,170371,1,0,3:0:0:0:
16,256,170515,2,0,P|64:247|112:234,1,99,10|0,2:0|2:0,2:0:0:0:
328,72,170804,6,0,P|233:87|162:23,1,198,2|8,3:2|2:0,2:0:0:0:
248,208,171236,1,0,1:0:0:0:
246,222,171309,1,0,1:0:0:0:
244,236,171381,1,8,2:3:0:0:
227,384,171525,1,8,2:3:0:0:
112,234,171669,1,4,2:3:0:0:
345,328,171813,6,0,B|400:330|450:348|450:348|492:318|474:268,1,198,4|0,3:1|3:2,2:0:0:0:
304,184,172246,1,8,2:0:0:0:
408,23,172390,2,0,P|420:71|428:120,1,99,6|0,3:2|2:0,2:0:0:0:
227,384,172679,5,0,3:2:0:0:
184,144,172823,1,8,2:0:0:0:
392,216,172967,2,0,B|315:230|315:230|291:262|291:262|212:275,1,198,4|2,3:2|3:2,2:0:0:0:
365,311,173400,5,8,2:0:0:0:
240,176,173544,2,0,P|246:126|252:77,1,99,4|0,3:2|2:0,2:0:0:0:
424,208,173833,5,0,3:2:0:0:
184,368,173977,1,8,2:0:0:0:
352,136,174121,5,0,3:0:0:0:
349,123,174193,1,0,3:0:0:0:
346,109,174265,1,12,2:0:0:0:
104,240,174409,1,0,3:0:0:0:
352,336,174554,1,0,3:0:0:0:
152,112,174698,5,10,2:0:0:0:
416,32,174842,1,0,3:0:0:0:
280,272,174986,1,0,3:0:0:0:
206,42,175131,2,0,B|152:53|152:53|135:72|135:72|68:87,1,148.5,10|0,2:0|2:0,2:0:0:0:
56,80,175419,5,2,3:0:0:0:
352,192,175563,1,14,2:0:0:0:
64,328,175708,1,0,3:0:0:0:
272,376,175852,1,0,3:0:0:0:
111,168,175996,6,0,P|65:184|17:196,1,99,8|0,2:0|3:0,2:0:0:0:
240,24,176284,2,0,P|311:42|385:54,1,148.5,10|0,2:0|2:0,2:0:0:0:
424,40,176573,6,0,P|435:83|441:128,1,90,4|0,3:1|3:2,2:0:0:0:
312,336,176861,1,8,2:0:0:0:
344,136,177006,1,2,1:2:0:0:
488,360,177150,5,0,3:0:0:0:
240,232,177294,2,0,P|197:246|153:256,1,90,2|8,3:2|2:0,2:0:0:0:
15,56,177583,6,0,P|102:45|163:107,1,180,2|0,2:0|3:0,2:0:0:0:
223,335,178015,1,8,2:0:0:0:
67,154,178159,1,2,2:0:0:0:
70,140,178232,1,2,2:0:0:0:
74,127,178304,1,2,3:2:0:0:
320,248,178448,1,0,3:0:0:0:
112,360,178592,6,0,P|67:351|23:345,1,90,8|0,2:0|2:0,2:0:0:0:
223,183,178881,6,0,B|277:190|323:202|323:202|360:177|350:135,1,180,4|8,3:1|2:0,2:0:0:0:
160,264,179313,1,2,2:0:0:0:
110,36,179458,5,2,3:2:0:0:
351,135,179602,1,2,3:2:0:0:
99,28,179746,2,0,P|56:41|12:50,1,90,8|0,2:0|1:0,2:0:0:0:
157,281,180034,5,2,3:2:0:0:
240,16,180179,1,0,3:2:0:0:
376,272,180323,1,8,2:0:0:0:
68,175,180467,6,0,B|104:132|157:141|157:141|175:176|218:187,1,180,2|0,3:2|3:0,2:0:0:0:
367,287,180900,2,0,P|323:295|280:306,1,90,10|0,2:0|2:0,2:0:0:0:
328,32,181188,6,0,P|413:17|478:75,1,180,4|8,3:1|2:0,2:0:0:0:
304,216,181621,1,2,3:2:0:0:
448,343,181765,2,0,P|460:300|466:256,1,90,0|0,3:0|3:2,2:0:0:0:
296,112,182054,2,0,P|308:155|314:199,1,90,8|0,2:0|2:0,2:0:0:0:
152,352,182342,5,12,2:0:0:0:
424,168,182486,1,0,3:2:0:0:
160,88,182631,1,0,3:2:0:0:
312,360,182775,1,8,2:0:0:0:
312,360,183063,5,8,2:0:0:0:
141,215,183208,2,0,P|96:223|52:231,1,90,4|0,2:3|1:0,2:0:0:0:
52,231,183424,1,0,1:0:0:0:
52,231,183496,6,0,L|60:159,1,72,4|2,3:2|2:0,2:0:0:0:
189,294,183784,2,0,L|180:365,1,72,0|2,3:0|2:0,2:0:0:0:
343,175,184073,5,0,3:0:0:0:
400,264,184217,2,0,P|364:271|329:279,1,72,2|0,2:0|3:0,2:0:0:0:
296,96,184506,6,0,P|356:132|426:124,1,144,2|2,2:0|2:0,2:0:0:0:
312,0,184938,2,0,P|276:7|241:15,1,72,0|2,3:0|2:0,2:0:0:0:
215,135,185227,5,0,3:0:0:0:
56,40,185371,2,0,B|97:43|121:14|121:14|132:52|166:64,1,144,4|0,3:2|2:0,2:0:0:0:
276,313,185804,5,4,3:2:0:0:
139,384,185948,1,0,3:0:0:0:
166,202,186092,2,0,P|177:250|185:298,1,99,10|0,2:0|3:0,2:0:0:0:
185,298,186309,1,0,3:0:0:0:
185,298,186381,1,0,3:0:0:0:
224,120,186525,1,0,3:0:0:0:
40,248,186669,1,10,2:0:0:0:
1,70,186813,1,2,2:0:0:0:
265,206,186958,6,0,P|313:196|360:182,1,99,0|0,3:0|3:0,2:0:0:0:
504,251,187246,1,10,2:0:0:0:
401,87,187390,1,0,3:0:0:0:
404,72,187462,1,0,3:0:0:0:
407,57,187534,1,0,3:0:0:0:
373,262,187679,1,0,3:0:0:0:
168,146,187823,1,10,2:0:0:0:
221,373,187967,1,2,2:0:0:0:
14,240,188111,5,0,3:2:0:0:
265,141,188256,1,0,3:0:0:0:
54,20,188400,1,10,2:0:0:0:
144,264,188544,1,0,3:0:0:0:
140,278,188616,1,0,3:0:0:0:
137,292,188688,1,0,3:0:0:0:
352,216,188833,1,0,3:0:0:0:
80,112,188977,1,10,2:0:0:0:
344,40,189121,1,2,2:0:0:0:
280,344,189265,5,0,3:0:0:0:
200,56,189409,1,0,3:0:0:0:
480,168,189554,1,10,2:0:0:0:
137,292,189698,1,0,3:0:0:0:
122,288,189770,1,0,3:0:0:0:
107,284,189842,1,0,3:0:0:0:
432,364,189986,1,0,3:0:0:0:
344,40,190131,1,10,2:0:0:0:
264,384,190275,1,2,2:0:0:0:
16,112,190419,1,8,3:0:0:0:
16,111,190708,6,0,P|95:95|86:175,1,189,12|0,2:0|2:0,2:0:0:0:
16,248,190996,2,0,P|90:193|182:202,1,189,4|0,3:2|2:0,2:0:0:0:
240,281,191284,2,0,B|252:216|252:216|222:166|222:166|240:104,1,189,4|0,3:2|2:0,2:0:0:0:
321,316,191573,6,0,B|278:332|267:383|267:383|231:344|177:354,1,189,4|0,3:2|2:0,2:0:0:0:
240,281,191861,2,0,B|305:271|305:271|338:236|338:236|412:224,1,189,4|0,3:2|2:0,2:0:0:0:
496,248,192150,2,0,B|440:277|440:277|464:153,1,189,4|0,3:2|2:0,2:0:0:0:
352,48,192438,2,0,B|408:19|408:19|383:142,1,189,4|0,3:2|2:0,2:0:0:0:
412,223,192727,5,4,3:2:0:0:
330,206,192871,1,2,2:0:0:0:
259,251,193015,1,2,2:0:0:0:
241,332,193159,5,2,2:0:0:0:
412,223,193448,1,2,2:0:0:0:
233,130,193736,1,2,2:0:0:0:
403,21,194025,5,2,2:0:0:0:
350,125,194169,1,2,2:0:0:0:
496,340,194458,5,2,2:0:0:0:
496,340,194530,1,2,2:0:0:0:
496,340,194602,2,0,B|414:353|414:353|344:311|344:311|240:331,1,270,6|0,3:1|2:0,2:0:0:0:
