osu file format v14

[General]
AudioFilename: audio.mp3
AudioLeadIn: 0
PreviewTime: 49648
Countdown: 0
SampleSet: Soft
StackLeniency: 0.5
Mode: 0
LetterboxInBreaks: 0
WidescreenStoryboard: 1

[Editor]
Bookmarks: 5804,17342,26573,35804,49650,58881,68111,77198,86573,95804,105034,107919,118881,125515,128111,137342,158111,167342,176573,183496,194458,194530,194602,194890
DistanceSpacing: 0.3
BeatDivisor: 4
GridSize: 32
TimelineZoom: 1.5

[Metadata]
Title:Art as <3
TitleUnicode:Art as ♡
Artist:KOTOKO
ArtistUnicode:KOTOKO
Creator:Shikibe Mayu
Version:Normal
Source:イノセントガール
Tags:Shizuku- Kazato Asa Yogurtt Amateurre Kowari Innocent Girl Front Wing eroge vn visual novel rock video game japanese heart
BeatmapID:3001350
BeatmapSetID:1399810

[Difficulty]
HPDrainRate:4
CircleSize:3.5
OverallDifficulty:4
ApproachRate:5.5
SliderMultiplier:1.04
SliderTickRate:1

[Events]
//Background and Video events
0,0,"f10a8bc1c.jpg",0,0
//Break Periods
2,75235,76073
2,86773,93525
//Storyboard Layer 0 (Background)
//Storyboard Layer 1 (Fail)
//Storyboard Layer 2 (Pass)
//Storyboard Layer 3 (Foreground)
//Storyboard Layer 4 (Overlay)
//Storyboard Sound Samples

[TimingPoints]
35,288.461538461538,4,2,1,50,1,0
5804,-100,4,2,1,70,0,0
17342,-111.111111111111,4,2,1,60,0,0
26573,-100,4,2,1,70,0,0
35804,-100,4,2,1,60,0,0
42583,-100,4,2,1,70,0,0
46910,-100,4,2,1,50,0,0
48640,-100,4,2,1,70,0,0
49650,-100,4,2,1,80,0,1
49938,-90.9090909090909,4,2,1,80,0,1
68111,-90.9090909090909,4,2,1,70,0,0
68256,-100,4,2,1,70,0,0
86573,-100,4,2,1,50,0,0
94650,-100,4,2,1,60,0,0
95804,-111.111111111111,4,2,1,60,0,0
99121,-100,4,2,1,70,0,0
105034,-100,4,2,1,60,0,0
111813,-100,4,2,1,70,0,0
115996,-100,4,2,1,50,0,0
117727,-100,4,2,1,70,0,0
118881,-100,4,2,1,80,0,1
119169,-90.9090909090909,4,2,1,80,0,1
137342,-100,4,2,1,70,0,0
158111,-90.9090909090909,4,2,1,80,0,1
176573,-90.9090909090909,4,2,1,80,0,0
176717,-100,4,2,1,80,0,0
183496,-100,4,2,1,60,0,0
185804,-90.9090909090909,4,2,1,80,0,1
192727,-100,4,2,1,60,0,0

[Colours]
Combo1 : 148,86,92
Combo2 : 217,149,168
Combo3 : 202,155,199
Combo4 : 197,114,129

[HitObjects]
230,341,1044,6,0,P|178:347|128:361,1,104,4|0,3:2|3:0,2:0:0:0:
80,381,1477,1,8,2:0:0:0:
22,294,1765,2,0,P|27:268|30:242,1,52,8|0,2:0|3:0,2:0:0:0:
114,180,2198,2,0,P|165:186|215:200,1,104,4|0,3:2|3:0,2:0:0:0:
264,221,2631,1,8,2:0:0:0:
322,134,2919,2,0,P|316:108|313:82,1,52,8|8,2:0|2:3,2:0:0:0:
308,30,3208,1,4,2:3:0:0:
308,30,3352,1,4,3:1:0:0:
256,192,3496,12,4,4650,3:2:0:0:
439,68,5804,6,0,P|397:41|345:41,1,104,4|8,3:1|2:0,2:0:0:0:
253,89,6381,2,0,P|228:81|202:75,1,52,2|2,3:2|3:2,2:0:0:0:
161,42,6669,1,8,2:0:0:0:
161,42,6813,2,0,P|86:40|32:93,1,156,6|8,3:2|2:0,2:0:0:0:
20,197,7534,2,0,L|29:248,1,52,2|2,3:2|3:2,2:0:0:0:
6,294,7823,1,8,2:0:0:0:
6,294,7967,6,0,L|107:318,1,104,6|0,3:2|3:0,2:0:0:0:
156,334,8400,1,10,2:0:0:0:
248,286,8688,2,0,B|259:236|259:236|236:188,1,104,2|10,3:2|2:0,2:0:0:0:
209,144,9121,2,0,L|311:124,1,104,4|0,3:2|3:0,2:0:0:0:
362,116,9554,1,8,2:0:0:0:
464,98,9842,2,0,L|474:47,2,52,2|2|8,3:2|3:2|2:0,2:0:0:0:
488,199,10419,6,0,L|478:250,1,52,4|0,3:2|3:0,2:0:0:0:
492,300,10708,1,8,2:0:0:0:
492,300,10852,2,0,P|442:307|402:340,1,104,2|2,3:2|3:2,2:0:0:0:
303,373,11429,2,0,P|252:366|212:333,1,104,6|2,3:2|3:2,2:0:0:0:
189,286,11861,1,10,2:0:0:0:
189,286,12006,2,0,L|208:183,1,104,6|2,3:2|3:2,2:0:0:0:
216,132,12438,1,10,2:0:0:0:
266,41,12727,6,0,B|323:49|323:49|363:26,1,104,6|10,3:2|2:0,2:0:0:0:
409,7,13159,2,0,P|432:52|429:104,1,104,2|2,3:2|3:2,2:0:0:0:
359,182,13736,2,0,L|205:152,1,156,4|8,3:2|2:0,2:0:0:0:
129,79,14458,2,0,P|78:86|36:115,1,104,0|10,3:0|2:0,2:0:0:0:
10,216,15034,6,0,P|60:224|99:258,1,104,4|10,3:2|2:0,2:0:0:0:
124,303,15467,1,0,3:0:0:0:
222,268,15756,2,0,L|233:217,1,52,0|10,3:0|2:0,2:0:0:0:
206,173,16044,2,0,L|229:71,1,104,12|0,2:0|3:0,2:0:0:0:
239,20,16477,1,8,2:0:0:0:
342,7,16765,2,0,P|392:15|431:49,1,104,10|10,2:0|2:0,2:0:0:0:
500,127,17342,6,0,L|482:218,1,93.6000000000001,4|0,3:2|3:2,2:0:0:0:
491,280,17775,2,0,B|428:268|428:268|368:315,1,140.4,2|2,2:0|3:2,2:0:0:0:
263,371,18496,2,0,P|218:357|172:350,2,93.6000000000001,2|0|0,3:2|3:2|3:2,2:0:0:0:
334,175,19650,6,0,P|341:128|327:84,1,93.6000000000001,2|0,3:2|3:2,2:0:0:0:
300,46,20083,2,0,P|237:76|168:73,1,140.4,2|2,2:0|3:2,2:0:0:0:
77,96,20804,2,0,P|61:52|66:5,2,93.6000000000001,2|0|2,3:2|3:2|3:2,2:0:0:0:
19,274,21958,6,0,L|111:293,1,93.6000000000001,2|0,3:2|3:2,2:0:0:0:
155,302,22390,2,0,P|188:241|178:172,1,140.4,2|2,2:0|3:2,2:0:0:0:
208,83,23111,2,0,L|301:67,1,93.6000000000001,2|0,3:2|3:2,2:0:0:0:
391,45,23688,1,0,3:2:0:0:
498,196,24265,6,0,P|511:241|499:286,1,93.6000000000001,2|0,3:2|3:2,2:0:0:0:
486,331,24698,2,0,B|409:315|429:354|348:340,1,140.4,2|2,2:0|3:2,2:0:0:0:
298,260,25419,2,0,B|330:228|330:228|352:161|317:90,1,187.2,2|8,3:2|2:0,2:0:0:0:
121,17,26573,6,0,P|69:18|26:45,1,104,4|10,3:2|2:0,2:0:0:0:
8,95,27006,2,0,P|22:144|30:196,1,104,2|0,2:0|2:0,2:0:0:0:
11,244,27438,1,10,2:0:0:0:
58,335,27727,2,0,P|102:310|153:310,1,104,2|10,3:2|2:0,2:0:0:0:
195,342,28159,2,0,L|211:239,1,104,2|2,2:0|3:2,2:0:0:0:
192,191,28592,1,10,2:0:0:0:
216,89,28881,6,0,L|319:74,1,104,2|10,3:2|2:0,2:0:0:0:
367,56,29313,2,0,B|393:102|393:102|382:152,1,104,2|2,2:0|3:2,2:0:0:0:
354,252,29890,2,0,P|429:245|487:295,1,156,6|8,3:1|2:0,2:0:0:0:
425,380,30611,2,0,L|323:358,1,104,0|8,3:0|2:0,2:0:0:0:
269,346,31044,1,2,2:0:0:0:
269,346,31188,5,4,3:2:0:0:
169,378,31477,1,10,2:0:0:0:
169,378,31621,2,0,P|128:312|137:236,1,156,2|10,2:0|2:0,2:0:0:0:
228,188,32342,2,0,L|329:209,1,104,6|10,3:2|2:0,2:0:0:0:
380,221,32775,2,0,P|427:161|423:85,1,156,2|10,2:0|2:0,2:0:0:0:
343,18,33496,5,6,3:2:0:0:
245,54,33784,1,10,2:0:0:0:
245,54,33929,2,0,L|142:70,1,104,2|2,2:0|3:2,2:0:0:0:
94,48,34361,1,10,2:0:0:0:
94,48,34506,2,0,P|45:106|48:182,1,156,6|8,3:1|2:0,2:0:0:0:
30,285,35227,2,0,L|131:264,1,104,0|10,3:0|2:0,2:0:0:0:
209,333,35804,6,0,L|198:383,2,52,10|10|10,2:0|2:0|2:0,2:0:0:0:
165,182,36525,1,2,3:2:0:0:
185,79,36813,2,0,P|247:36|323:45,1,156,6|10,3:1|2:0,2:0:0:0:
422,11,37534,1,2,3:2:0:0:
497,82,37823,1,10,2:0:0:0:
497,82,37967,6,0,L|466:235,1,156,4|10,3:2|2:0,2:0:0:0:
508,330,38688,2,0,L|405:346,1,104,2|8,3:2|2:0,2:0:0:0:
353,352,39121,1,2,2:0:0:0:
353,352,39265,1,4,3:1:0:0:
279,278,39554,1,8,2:0:0:0:
279,278,39698,2,0,B|251:229|251:229|270:131,1,156,0|10,3:0|2:0,2:0:0:0:
291,29,40419,6,0,L|342:19,2,52,10|10|10,2:0|2:0|2:0,2:0:0:0:
136,7,41140,1,2,3:2:0:0:
40,47,41429,2,0,P|7:117|23:192,1,156,6|10,3:1|2:0,2:0:0:0:
102,260,42150,2,0,L|202:232,1,104,2|10,3:2|2:0,2:0:0:0:
253,224,42583,6,0,P|236:149|272:81,1,156,4|8,3:2|2:0,2:0:0:0:
372,51,43304,2,0,L|363:0,2,52,2|0|8,3:2|3:0|2:0,2:0:0:0:
469,88,43881,2,0,L|451:190,1,104,4|8,3:2|2:0,2:0:0:0:
441,241,44313,1,0,1:0:0:0:
487,334,44602,2,0,B|444:361|444:361|391:352,1,104,0|2,3:0|2:0,2:0:0:0:
345,377,45034,6,0,L|328:274,1,104,12|0,2:0|3:0,2:0:0:0:
366,177,45611,1,8,2:3:0:0:
305,92,45900,1,4,3:1:0:0:
256,192,46044,12,2,47342,2:3:0:0:
207,289,48352,6,0,B|253:310|253:310|305:298,1,104,0|8,2:0|2:0,2:0:0:0:
346,266,48784,1,0,3:0:0:0:
448,284,49073,2,0,P|468:331|465:382,2,104,8|10|6,2:0|2:0|3:1,2:0:0:0:
485,168,49938,2,0,L|473:112,1,57.2,8|0,2:0|1:0,2:0:0:0:
491,63,50227,1,2,3:2:0:0:
491,63,50371,1,0,3:0:0:0:
401,11,50659,2,0,P|354:41|298:37,1,114.4,2|0,2:0|2:0,2:0:0:0:
250,18,51092,1,10,2:0:0:0:
250,18,51236,2,0,L|230:131,1,114.4,0|2,1:0|3:2,2:0:0:0:
305,200,51813,6,0,B|335:248|335:248|324:304,1,114.4,2|0,2:0|2:0,2:0:0:0:
317,356,52246,1,8,2:0:0:0:
215,339,52534,1,2,3:2:0:0:
215,339,52679,2,0,L|159:353,1,57.2,0|8,3:0|2:0,2:0:0:0:
111,373,52967,2,0,P|39:332|25:250,1,171.6,2|10,2:0|2:0,2:0:0:0:
44,202,53544,1,0,1:0:0:0:
143,175,53833,1,2,3:2:0:0:
218,244,54121,6,0,B|269:234|269:234|322:262|322:262|380:249,1,171.6,6|8,3:2|2:0,2:0:0:0:
467,304,54842,2,0,L|455:359,2,57.2,2|0|10,3:2|3:0|2:0,2:0:0:0:
508,209,55419,2,0,P|516:153|492:102,1,114.4,2|8,3:2|2:0,2:0:0:0:
461,59,55852,2,0,P|407:77|352:63,1,114.4,2|0,3:2|3:2,2:0:0:0:
310,33,56284,2,0,L|197:55,1,114.4,8|4,2:0|3:1,2:0:0:0:
100,20,56861,6,0,B|72:71|72:71|90:124,1,114.4,10|2,2:0|3:2,2:0:0:0:
107,172,57294,1,0,3:0:0:0:
107,172,57438,1,10,2:0:0:0:
204,137,57727,6,0,L|317:153,1,114.4,10|0,2:0|3:0,2:0:0:0:
368,160,58159,2,0,P|395:209|389:265,1,114.4,10|0,2:0|3:0,2:0:0:0:
365,310,58592,2,0,L|251:293,1,114.4,10|6,2:0|3:1,2:0:0:0:
165,349,59169,6,0,L|108:340,1,57.2,8|0,2:0|1:0,2:0:0:0:
60,359,59458,1,2,3:2:0:0:
60,359,59602,1,0,3:0:0:0:
17,265,59890,2,0,B|1:204|1:204|17:155,1,114.4,2|0,2:0|2:0,2:0:0:0:
36,107,60323,1,10,2:0:0:0:
36,107,60467,2,0,P|83:137|139:135,1,114.4,0|2,1:0|3:2,2:0:0:0:
218,69,61044,6,0,P|243:119|237:174,1,114.4,2|0,2:0|3:0,2:0:0:0:
203,213,61477,1,12,2:0:0:0:
228,311,61765,2,0,L|345:332,1,114.4,2|10,3:2|2:0,2:0:0:0:
437,366,62342,6,0,B|459:320|459:320|445:257,1,114.4,2|8,3:2|2:0,2:0:0:0:
494,166,62919,2,0,L|507:106,1,57.2,2|0,3:2|3:2,2:0:0:0:
484,63,63208,1,8,2:0:0:0:
484,63,63352,2,0,B|429:76|429:76|382:42,1,114.4,4|0,3:1|3:2,2:0:0:0:
344,5,63784,1,8,2:0:0:0:
344,5,63929,1,6,3:2:0:0:
251,49,64217,2,0,L|241:105,1,57.2,0|8,3:2|2:0,2:0:0:0:
273,146,64506,6,0,L|254:258,1,114.4,4|2,3:2|3:2,2:0:0:0:
281,303,64938,1,8,2:0:0:0:
281,303,65083,2,0,B|192:296|223:363|123:352,1,171.6,4|8,3:2|2:0,2:0:0:0:
29,307,65804,6,0,P|9:255|19:199,1,114.4,10|0,2:0|3:0,2:0:0:0:
46,155,66236,2,0,P|96:179|153:175,1,114.4,10|0,2:0|3:0,2:0:0:0:
192,141,66669,1,10,2:0:0:0:
277,198,66958,1,2,3:0:0:0:
277,198,67102,2,0,L|257:310,1,114.4,14|0,2:0|3:0,2:0:0:0:
280,356,67534,2,0,P|336:359|385:331,1,114.4,8|10,2:0|2:0,2:0:0:0:
453,266,68111,5,4,3:1:0:0:
453,266,68256,2,0,L|439:162,1,104,0|2,3:2|1:2,2:0:0:0:
430,117,68688,1,0,3:0:0:0:
488,43,68977,1,8,2:0:0:0:
488,43,69121,2,0,P|421:4|345:12,1,156,2|8,2:0|2:0,2:0:0:0:
260,52,69842,2,0,P|269:103|278:154,1,104,2|8,3:2|2:0,2:0:0:0:
348,216,70419,6,0,P|338:267|329:318,1,104,4|8,3:1|2:0,2:0:0:0:
251,369,70996,1,2,3:2:0:0:
251,369,71140,2,0,P|204:349|153:353,1,104,2|0,3:2|1:0,2:0:0:0:
113,379,71573,1,2,3:2:0:0:
36,325,71861,1,8,2:0:0:0:
36,325,72006,2,0,B|23:263|23:263|32:239|32:239|21:172,1,156,2|10,3:2|2:0,2:0:0:0:
80,100,72727,6,0,B|122:139|175:122,1,104,4|8,3:1|2:0,2:0:0:0:
217,99,73159,2,0,P|260:161|250:237,1,156,2|8,3:2|2:0,2:0:0:0:
206,320,73881,2,0,P|256:332|306:345,1,104,12|0,2:0|3:2,2:0:0:0:
343,374,74313,1,8,2:0:0:0:
435,359,74602,2,0,B|461:329|461:329|446:266,1,104,8|0,2:0|2:0,2:0:0:0:
434,220,75034,1,4,3:1:0:0:
299,21,77198,6,0,P|235:62|159:51,1,156,6|10,3:2|2:0,2:0:0:0:
64,6,77919,1,2,3:2:0:0:
12,96,78208,1,10,2:0:0:0:
12,96,78352,2,0,B|29:198,1,104,4|0,3:2|3:0,2:0:0:0:
4,299,78929,2,0,P|67:341|142:329,1,156,2|8,3:2|2:0,2:0:0:0:
205,246,79650,6,0,B|222:143,1,104,4|8,3:2|2:0,2:0:0:0:
206,94,80083,2,0,P|249:66|300:71,1,104,2|2,3:2|3:2,2:0:0:0:
345,96,80515,1,10,2:0:0:0:
345,96,80659,1,6,3:2:0:0:
425,29,80948,2,0,L|475:42,1,52,2|10,3:2|2:0,2:0:0:0:
505,85,81236,2,0,B|522:128|522:128|495:234,1,156,6|10,3:2|2:0,2:0:0:0:
485,285,81813,1,2,3:2:0:0:
485,285,81958,1,6,3:2:0:0:
421,367,82246,6,0,P|369:367|322:345,1,104,2|8,2:0|2:0,2:0:0:0:
287,307,82679,2,0,L|183:330,1,104,2|4,3:2|3:2,2:0:0:0:
87,365,83256,1,10,2:0:0:0:
87,365,83400,2,0,P|48:330|37:281,1,104,2|8,2:0|2:0,2:0:0:0:
53,230,83833,2,0,L|205:196,1,156,2|4,2:0|3:2,2:0:0:0:
256,192,84409,12,2,86573,2:0:0:0:
377,28,94650,6,0,L|427:16,2,52,4|4|4,2:3|2:3|2:3,2:0:0:0:
287,81,95227,2,0,L|185:58,1,104,8|8,2:0|2:0,2:0:0:0:
94,36,95804,6,0,P|40:79|31:147,1,140.4,4|0,3:2|3:2,2:0:0:0:
47,191,96381,2,0,P|95:179|138:170,1,93.6000000000001,8|2,2:0|2:0,2:0:0:0:
226,202,96958,6,0,P|234:155|245:110,1,93.6000000000001,2|2,3:2|2:0,2:0:0:0:
229,66,97390,1,0,3:2:0:0:
229,66,97534,2,0,L|322:50,1,93.6000000000001,8|2,2:0|2:0,2:0:0:0:
404,92,98111,2,0,L|420:185,1,93.6000000000001,4|2,3:2|2:0,2:0:0:0:
459,211,98544,2,0,B|477:243|477:243|462:299,1,93.6000000000001,0|0,3:2|2:0,2:0:0:0:
387,370,99121,6,0,P|324:328|249:340,1,156,6|8,3:1|2:0,2:0:0:0:
151,377,99842,1,0,3:0:0:0:
49,354,100131,2,0,L|38:303,1,52,8|2,2:0|2:0,2:0:0:0:
13,257,100419,6,0,B|43:210|103:218,1,104,4|10,3:2|2:0,2:0:0:0:
148,245,100852,2,0,L|164:142,1,104,2|0,2:0|2:0,2:0:0:0:
170,90,101284,2,0,L|221:79,1,52,10|2,2:0|2:0,2:0:0:0:
271,67,101573,5,6,3:2:0:0:
364,21,101861,1,10,2:0:0:0:
364,21,102006,2,0,P|409:82|400:158,1,156,2|10,2:0|2:0,2:0:0:0:
475,230,102727,5,6,3:2:0:0:
456,332,103015,1,10,2:0:0:0:
456,332,103159,2,0,L|350:312,1,104,2|2,2:0|3:2,2:0:0:0:
302,306,103592,2,0,L|295:250,1,52,10|6,2:0|3:1,2:0:0:0:
331,215,103881,6,0,P|339:165|324:115,1,104,2|8,2:0|2:0,2:0:0:0:
243,50,104458,2,0,P|192:41|142:56,1,104,0|10,3:0|2:0,2:0:0:0:
98,83,104890,1,2,2:0:0:0:
98,83,105034,6,0,L|46:73,2,52,10|10|10,2:0|2:0|2:0,2:0:0:0:
187,210,105756,1,2,3:2:0:0:
290,198,106044,2,0,P|311:151|306:100,1,104,6|0,3:1|3:0,2:0:0:0:
291,50,106477,1,10,2:0:0:0:
387,11,106765,2,0,P|437:16|475:51,1,104,2|10,3:2|2:0,2:0:0:0:
498,98,107198,6,0,L|477:199,1,104,4|0,3:2|3:0,2:0:0:0:
466,251,107631,1,10,2:0:0:0:
392,324,107919,2,0,L|402:374,2,52,2|0|8,3:2|3:0|2:0,2:0:0:0:
380,273,108352,1,2,2:0:0:0:
380,273,108496,1,4,3:1:0:0:
360,170,108784,1,8,2:0:0:0:
360,170,108929,2,0,P|309:172|262:150,1,104,0|0,3:0|3:0,2:0:0:0:
230,108,109361,1,10,2:0:0:0:
139,56,109650,6,0,L|129:4,2,52,10|10|10,2:0|2:0|2:0,2:0:0:0:
48,182,110371,1,2,3:2:0:0:
67,283,110659,2,0,P|118:282|164:306,1,104,6|0,3:1|3:0,2:0:0:0:
201,342,111092,1,10,2:0:0:0:
297,302,111381,2,0,P|313:254|309:202,1,104,2|10,3:2|2:0,2:0:0:0:
262,162,111813,6,0,P|248:88|290:24,1,156,4|8,3:2|2:0,2:0:0:0:
387,61,112534,2,0,L|439:51,2,52,2|0|8,2:0|3:0|2:0,2:0:0:0:
290,24,113111,2,0,L|186:44,1,104,4|8,3:2|2:0,2:0:0:0:
138,26,113544,2,0,P|113:71|114:122,1,104,0|0,1:0|3:0,2:0:0:0:
142,166,113977,1,8,2:0:0:0:
237,206,114265,6,0,L|339:186,1,104,12|0,2:0|3:0,2:0:0:0:
442,170,114842,1,8,2:3:0:0:
503,253,115131,5,4,3:1:0:0:
256,192,115275,12,2,116573,2:3:0:0:
31,177,117727,6,0,B|77:203|77:203|126:191,1,104,4|4,3:2|3:2,2:0:0:0:
138,87,118304,2,0,B|92:61|92:61|42:72,2,104,4|4|6,3:2|3:2|3:1,2:0:0:0:
235,121,119169,6,0,L|290:108,1,57.2,8|0,2:0|1:0,2:0:0:0:
341,98,119458,1,2,3:2:0:0:
341,98,119602,1,0,3:0:0:0:
441,121,119890,2,0,P|464:172|459:228,1,114.4,2|0,2:0|2:0,2:0:0:0:
473,278,120323,1,10,2:0:0:0:
473,278,120467,2,0,P|416:276|366:303,1,114.4,0|2,1:0|3:2,2:0:0:0:
279,358,121044,5,2,2:0:0:0:
181,325,121333,1,0,3:2:0:0:
181,325,121477,2,0,L|124:335,1,57.2,8|0,2:0|1:0,2:0:0:0:
79,343,121765,1,2,3:2:0:0:
79,343,121909,1,0,3:0:0:0:
21,255,122198,2,0,P|15:199|37:147,1,114.4,2|0,2:0|3:0,2:0:0:0:
36,96,122631,1,10,2:0:0:0:
36,96,122775,2,0,P|88:117|145:112,1,114.4,0|2,1:0|3:2,2:0:0:0:
224,46,123352,6,0,P|245:98|240:155,1,114.4,6|0,3:2|3:0,2:0:0:0:
204,192,123784,1,8,2:0:0:0:
231,291,124073,2,0,L|343:314,1,114.4,2|10,3:2|2:0,2:0:0:0:
442,339,124650,2,0,P|468:289|465:232,1,114.4,2|8,3:2|2:0,2:0:0:0:
438,188,125083,2,0,L|325:211,1,114.4,2|0,3:2|3:2,2:0:0:0:
278,190,125515,2,0,P|251:140|254:83,1,114.4,8|4,2:0|3:1,2:0:0:0:
173,18,126092,6,0,P|117:17|68:44,1,114.4,10|2,2:0|3:2,2:0:0:0:
33,83,126525,1,0,3:0:0:0:
33,83,126669,1,10,2:0:0:0:
47,185,126958,2,0,L|161:203,1,114.4,10|0,2:0|3:0,2:0:0:0:
210,207,127390,2,0,P|196:153|210:98,1,114.4,10|0,2:0|3:0,2:0:0:0:
254,70,127823,2,0,L|368:88,1,114.4,10|6,2:0|3:1,2:0:0:0:
454,142,128400,6,0,L|463:199,1,57.2,8|0,2:0|1:0,2:0:0:0:
473,248,128688,1,2,3:2:0:0:
473,248,128833,1,0,3:0:0:0:
450,348,129121,2,0,B|394:358|394:358|343:330,1,114.4,2|0,2:0|3:2,2:0:0:0:
305,295,129554,1,10,2:0:0:0:
305,295,129698,2,0,P|327:243|322:187,1,114.4,0|2,1:0|3:2,2:0:0:0:
369,93,130275,6,0,P|312:94|262:67,1,114.4,2|0,2:0|3:0,2:0:0:0:
227,29,130708,1,12,2:0:0:0:
125,16,130996,2,0,P|68:15|18:42,1,114.4,2|10,3:2|2:0,2:0:0:0:
4,144,131573,2,0,L|23:256,1,114.4,2|8,3:2|2:0,2:0:0:0:
35,306,132006,1,0,1:0:0:0:
35,306,132150,1,2,3:2:0:0:
136,320,132438,5,8,2:0:0:0:
136,320,132583,2,0,B|161:275|161:275|148:213,1,114.4,4|0,3:1|3:2,2:0:0:0:
136,163,133015,1,8,2:0:0:0:
136,163,133159,1,6,3:2:0:0:
174,67,133448,2,0,L|232:55,1,57.2,0|8,3:2|2:0,2:0:0:0:
274,29,133736,2,0,P|323:56|379:52,1,114.4,4|2,3:2|3:2,2:0:0:0:
426,30,134169,1,8,2:0:0:0:
426,30,134313,2,0,L|452:141,1,114.4,4|0,3:2|3:2,2:0:0:0:
471,189,134746,1,8,2:0:0:0:
438,287,135034,6,0,P|382:290|331:265,1,114.4,10|0,2:0|3:0,2:0:0:0:
302,223,135467,2,0,P|305:166|280:115,1,114.4,10|0,2:0|3:0,2:0:0:0:
234,92,135900,1,10,2:0:0:0:
156,24,136188,1,2,3:0:0:0:
156,24,136333,2,0,P|99:22|47:46,1,114.4,14|0,2:0|3:0,2:0:0:0:
12,82,136765,2,0,L|32:194,1,114.4,8|10,2:0|2:0,2:0:0:0:
15,286,137342,6,0,P|66:286|112:308,1,104,4|8,3:2|2:0,2:0:0:0:
195,372,137919,2,0,L|245:358,1,52,0|0,3:0|3:0,2:0:0:0:
296,346,138208,1,8,2:0:0:0:
296,346,138352,2,0,B|315:302|315:302|303:246,1,104,2|0,3:2|3:0,2:0:0:0:
340,210,138784,2,0,L|441:232,2,104,8|0|8,2:0|3:0|2:0,2:0:0:0:
237,188,139650,6,0,P|195:216|143:216,1,104,0|8,3:0|2:0,2:0:0:0:
101,185,140083,2,0,P|98:133|123:88,1,104,2|0,2:0|3:0,2:0:0:0:
170,68,140515,1,8,2:0:0:0:
263,21,140804,6,0,P|307:46|358:47,1,104,2|8,3:2|2:0,2:0:0:0:
408,31,141236,2,0,P|435:74|436:125,1,104,2|0,2:0|3:0,2:0:0:0:
414,172,141669,1,8,2:0:0:0:
496,235,141958,6,0,L|479:337,1,104,4|10,3:2|2:0,2:0:0:0:
452,382,142390,2,0,B|395:333|395:333|316:352,1,156,2|8,2:0|2:0,2:0:0:0:
236,283,143111,2,0,P|221:234|230:183,1,104,2|10,3:2|2:0,2:0:0:0:
267,140,143544,1,2,2:0:0:0:
267,140,143688,2,0,L|368:162,1,104,0|8,3:0|2:0,2:0:0:0:
469,186,144265,6,0,P|492:141|489:90,1,104,4|10,3:2|2:0,2:0:0:0:
463,43,144698,2,0,P|387:54|324:10,1,156,2|8,2:0|2:0,2:0:0:0:
220,5,145419,2,0,L|117:23,1,104,2|10,3:2|2:0,2:0:0:0:
65,29,145852,1,2,2:0:0:0:
65,29,145996,2,0,P|47:77|54:128,1,104,0|8,3:0|2:0,2:0:0:0:
22,227,146573,6,0,L|123:205,1,104,12|8,2:0|2:0,2:0:0:0:
225,229,147150,2,0,L|246:127,1,104,10|8,2:0|2:0,2:0:0:0:
223,80,147583,1,0,3:0:0:0:
223,80,147727,2,0,P|269:58|320:61,1,104,12|8,2:0|2:0,2:0:0:0:
421,37,148304,2,0,P|443:83|440:134,1,104,8|8,2:0|2:0,2:0:0:0:
418,181,148736,1,0,3:0:0:0:
418,181,148881,6,0,L|434:283,1,104,12|8,2:0|2:0,2:0:0:0:
346,340,149458,2,0,L|329:237,1,104,8|8,2:0|2:0,2:0:0:0:
284,210,149890,1,0,3:0:0:0:
284,210,150034,2,0,B|243:237|243:237|189:226,1,104,12|8,2:0|2:0,2:0:0:0:
98,175,150611,2,0,L|47:186,2,52,8|8|8,2:0|2:0|2:0,2:0:0:0:
139,144,151044,2,0,L|153:41,1,104,0|0,3:0|3:0,2:0:0:0:
195,9,151477,6,0,P|245:14|281:51,1,104,12|2,2:1|2:0,2:0:0:0:
300,99,151909,1,0,3:0:0:0:
300,99,152054,1,8,2:0:0:0:
239,183,152342,2,0,L|225:286,1,104,4|8,3:2|2:0,2:0:0:0:
254,328,152775,2,0,P|300:306|351:307,1,104,0|0,1:0|3:0,2:0:0:0:
399,329,153208,1,8,2:0:0:0:
492,282,153496,6,0,P|500:232|483:183,1,104,12|0,2:0|3:0,2:0:0:0:
387,142,154073,1,8,2:3:0:0:
292,184,154361,1,4,3:1:0:0:
256,192,154506,12,2,155804,2:0:0:0:
292,58,156958,6,0,L|189:41,1,104,4|8,3:2|2:0,2:0:0:0:
143,66,157390,1,8,2:0:0:0:
143,66,157534,2,0,L|134:14,2,52,8|8|8,2:0|2:0|2:0,2:0:0:0:
48,106,158111,6,0,B|25:143|25:143|41:211,1,114.4,4|8,3:1|2:0,2:0:0:0:
77,249,158544,1,0,1:0:0:0:
77,249,158688,2,0,L|68:305,1,57.2,2|0,3:2|2:0,2:0:0:0:
147,369,159121,2,0,L|259:347,1,114.4,2|0,2:0|2:0,2:0:0:0:
310,339,159554,1,10,2:0:0:0:
310,339,159698,2,0,P|329:286|322:230,1,114.4,0|2,1:0|3:2,2:0:0:0:
226,189,160275,6,0,P|170:199|119:175,1,114.4,2|0,2:0|3:0,2:0:0:0:
87,134,160708,2,0,L|95:77,1,57.2,8|0,2:0|1:0,2:0:0:0:
100,26,160996,1,2,3:2:0:0:
100,26,161140,1,0,3:0:0:0:
215,18,161429,2,0,P|266:42|322:37,1,114.4,2|0,2:0|3:0,2:0:0:0:
368,13,161861,1,10,2:0:0:0:
368,13,162006,2,0,P|403:56|408:113,1,114.4,0|2,1:0|3:2,2:0:0:0:
342,192,162583,6,0,P|273:142|189:143,1,171.6,6|8,3:2|2:0,2:0:0:0:
86,105,163304,2,0,L|65:217,1,114.4,2|10,3:2|2:0,2:0:0:0:
12,305,163881,2,0,P|68:306|113:339,1,114.4,2|8,3:2|2:0,2:0:0:0:
145,379,164313,2,0,L|258:362,1,114.4,2|0,3:2|3:2,2:0:0:0:
309,371,164746,2,0,P|332:320|325:264,1,114.4,8|4,2:0|3:1,2:0:0:0:
229,213,165323,6,0,L|211:99,1,114.4,10|2,2:0|2:0,2:0:0:0:
202,48,165756,1,0,3:0:0:0:
202,48,165900,1,10,2:0:0:0:
291,6,166188,6,0,B|338:28|338:28|399:18,1,114.4,10|0,2:0|3:0,2:0:0:0:
450,7,166621,2,0,P|473:58|465:113,1,114.4,10|0,2:0|3:0,2:0:0:0:
436,157,167054,2,0,L|323:136,1,114.4,10|14,2:0|2:0,2:0:0:0:
230,82,167631,6,0,L|174:92,1,57.2,10|0,2:0|3:0,2:0:0:0:
125,73,167919,1,10,2:0:0:0:
125,73,168063,1,8,2:3:0:0:
24,97,168352,2,0,P|1:148|13:203,1,114.4,14|0,2:0|3:0,2:0:0:0:
22,254,168784,1,8,2:0:0:0:
22,254,168929,2,0,P|73:231|129:239,1,114.4,2|8,2:0|2:3,2:0:0:0:
252,280,169506,6,0,L|267:166,1,114.4,2|0,3:0|3:2,2:0:0:0:
274,115,169938,1,12,2:1:0:0:
333,30,170227,2,0,B|382:60|382:60|437:48,1,114.4,2|10,3:2|2:0,2:0:0:0:
486,64,170659,1,0,2:0:0:0:
486,64,170804,2,0,L|465:177,1,114.4,2|8,3:2|2:0,2:0:0:0:
496,274,171381,2,0,P|444:297|388:291,1,114.4,8|4,2:3|2:3,2:0:0:0:
342,267,171813,6,0,L|321:154,1,114.4,4|0,3:1|3:2,2:0:0:0:
312,101,172246,1,8,2:0:0:0:
312,101,172390,1,6,3:2:0:0:
223,47,172679,2,0,L|164:36,1,57.2,0|8,3:2|2:0,2:0:0:0:
120,15,172967,2,0,P|65:26|31:71,1,114.4,4|2,3:2|3:2,2:0:0:0:
10,118,173400,1,8,2:0:0:0:
10,118,173544,2,0,L|27:231,1,114.4,4|0,3:2|3:2,2:0:0:0:
32,282,173977,1,8,2:0:0:0:
88,368,174265,6,0,P|139:344|195:350,1,114.4,12|0,2:0|3:0,2:0:0:0:
245,335,174698,2,0,P|296:358|352:352,1,114.4,10|0,2:0|3:0,2:0:0:0:
401,371,175131,1,10,2:0:0:0:
490,320,175419,5,2,3:0:0:0:
490,320,175563,2,0,B|505:285|505:285|484:211,1,114.4,14|0,2:0|3:0,2:0:0:0:
501,162,175996,2,0,L|387:145,1,114.4,8|10,2:0|2:0,2:0:0:0:
307,78,176573,5,4,3:1:0:0:
307,78,176717,2,0,P|279:120|280:172,1,104,0|2,3:2|1:2,2:0:0:0:
310,215,177150,1,0,3:0:0:0:
271,311,177438,1,8,2:0:0:0:
271,311,177583,2,0,B|217:322|217:322|197:352|197:352|133:366,1,156,2|8,2:0|2:0,2:0:0:0:
34,334,178304,2,0,P|11:287|15:236,1,104,2|8,3:2|2:0,2:0:0:0:
68,146,178881,6,0,L|177:164,1,104,4|8,3:1|2:0,2:0:0:0:
216,138,179313,1,2,2:0:0:0:
216,138,179458,2,0,L|207:86,2,52,2|2|8,3:2|3:2|2:0,2:0:0:0:
263,230,180034,2,0,L|272:282,1,52,2|0,3:2|3:2,2:0:0:0:
282,331,180323,1,8,2:0:0:0:
282,331,180467,2,0,B|367:317|367:317|391:348|426:348,1,156,2|10,3:2|2:0,2:0:0:0:
499,273,181188,6,0,P|509:223|496:173,1,104,4|8,3:1|2:0,2:0:0:0:
458,137,181621,2,0,P|407:142|360:121,1,104,2|0,3:2|3:2,2:0:0:0:
323,85,182054,1,8,2:0:0:0:
221,107,182342,6,0,L|207:210,1,104,12|0,2:0|3:2,2:0:0:0:
228,257,182775,1,8,2:0:0:0:
207,358,183063,2,0,P|157:372|107:359,1,104,8|0,2:0|1:0,2:0:0:0:
63,344,183496,6,0,L|48:241,1,104,4|0,3:2|3:0,2:0:0:0:
16,199,183929,2,0,L|8:147,2,52,2|0|2,2:0|3:0|2:0,2:0:0:0:
119,206,184506,6,0,B|171:200|171:200|211:231,1,104,2|2,2:0|2:0,2:0:0:0:
250,266,184938,1,0,3:0:0:0:
250,266,185083,1,2,2:0:0:0:
320,341,185371,2,0,L|421:318,1,104,4|0,3:2|2:0,2:0:0:0:
473,329,185804,6,0,P|498:278|494:221,1,114.4,4|10,3:2|2:0,2:0:0:0:
461,180,186236,2,0,P|405:181|356:153,1,114.4,0|0,3:0|3:0,2:0:0:0:
323,113,186669,1,10,2:0:0:0:
261,30,186958,2,0,L|148:48,1,114.4,0|10,3:0|2:0,2:0:0:0:
97,57,187390,2,0,P|75:108|88:163,1,114.4,0|0,3:0|3:0,2:0:0:0:
55,203,187823,2,0,L|-1:193,2,57.2,10|2|0,2:0|2:0|3:2,2:0:0:0:
118,284,188400,5,10,2:0:0:0:
118,284,188544,2,0,L|230:263,1,114.4,0|0,3:0|3:0,2:0:0:0:
281,255,188977,1,10,2:0:0:0:
281,255,189121,1,2,2:0:0:0:
349,177,189409,2,0,L|404:189,1,57.2,0|10,3:0|2:0,2:0:0:0:
454,200,189698,2,0,P|477:149|469:94,1,114.4,0|0,3:0|3:0,2:0:0:0:
447,47,190131,2,0,L|502:34,2,57.2,10|2|8,2:0|2:0|3:0,2:0:0:0:
345,67,190708,6,0,L|229:47,2,114.4,12|4|4,2:0|3:2|3:2,2:0:0:0:
367,167,191573,2,0,P|318:193|262:185,1,114.4,4|4,3:2|3:2,2:0:0:0:
178,124,192150,2,0,P|122:116|72:142,1,114.4,4|4,3:2|3:2,2:0:0:0:
13,215,192727,6,0,L|22:266,1,52,4|2,3:2|2:0,2:0:0:0:
13,311,193015,1,2,2:0:0:0:
13,311,193159,2,0,P|64:310|110:334,1,104,2|2,2:0|2:0,2:0:0:0:
197,368,193736,2,0,P|220:322|219:270,1,104,2|2,2:0|2:0,2:0:0:0:
190,233,194169,1,2,2:0:0:0:
218,143,194458,5,2,2:0:0:0:
218,143,194602,1,6,3:1:0:0:
