osu file format v14

[General]
AudioFilename: audio.mp3
AudioLeadIn: 0
PreviewTime: 49648
Countdown: 0
SampleSet: Normal
StackLeniency: 0.8
Mode: 0
LetterboxInBreaks: 0
WidescreenStoryboard: 1

[Editor]
Bookmarks:5804,17342,26573,35804,49650,58881,68111,77198,86573,95804,105034,118881,128111,137342,158111,167342,176573,183496,194458,194530,194602,194890
DistanceSpacing: 0.3
BeatDivisor: 8
GridSize: 32
TimelineZoom: 1.5

[Metadata]
Title:Art as <3
TitleUnicode:Art as ♡
Artist:KOTOKO
ArtistUnicode:KOTOKO
Creator:Shikibe Mayu
Version:Kowari's Insane
Source:イノセントガール
Tags:Shizuku- Kazato Asa Yogurtt Amateurre Kowari Innocent Girl Front Wing eroge vn visual novel rock video game japanese heart
BeatmapID:3028229
BeatmapSetID:1399810

[Difficulty]
HPDrainRate:5
CircleSize:4
OverallDifficulty:8
ApproachRate:9
SliderMultiplier:1.76
SliderTickRate:0.5

[Events]
//Background and Video events
0,0,"f10a8bc1c.jpg",0,0
//Break Periods
2,86773,94050
2,183696,184771
2,192927,193858
//Storyboard Layer 0 (Background)
//Storyboard Layer 1 (Fail)
//Storyboard Layer 2 (Pass)
//Storyboard Layer 3 (Foreground)
//Storyboard Layer 4 (Overlay)
//Storyboard Sound Samples

[TimingPoints]
35,288.461538461538,4,1,6,50,1,0
1477,-125,4,1,6,50,0,0
5515,-83.3333333333333,4,1,6,50,0,0
5804,-100,4,1,6,70,0,0
17342,-125,4,1,6,60,0,0
26573,-111.111111111111,4,1,6,70,0,0
35804,-111.111111111111,4,1,6,60,0,0
36525,-100,4,1,6,60,0,0
42583,-100,4,1,6,70,0,0
45900,-133.333333333333,4,1,6,70,0,0
46909,-133.333333333333,4,1,6,50,0,0
47342,-125,4,1,6,50,0,0
48496,-125,4,1,6,70,0,0
49650,-100,4,1,6,80,0,1
68111,-100,4,1,6,70,0,0
86573,-100,4,1,6,50,0,0
94650,-100,4,1,6,60,0,0
95804,-125,4,1,6,60,0,0
99121,-111.111111111111,4,1,6,70,0,0
105034,-111.111111111111,4,1,6,60,0,0
105756,-100,4,1,6,60,0,0
111813,-100,4,1,6,70,0,0
115131,-133.333333333333,4,1,6,70,0,0
115996,-133.333333333333,4,1,6,50,0,0
116140,-125,4,1,6,50,0,0
117727,-100,4,1,6,70,0,0
118881,-100,4,1,6,80,0,1
137342,-100,4,1,6,70,0,0
154361,-133.333333333333,4,1,6,70,0,0
158111,-100,4,1,6,80,0,1
169506,-133.333333333333,4,1,6,80,0,1
169938,-100,4,1,6,80,0,1
176573,-100,4,1,6,80,0,0
183496,-100,4,1,6,60,0,0
185515,-133.333333333333,4,1,6,60,0,0
185804,-100,4,1,6,80,0,1
192727,-100,4,1,6,60,0,0
194890,-100,4,1,6,5,0,0

[Colours]
Combo1 : 148,86,92
Combo2 : 217,149,168
Combo3 : 202,155,199
Combo4 : 197,114,129

[HitObjects]
56,291,1044,5,12,1:2:0:0:
184,248,1333,5,8,1:2:0:0:
56,291,1477,2,0,P|52:247|53:213,1,70.4,8|8,1:0|1:2,1:0:0:0:
109,132,1765,1,8,1:0:0:0:
189,199,1909,1,8,1:2:0:0:
189,199,2198,6,0,B|238:180|238:180|287:205|338:196,1,140.8,12|8,1:2|1:2,1:0:0:0:
421,239,2631,2,0,P|425:189|422:150,1,70.4,8|8,1:0|1:2,1:0:0:0:
370,29,2919,1,8,1:0:0:0:
329,117,3063,1,8,1:3:0:0:
450,84,3208,1,4,1:3:0:0:
421,239,3352,5,12,1:2:0:0:
256,192,3424,12,12,4650,1:2:0:0:
399,353,5227,5,2,3:0:0:0:
399,353,5299,1,0,3:0:0:0:
399,353,5371,1,0,3:0:0:0:
399,353,5443,1,0,3:0:0:0:
399,353,5515,2,0,L|385:283,1,52.80000000000002,0|0,3:0|3:0,1:0:0:0:
452,254,5659,2,0,L|466:184,1,52.80000000000002,0|0,3:0|3:0,1:0:0:0:
496,132,5804,6,0,P|436:118|390:119,1,88,14|8,1:2|1:2,1:0:0:0:
314,215,6092,1,10,1:0:0:0:
182,162,6236,2,0,B|136:70|210:-8,1,176,0|8,1:0|1:2,1:0:0:0:
266,76,6669,1,10,1:0:0:0:
222,256,6813,6,0,B|130:302|52:228,1,176,14|0,1:2|1:2,1:0:0:0:
0,134,7246,2,0,L|90:123,1,88,8|8,1:0|1:2,1:0:0:0:
190,29,7534,1,10,1:0:0:0:
255,162,7679,1,8,1:2:0:0:
190,29,7823,1,10,1:0:0:0:
149,191,7967,6,0,P|127:327|123:387,1,176,14|8,1:2|1:2,1:0:0:0:
233,289,8400,2,0,P|289:308|335:306,1,88,10|0,1:0|1:0,1:0:0:0:
456,178,8688,2,0,P|412:181|371:197,1,88,10|0,1:2|1:0,1:0:0:0:
440,280,8977,1,10,1:0:0:0:
275,199,9121,6,0,B|215:104|298:20,1,176,14|8,1:2|1:2,1:0:0:0:
376,0,9554,1,10,1:0:0:0:
465,100,9698,1,2,1:0:0:0:
363,177,9842,1,8,1:2:0:0:
422,246,9986,5,2,1:0:0:0:
374,93,10131,1,10,1:0:0:0:
422,246,10275,1,8,1:2:0:0:
356,316,10419,6,0,P|297:303|251:273,1,88,14|0,1:2|1:0,1:0:0:0:
111,222,10708,1,10,1:0:0:0:
191,368,10852,2,0,B|148:269|240:182,1,176,10|0,1:2|1:0,1:0:0:0:
335,127,11284,1,10,1:0:0:0:
217,24,11429,6,0,L|100:4,1,88,10|0,1:2|1:0,1:0:0:0:
335,127,11717,2,0,L|452:147,1,88,0|10,1:0|1:0,1:0:0:0:
196,244,12006,2,0,B|141:229|141:229|75:262|25:234,1,176,10|4,1:2|1:3,1:0:0:0:
77,161,12438,2,0,P|70:104|79:60,1,88,10|8,1:0|1:3,1:0:0:0:
255,12,12727,5,14,1:2:0:0:
206,114,12871,1,2,1:0:0:0:
157,24,13015,1,10,1:0:0:0:
309,117,13159,5,2,1:0:0:0:
404,85,13304,2,0,P|420:32|419:-11,1,88,8|0,1:2|1:0,1:0:0:0:
222,85,13592,1,8,1:0:0:0:
184,168,13736,2,0,B|142:266|224:346,1,176,14|10,1:2|1:2,1:0:0:0:
285,274,14169,6,0,L|395:256,1,88,10|0,1:0|1:0,1:0:0:0:
472,178,14458,1,10,1:2:0:0:
358,133,14602,1,0,1:0:0:0:
417,12,14746,2,0,P|424:69|378:156,1,132,10|0,1:0|1:0,1:0:0:0:
333,89,15034,5,12,1:2:0:0:
333,89,15131,2,0,L|264:74,1,58.666666666666664,8|8,1:2|1:2,1:0:0:0:
215,146,15323,5,8,1:0:0:0:
215,146,15419,2,0,L|146:161,1,58.666666666666664,8|4,1:3|1:3,1:0:0:0:
76,214,15611,2,0,B|38:160|32:93|81:29,1,176,0|8,1:3|1:0,1:0:0:0:
8,303,16044,6,0,B|68:339|128:326|184:265,1,176,14|8,1:2|1:2,1:0:0:0:
236,114,16477,1,10,1:0:0:0:
348,244,16621,1,10,1:2:0:0:
348,244,16693,1,8,1:2:0:0:
348,244,16765,1,8,1:2:0:0:
415,173,16909,1,10,1:2:0:0:
326,149,17054,1,8,1:3:0:0:
326,149,17198,1,4,1:3:0:0:
258,220,17342,6,0,P|246:273|243:308,1,70.4,14|0,1:2|1:0,1:0:0:0:
348,279,17631,2,0,P|353:313|361:347,1,70.4,10|2,1:2|1:0,1:0:0:0:
438,283,17919,2,0,B|470:246|470:185|439:141,1,140.8,8|10,1:2|1:2,1:0:0:0:
445,150,18352,1,0,1:0:0:0:
492,69,18496,6,0,P|398:75|334:89,1,140.8,10|8,1:2|1:2,1:0:0:0:
271,187,18929,1,2,1:0:0:0:
271,187,19073,2,0,B|191:212|128:126,1,140.8,8|8,1:2|1:2,1:0:0:0:
0,38,19650,6,0,P|98:22|155:16,1,140.8,10|10,1:2|1:2,1:0:0:0:
52,124,20083,2,0,B|12:173|21:222|45:270,1,140.8,2|0,1:0|1:0,1:0:0:0:
137,245,20515,2,0,P|126:296|120:332,1,70.4,10|0,1:2|1:0,1:0:0:0:
212,361,20804,6,0,P|251:353|294:351,1,70.4,10|0,1:2|1:0,1:0:0:0:
269,265,21092,2,0,P|304:267|338:275,1,70.4,8|0,1:2|1:0,1:0:0:0:
233,183,21381,2,0,P|198:186|164:194,1,70.4,10|0,1:2|1:0,1:0:0:0:
180,100,21669,2,0,P|144:102|110:110,1,70.4,8|0,1:2|1:0,1:0:0:0:
246,18,21958,6,0,B|299:88|254:162,1,140.8,10|10,1:2|1:2,1:0:0:0:
352,107,22390,2,0,P|436:88|492:75,1,140.8,2|0,1:0|1:0,1:0:0:0:
444,169,22823,2,0,P|437:208|451:254,1,70.4,10|0,1:2|1:0,1:0:0:0:
486,337,23111,6,0,P|434:331|397:326,1,70.4,10|0,1:2|1:0,1:0:0:0:
331,244,23400,1,10,1:2:0:0:
272,296,23544,2,0,L|133:324,1,140.8,2|0,1:0|1:0,1:0:0:0:
70,252,23977,2,0,P|22:237|-9:238,1,70.4,8|0,1:2|1:0,1:0:0:0:
138,180,24265,6,0,L|156:83,1,70.4,10|0,1:2|1:0,1:0:0:0:
171,24,24554,1,0,1:0:0:0:
38,54,24698,2,0,B|-11:128|46:195,1,140.8,2|0,1:0|1:0,1:0:0:0:
93,267,25131,2,0,L|74:348,1,70.4,10|0,1:2|1:0,1:0:0:0:
181,308,25419,5,10,1:2:0:0:
285,242,25563,1,8,1:3:0:0:
330,372,25708,1,8,1:3:0:0:
330,372,25996,5,8,1:2:0:0:
220,309,26140,1,0,1:0:0:0:
362,203,26284,1,8,1:0:0:0:
362,203,26357,1,0,1:0:0:0:
362,203,26429,1,0,1:0:0:0:
362,203,26501,1,0,1:0:0:0:
362,203,26573,6,0,L|450:190,1,79.20000000000007,14|0,1:2|1:0,1:0:0:0:
417,290,26861,1,10,1:0:0:0:
375,104,27006,2,0,B|281:80|224:171,1,158.40000000000012,2|8,1:0|1:2,1:0:0:0:
91,216,27438,2,0,P|36:197|9:173,1,79.20000000000007,10|0,1:0|1:0,1:0:0:0:
151,63,27727,6,0,L|173:233,1,158.40000000000012,2|10,1:2|1:0,1:0:0:0:
151,353,28159,2,0,P|208:346|235:329,1,79.20000000000007,2|8,1:0|1:2,1:0:0:0:
289,254,28448,1,2,1:0:0:0:
397,306,28592,2,0,L|384:420,1,79.20000000000007,8|2,1:0|1:0,1:0:0:0:
500,240,28881,6,0,B|444:164|518:81,1,158.40000000000012,10|8,1:2|1:0,1:0:0:0:
386,12,29313,2,0,L|401:104,1,79.20000000000007,2|8,1:0|1:2,1:0:0:0:
297,55,29602,2,0,L|183:35,1,79.20000000000007,0|10,1:0|1:0,1:0:0:0:
324,201,29890,6,0,B|270:216|270:216|210:181|145:209,1,158.40000000000012,12|0,1:2|1:0,1:0:0:0:
102,287,30323,2,0,B|109:346|117:370,1,79.20000000000007,10|0,1:0|1:0,1:0:0:0:
202,304,30611,1,10,1:2:0:0:
46,205,30756,1,10,1:2:0:0:
136,170,30900,1,8,1:0:0:0:
102,287,31044,1,2,1:0:0:0:
60,100,31188,6,0,B|138:39|233:105,1,158.40000000000012,14|8,1:2|1:0,1:0:0:0:
282,168,31621,2,0,P|342:158|375:154,1,79.20000000000007,2|8,1:0|1:2,1:0:0:0:
465,81,31909,1,2,1:0:0:0:
354,47,32054,1,8,1:0:0:0:
465,81,32198,1,2,1:0:0:0:
506,230,32342,6,0,B|529:338|427:379,1,158.40000000000012,14|10,1:2|1:0,1:0:0:0:
353,336,32775,1,2,1:0:0:0:
296,242,32919,2,0,P|348:231|395:236,1,79.20000000000007,8|0,1:2|1:0,1:0:0:0:
194,211,33208,2,0,L|209:309,1,79.20000000000007,10|0,1:0|1:0,1:0:0:0:
47,372,33496,6,0,B|-1:315|40:233,1,118.80000000000011,14|0,1:2|1:0,1:0:0:0:
28,260,33784,2,0,L|114:269,1,79.20000000000007,12|2,1:0|1:0,1:0:0:0:
261,164,34073,2,0,B|160:204|96:116,1,158.40000000000012,8|10,1:2|1:0,1:0:0:0:
148,36,34506,1,14,1:2:0:0:
261,164,34650,6,0,L|351:173,1,79.20000000000007,10|4,1:2|1:3,1:0:0:0:
461,113,34938,1,8,1:3:0:0:
461,113,35227,1,4,1:3:0:0:
363,73,35371,1,8,1:3:0:0:
452,216,35515,1,10,1:0:0:0:
354,303,35659,1,8,1:3:0:0:
305,225,35804,5,8,1:2:0:0:
476,305,35948,1,8,1:2:0:0:
305,225,36092,1,8,1:0:0:0:
305,225,36525,2,0,P|257:241|207:272,1,88,14|8,1:2|1:0,1:0:0:0:
52,366,36813,6,0,B|-17:290|47:178,1,176,12|0,1:2|1:0,1:0:0:0:
125,135,37246,2,0,L|137:244,1,88,10|0,1:0|1:0,1:0:0:0:
164,50,37534,2,0,L|55:50,1,88,10|0,1:2|1:0,1:0:0:0:
231,162,37823,1,10,1:0:0:0:
314,61,37967,6,0,B|377:48|377:48|434:89|499:68,1,176,0|0,1:0|1:0,1:0:0:0:
416,155,38400,1,10,1:0:0:0:
451,253,38544,1,0,1:0:0:0:
505,172,38688,5,10,1:2:0:0:
384,151,38833,1,2,1:0:0:0:
356,278,38977,1,10,1:0:0:0:
475,304,39121,1,0,1:0:0:0:
435,226,39265,5,10,1:0:0:0:
435,226,39409,1,8,1:2:0:0:
301,347,39554,1,10,1:0:0:0:
187,296,39698,2,0,P|134:281|94:281,1,88,10|8,1:2|1:0,1:0:0:0:
33,346,39986,1,8,1:2:0:0:
33,346,40059,1,8,1:2:0:0:
33,346,40131,1,8,1:0:0:0:
137,196,40275,1,8,1:2:0:0:
57,120,40419,5,8,1:2:0:0:
104,302,40563,1,8,1:2:0:0:
57,120,40708,1,8,1:0:0:0:
57,120,41140,2,0,P|67:49|64:16,1,88,10|0,1:0|1:0,1:0:0:0:
0,232,41429,6,0,B|78:299|183:227,1,176,8|0,1:2|1:0,1:0:0:0:
264,92,41861,2,0,L|381:104,1,88,10|8,1:0|1:2,1:0:0:0:
351,100,42078,1,8,1:3:0:0:
351,100,42150,1,4,1:3:0:0:
442,212,42294,1,0,1:0:0:0:
343,304,42438,1,10,1:0:0:0:
410,374,42583,6,0,B|457:337|462:268|438:203,1,176,10|8,1:2|1:2,1:0:0:0:
362,107,43015,2,0,P|364:61|370:7,1,88,8|0,1:0|1:0,1:0:0:0:
456,78,43304,1,8,1:2:0:0:
348,200,43448,1,2,1:0:0:0:
264,102,43592,1,8,1:0:0:0:
362,107,43736,1,2,1:0:0:0:
255,197,43881,6,0,B|150:245|74:146,1,176,2|8,1:0|1:0,1:0:0:0:
29,77,44313,2,0,L|130:65,1,88,10|0,1:2|1:2,1:0:0:0:
172,249,44602,1,10,1:2:0:0:
105,304,44746,2,0,P|51:305|7:285,1,88,8|0,1:0|1:0,1:0:0:0:
125,54,45034,6,0,L|140:150,1,88,10|0,1:2|1:0,1:0:0:0:
290,340,45323,2,0,L|275:244,1,88,14|0,1:2|1:0,1:0:0:0:
354,54,45611,2,0,P|404:34|451:35,1,88,14|0,1:2|1:0,1:0:0:0:
480,247,45900,6,0,P|372:258|246:27,1,396.00000000000097,14|0,1:2|1:0,1:0:0:0:
321,3,46909,1,0,3:0:0:0:
321,3,46982,1,0,3:0:0:0:
321,3,47054,1,0,3:0:0:0:
342,89,47198,1,0,3:0:0:0:
257,136,47342,6,0,P|203:152|179:166,1,70.4,2|0,3:0|3:0,1:0:0:0:
142,79,47631,2,0,P|103:119|89:143,1,70.4,2|0,3:2|3:0,1:0:0:0:
0,81,47919,1,2,3:2:0:0:
0,81,48063,2,0,P|19:179|31:233,1,140.8,2|2,3:2|3:0,1:0:0:0:
53,310,48496,5,2,3:2:0:0:
165,217,48640,5,8,1:0:0:0:
233,369,48784,1,8,1:3:0:0:
353,265,48929,1,8,1:3:0:0:
289,188,49073,5,8,1:0:0:0:
339,363,49217,1,0,1:0:0:0:
434,248,49361,1,8,1:0:0:0:
247,281,49506,1,0,1:0:0:0:
82,307,49650,6,0,B|14:226|88:107,1,176,14|8,1:2|1:0,1:0:0:0:
188,48,50083,1,0,1:0:0:0:
260,181,50227,1,10,1:2:0:0:
343,117,50371,2,0,L|452:103,1,88,2|8,1:0|1:0,1:0:0:0:
412,333,50659,1,2,1:0:0:0:
499,268,50804,6,0,B|422:198|313:259,1,176,8|10,1:2|1:0,1:0:0:0:
171,347,51236,2,0,P|116:339|76:316,1,88,2|8,1:2|1:2,1:0:0:0:
242,212,51525,2,0,P|262:151|268:105,1,88,2|8,1:0|1:0,1:0:0:0:
134,9,51813,1,2,1:0:0:0:
112,106,51958,5,8,1:2:0:0:
214,62,52102,1,0,1:0:0:0:
112,106,52246,1,10,1:0:0:0:
215,228,52390,1,0,1:0:0:0:
93,293,52534,1,10,1:2:0:0:
158,357,52679,2,0,P|222:369|274:357,1,88,2|8,1:0|1:0,1:0:0:0:
130,201,52967,1,2,1:0:0:0:
227,239,53111,6,0,B|292:154|232:36,1,176,12|10,1:2|1:0,1:0:0:0:
152,94,53544,2,0,L|57:72,1,88,10|0,1:2|1:0,1:0:0:0:
351,218,53833,2,0,L|446:240,1,88,10|8,1:2|1:0,1:0:0:0:
511,32,54121,6,0,B|421:-4|330:80,1,176,14|8,1:2|1:2,1:0:0:0:
441,125,54554,2,0,P|451:177|448:240,1,88,10|0,1:0|1:0,1:0:0:0:
369,310,54842,1,10,1:2:0:0:
344,199,54986,1,8,1:2:0:0:
454,246,55131,1,10,1:0:0:0:
409,384,55275,1,2,1:0:0:0:
278,353,55419,6,0,L|88:311,1,176,8|8,1:2|1:0,1:0:0:0:
25,154,55852,2,0,P|76:134|125:134,1,88,2|8,1:0|1:2,1:0:0:0:
181,214,56140,1,2,1:0:0:0:
69,298,56284,2,0,L|49:398,1,88,8|0,1:0|1:2,1:0:0:0:
181,214,56573,6,0,L|215:59,1,132,10|0,1:2|1:0,1:0:0:0:
209,85,56861,2,0,P|265:69|301:75,1,88,14|0,1:0|1:0,1:0:0:0:
402,213,57150,2,0,L|302:192,1,88,10|0,1:2|1:0,1:0:0:0:
478,125,57438,2,0,P|498:71|487:20,1,88,10|0,1:0|1:0,1:0:0:0:
373,5,57727,5,10,1:0:0:0:
390,134,57871,1,8,1:2:0:0:
412,263,58015,1,8,1:2:0:0:
488,211,58159,5,10,1:0:0:0:
420,352,58304,1,8,1:2:0:0:
302,273,58448,1,8,1:2:0:0:
190,323,58592,1,14,1:0:0:0:
302,273,58736,1,10,1:2:0:0:
246,160,58881,6,0,B|189:144|189:144|135:190|60:168,1,176,14|8,1:2|1:0,1:0:0:0:
5,61,59313,1,0,1:0:0:0:
124,0,59458,1,10,1:2:0:0:
124,0,59602,2,0,P|129:46|117:87,1,88,2|8,1:0|1:0,1:0:0:0:
5,227,59890,1,2,1:0:0:0:
59,340,60034,6,0,P|111:375|194:365,1,132,8|0,1:2|1:0,1:0:0:0:
178,372,60323,1,10,1:0:0:0:
306,287,60467,2,0,L|408:305,1,88,2|8,1:0|1:2,1:0:0:0:
211,181,60756,2,0,L|109:163,1,88,2|8,1:0|1:0,1:0:0:0:
269,28,61044,1,10,1:2:0:0:
370,85,61188,6,0,B|390:164|343:233,1,132,8|0,1:2|1:0,1:0:0:0:
355,213,61477,2,0,L|449:228,1,88,10|0,1:0|1:0,1:0:0:0:
244,336,61765,2,0,P|240:274|261:213,1,88,8|0,1:2|1:0,1:0:0:0:
393,383,62054,2,0,P|438:375|473:349,1,88,10|0,1:0|1:0,1:0:0:0:
506,174,62342,6,0,L|322:144,1,176,10|8,1:2|1:0,1:0:0:0:
228,64,62775,1,8,1:2:0:0:
228,64,62847,1,8,1:2:0:0:
228,64,62919,1,10,1:2:0:0:
151,174,63063,1,8,1:2:0:0:
58,123,63208,1,4,1:3:0:0:
216,25,63352,6,0,B|270:120|186:214,1,176,14|2,1:2|1:0,1:0:0:0:
59,346,63784,1,10,1:0:0:0:
277,353,63929,2,0,B|246:290|181:266|93:286,1,176,12|2,1:2|1:0,1:0:0:0:
59,346,64361,1,10,1:0:0:0:
290,225,64506,6,0,B|352:207|352:207|407:246|472:233,1,176,14|8,1:2|1:2,1:0:0:0:
353,312,64938,1,10,1:0:0:0:
427,140,65083,2,0,P|433:81|413:31,1,88,6|8,1:2|1:2,1:0:0:0:
312,0,65371,1,2,1:0:0:0:
226,71,65515,2,0,L|88:52,1,132,8|0,1:0|1:0,1:0:0:0:
95,52,65804,5,10,1:2:0:0:
42,153,65948,1,8,1:2:0:0:
156,213,66092,1,8,1:2:0:0:
11,184,66236,5,14,1:0:0:0:
141,178,66381,1,8,1:2:0:0:
74,320,66525,1,0,1:0:0:0:
165,364,66669,2,0,B|250:387|300:316,1,132,10|0,1:0|1:0,1:0:0:0:
286,333,66958,1,8,1:2:0:0:
480,239,67102,6,0,B|410:167|296:211,1,176,14|0,1:0|1:0,1:0:0:0:
392,312,67534,2,0,L|410:217,1,88,10|0,1:0|1:0,1:0:0:0:
496,142,67823,2,0,L|512:55,1,88,10|0,1:0|1:0,1:0:0:0:
416,6,68111,5,14,1:2:0:0:
336,103,68256,1,0,1:0:0:0:
251,37,68400,1,10,1:0:0:0:
185,101,68544,1,0,1:0:0:0:
185,101,68688,1,10,1:2:0:0:
320,128,68833,1,10,1:2:0:0:
259,13,68977,1,8,1:0:0:0:
103,61,69121,6,0,B|46:156|118:242,1,176,10|8,1:2|1:2,1:0:0:0:
90,332,69554,2,0,P|145:322|186:312,1,88,10|0,1:0|1:0,1:0:0:0:
315,213,69842,2,0,P|357:203|401:195,1,88,10|8,1:2|1:2,1:0:0:0:
290,384,70131,2,0,P|273:332|281:293,1,88,10|0,1:0|1:0,1:0:0:0:
499,119,70419,6,0,P|518:191|504:260,1,132,12|0,1:2|1:0,1:0:0:0:
509,246,70708,1,10,1:0:0:0:
424,296,70852,1,0,1:0:0:0:
431,196,70996,1,10,1:2:0:0:
498,349,71140,2,0,L|295:320,1,176,2|0,1:0|1:0,1:0:0:0:
230,207,71573,5,10,1:2:0:0:
153,276,71717,2,0,L|47:285,1,88,2|8,1:0|1:0,1:0:0:0:
141,172,72006,2,0,B|188:85|117:1,1,176,2|0,1:0|1:0,1:0:0:0:
14,0,72438,2,0,L|27:105,1,88,14|0,1:0|1:0,1:0:0:0:
141,172,72727,6,0,B|200:155|200:155|261:193|329:178,1,176,14|8,1:2|1:0,1:0:0:0:
421,107,73159,1,2,1:2:0:0:
501,161,73304,2,0,P|501:214|483:270,1,88,0|0,1:0|1:0,1:0:0:0:
504,354,73592,2,0,P|424:336|346:322,1,132,10|0,1:0|1:0,1:0:0:0:
374,326,73881,6,0,L|278:338,1,88,14|0,1:2|1:0,1:0:0:0:
182,374,74169,1,10,1:0:0:0:
244,256,74313,2,0,B|278:155|210:79,1,176,8|0,1:3|1:0,1:0:0:0:
144,164,74746,1,10,1:0:0:0:
431,69,75034,5,14,2:0:0:0:
388,152,75323,1,0,2:0:0:0:
388,152,75467,1,2,2:0:0:0:
460,208,75756,1,2,2:0:0:0:
396,263,76044,5,2,2:0:0:0:
431,70,76333,1,2,2:0:0:0:
396,263,76621,1,2,2:0:0:0:
481,309,76909,5,2,2:0:0:0:
371,275,77054,1,2,2:0:0:0:
263,239,77198,2,0,B|230:140|298:65,1,176,12|0,1:2|1:0,1:0:0:0:
356,147,77631,6,0,P|404:164|454:164,1,88,10|0,1:0|1:0,1:0:0:0:
194,286,77919,2,0,P|146:269|96:269,1,88,10|0,1:2|1:0,1:0:0:0:
140,365,78208,1,10,1:0:0:0:
18,191,78352,6,0,L|163:167,1,132,14|0,1:2|1:0,1:0:0:0:
148,169,78640,2,0,P|162:114|160:74,1,88,2|8,1:0|1:0,1:0:0:0:
51,4,78929,2,0,P|37:59|39:99,1,88,2|8,1:0|1:2,1:0:0:0:
121,258,79217,1,2,1:0:0:0:
226,228,79361,2,0,L|317:216,1,88,10|0,1:0|1:0,1:0:0:0:
423,132,79650,5,14,1:2:0:0:
499,240,79794,1,0,1:0:0:0:
371,288,79938,1,10,1:0:0:0:
293,234,80083,2,0,B|238:153|306:47,1,176,2|0,1:0|1:0,1:0:0:0:
477,73,80515,1,10,1:0:0:0:
362,155,80659,6,0,B|257:179|192:97,1,176,10|10,1:2|1:2,1:0:0:0:
111,0,81092,1,10,1:0:0:0:
20,132,81236,2,0,L|34:244,1,88,2|0,1:0|1:0,1:0:0:0:
116,303,81525,1,0,1:0:0:0:
157,193,81669,1,10,1:0:0:0:
15,259,81813,1,2,1:0:0:0:
64,368,81958,6,0,L|216:351,1,132,12|0,1:2|1:0,1:0:0:0:
195,353,82246,2,0,L|292:344,1,88,10|0,1:0|1:0,1:0:0:0:
357,248,82534,1,10,1:2:0:0:
455,293,82679,2,0,P|464:351|452:413,1,88,2|8,1:0|1:0,1:0:0:0:
270,249,82967,6,0,L|258:160,1,88,2|10,1:0|1:2,1:0:0:0:
343,65,83256,1,2,1:0:0:0:
439,108,83400,2,0,L|527:81,1,88,10|0,1:0|1:0,1:0:0:0:
372,209,83688,5,10,1:2:0:0:
270,249,83833,2,0,P|217:247|122:156,1,176,10|0,1:2|1:0,1:0:0:0:
129,68,84265,1,6,1:2:0:0:
6,266,84554,5,2,2:0:0:0:
86,313,84842,1,2,2:0:0:0:
86,313,84986,1,2,2:0:0:0:
16,377,85275,1,2,2:0:0:0:
16,377,85419,1,2,3:0:0:0:
256,192,85491,12,0,86573,2:0:0:0:
180,56,94650,5,8,1:2:0:0:
254,80,94794,1,8,1:3:0:0:
327,106,94938,2,0,P|332:173|300:240,1,132,4|0,1:3|1:0,1:0:0:0:
306,231,95227,1,8,1:0:0:0:
196,320,95371,1,0,1:0:0:0:
366,291,95515,2,0,B|209:246,1,132,12|0,1:2|1:0,1:0:0:0:
239,254,95804,6,0,B|195:212|132:217|88:262,1,140.8,12|8,1:2|1:2,1:0:0:0:
151,329,96236,1,0,1:0:0:0:
179,177,96381,2,0,L|199:12,1,140.8,10|8,1:0|1:2,1:0:0:0:
195,37,96958,5,8,1:2:0:0:
284,13,97102,2,0,P|334:25|371:55,1,70.4,10|0,1:2|1:2,1:0:0:0:
426,131,97390,1,10,1:2:0:0:
309,205,97534,2,0,B|271:286|330:354,1,140.8,10|8,1:0|1:2,1:0:0:0:
317,338,98111,6,0,L|465:314,1,140.8,10|8,1:0|1:2,1:0:0:0:
340,243,98544,1,10,1:2:0:0:
246,276,98688,2,0,P|196:278|150:257,1,70.4,8|2,1:0|1:0,1:0:0:0:
208,185,98977,1,8,1:2:0:0:
107,335,99121,6,0,B|158:261|100:165,1,158.40000000000012,14|0,1:2|1:0,1:0:0:0:
24,130,99554,2,0,L|8:222,1,79.20000000000007,8|0,1:2|1:0,1:0:0:0:
0,41,99842,2,0,L|92:25,1,79.20000000000007,10|0,1:2|1:0,1:0:0:0:
162,88,100131,1,10,1:2:0:0:
286,24,100275,1,8,1:2:0:0:
374,152,100419,6,0,B|467:194|528:110,1,158.40000000000012,14|8,1:2|1:0,1:0:0:0:
303,242,100852,2,0,B|245:183|270:94,1,158.40000000000012,2|8,1:2|1:2,1:0:0:0:
430,26,101284,1,10,1:0:0:0:
417,123,101429,1,0,1:0:0:0:
405,222,101573,6,0,L|387:384,1,158.40000000000012,14|8,1:2|1:0,1:0:0:0:
472,341,102006,1,2,1:0:0:0:
350,288,102150,2,0,P|303:281|247:295,1,79.20000000000007,8|2,1:2|1:0,1:0:0:0:
137,358,102438,2,0,B|105:298|138:212,1,118.80000000000011,8|0,1:0|1:0,1:0:0:0:
128,242,102727,6,0,L|146:149,1,79.20000000000007,14|0,1:2|1:0,1:0:0:0:
205,116,103015,1,10,1:0:0:0:
86,25,103159,1,14,1:2:0:0:
86,25,103304,2,0,B|3:80|35:187,1,158.40000000000012,8|8,1:2|1:0,1:0:0:0:
107,253,103736,1,6,1:2:0:0:
11,312,103881,5,10,1:2:0:0:
109,291,104025,1,8,1:3:0:0:
204,274,104169,1,4,1:3:0:0:
204,274,104458,5,10,1:2:0:0:
286,374,104602,1,8,1:0:0:0:
389,253,104746,1,10,1:0:0:0:
468,384,104890,1,10,1:0:0:0:
374,336,105034,5,8,1:2:0:0:
478,205,105179,1,8,1:2:0:0:
337,124,105323,1,8,1:0:0:0:
337,124,105756,2,0,P|326:73|338:22,1,88,10|8,1:2|1:0,1:0:0:0:
487,238,106044,6,0,B|432:233|432:233|385:283|308:265,1,176,12|8,1:2|1:2,1:0:0:0:
216,186,106477,2,0,L|109:174,1,88,10|0,1:0|1:0,1:0:0:0:
41,281,106765,2,0,L|148:293,1,88,10|8,1:2|1:2,1:0:0:0:
176,85,107054,1,10,1:0:0:0:
94,28,107198,6,0,B|21:88|48:201,1,176,10|8,1:2|1:2,1:0:0:0:
141,296,107631,1,10,1:0:0:0:
222,196,107775,1,0,1:0:0:0:
132,162,107919,5,10,1:2:0:0:
169,318,108063,1,10,1:2:0:0:
315,269,108208,1,10,1:0:0:0:
278,113,108352,1,0,1:0:0:0:
229,227,108496,5,10,1:0:0:0:
229,227,108640,1,8,1:2:0:0:
352,356,108784,1,10,1:0:0:0:
422,270,108929,2,0,L|525:261,1,88,10|8,1:2|1:0,1:0:0:0:
470,354,109217,1,8,1:2:0:0:
470,354,109289,1,8,1:2:0:0:
470,354,109361,1,8,1:0:0:0:
363,186,109506,5,8,1:2:0:0:
363,186,109578,1,8,1:2:0:0:
363,186,109650,1,8,1:2:0:0:
244,295,109794,1,8,1:2:0:0:
138,163,109938,1,8,1:0:0:0:
138,163,110371,2,0,P|76:166|23:184,1,88,2|0,1:0|1:0,1:0:0:0:
240,16,110659,6,0,B|297:95|245:206,1,176,14|8,1:2|1:2,1:0:0:0:
135,288,111092,2,0,L|134:387,1,88,10|0,1:0|1:0,1:0:0:0:
134,375,111309,1,8,1:2:0:0:
134,375,111381,1,4,1:0:0:0:
226,279,111525,1,8,1:2:0:0:
89,213,111669,1,10,1:0:0:0:
227,358,111813,6,8,B|322:399|408:311,1,176,14|0,1:2|1:2,1:2:0:0:
492,239,112246,2,0,L|401:227,1,88,10|0,1:0|1:0,1:0:0:0:
291,112,112534,2,0,P|287:50|297:15,1,88,8|2,1:2|1:0,1:0:0:0:
418,4,112823,1,8,1:0:0:0:
399,103,112967,1,2,1:0:0:0:
298,193,113111,6,0,P|189:180|109:166,1,176,10|8,1:2|1:0,1:0:0:0:
8,99,113544,2,0,P|9:38|24:6,1,88,2|8,1:0|1:2,1:0:0:0:
173,2,113833,2,0,P|172:63|157:95,1,88,0|10,1:0|1:0,1:0:0:0:
49,216,114121,1,2,1:0:0:0:
105,297,114265,5,10,1:0:0:0:
79,202,114409,1,8,1:2:0:0:
50,103,114554,1,8,1:2:0:0:
1,269,114698,1,10,1:0:0:0:
172,237,114842,2,0,P|238:220|263:188,1,88,12|10,1:2|1:2,1:0:0:0:
418,31,115131,6,0,P|365:129|392:357,1,330.00000000000085,12|0,1:2|1:0,1:0:0:0:
450,288,115996,5,2,2:0:0:0:
450,288,116140,2,0,L|531:279,1,70.4,2|0,2:0|2:0,2:0:0:0:
353,204,116429,2,0,B|432:220|495:151,1,140.8,2|0,2:0|2:0,2:0:0:0:
293,140,116861,2,0,B|319:306,1,140.8,2|0,2:0|2:0,2:0:0:0:
131,183,117294,2,0,B|105:17,1,140.8,2|0,3:2|3:0,3:0:0:0:
0,254,117727,6,0,P|57:263|106:254,1,88,8|0,1:2|1:0,1:0:0:0:
239,64,118015,2,0,P|282:60|325:69,1,88,12|0,1:2|1:0,1:0:0:0:
365,238,118304,2,0,L|354:338,1,88,8|0,1:2|1:0,1:0:0:0:
486,152,118592,2,0,L|497:52,1,88,12|0,1:2|1:0,1:0:0:0:
511,287,118881,6,0,B|413:332|317:250,1,176,14|8,1:2|1:0,1:0:0:0:
216,112,119313,1,0,1:0:0:0:
221,210,119458,1,10,1:2:0:0:
310,150,119602,1,2,1:2:0:0:
255,21,119746,1,8,1:0:0:0:
138,65,119890,1,2,1:0:0:0:
51,107,120034,6,0,B|2:211|89:308,1,176,10|8,1:2|1:0,1:0:0:0:
183,348,120467,2,0,L|196:232,1,88,2|8,1:0|1:2,1:0:0:0:
326,129,120756,2,0,L|313:245,1,88,2|8,1:0|1:0,1:0:0:0:
369,345,121044,5,10,1:2:0:0:
369,345,121116,1,8,1:2:0:0:
369,345,121188,1,8,1:2:0:0:
460,274,121333,1,0,1:0:0:0:
348,201,121477,1,10,1:0:0:0:
348,201,121621,1,0,1:0:0:0:
238,287,121765,1,10,1:2:0:0:
166,258,121909,1,2,1:0:0:0:
94,229,122054,2,0,L|2:196,1,88,12|2,1:0|1:0,1:0:0:0:
174,0,122342,6,0,B|222:77|172:170,1,176,10|8,1:2|1:0,1:0:0:0:
40,302,122775,2,0,P|21:358|16:403,1,88,2|8,1:0|1:2,1:0:0:0:
198,299,123063,2,0,P|247:329|300:340,1,88,2|8,1:0|1:0,1:0:0:0:
91,177,123352,6,0,L|285:147,1,176,14|8,1:2|1:2,1:0:0:0:
460,231,123784,2,0,B|521:150|463:46,1,176,10|0,1:0|1:0,1:0:0:0:
377,17,124217,1,2,1:0:0:0:
368,113,124361,2,0,L|362:208,1,88,10|0,1:0|1:0,1:0:0:0:
460,350,124650,6,0,B|400:334|400:334|346:368|276:349,1,176,2|8,1:0|1:0,1:0:0:0:
165,266,125083,2,0,L|58:250,1,88,2|8,1:0|1:2,1:0:0:0:
112,348,125371,1,2,1:0:0:0:
139,179,125515,2,0,P|150:105|140:44,1,132,8|0,1:0|1:0,1:0:0:0:
141,48,125804,6,0,P|87:46|38:52,1,88,12|0,1:2|1:0,1:0:0:0:
240,108,126092,2,0,L|254:15,1,88,10|0,1:0|1:0,1:0:0:0:
139,179,126381,2,0,L|125:272,1,88,10|0,1:2|1:0,1:0:0:0:
283,382,126669,2,0,P|296:329|291:275,1,88,10|0,1:0|1:0,1:0:0:0:
226,231,126958,5,10,1:0:0:0:
365,202,127102,1,0,1:2:0:0:
286,98,127246,1,8,1:2:0:0:
358,234,127390,5,10,1:0:0:0:
433,105,127534,1,8,1:2:0:0:
277,65,127679,1,10,1:2:0:0:
289,184,127823,1,10,1:0:0:0:
302,301,127967,1,10,1:2:0:0:
405,359,128111,6,0,P|461:359|516:339,1,88,14|0,1:2|1:0,1:0:0:0:
508,246,128400,1,10,1:0:0:0:
386,208,128544,1,0,1:0:0:0:
311,317,128688,1,10,1:2:0:0:
206,303,128833,2,0,L|107:289,1,88,2|8,1:0|1:0,1:0:0:0:
41,122,129121,1,2,1:0:0:0:
11,242,129265,6,0,B|85:159|207:210,1,176,8|10,1:2|1:0,1:0:0:0:
313,154,129698,2,0,P|325:104|313:42,1,88,2|8,1:0|1:2,1:0:0:0:
177,0,129986,2,0,P|165:50|177:112,1,88,2|8,1:0|1:0,1:0:0:0:
273,235,130275,1,2,1:0:0:0:
378,217,130419,6,0,L|520:195,1,132,8|0,1:2|1:0,1:0:0:0:
508,196,130708,2,0,P|512:246|491:298,1,88,10|0,1:0|1:0,1:0:0:0:
350,356,130996,2,0,L|249:345,1,88,8|0,1:2|1:0,1:0:0:0:
169,177,131284,2,0,L|68:166,1,88,10|0,1:0|1:0,1:0:0:0:
17,239,131573,5,10,1:2:0:0:
118,320,131717,1,0,1:0:0:0:
233,268,131861,1,10,1:0:0:0:
233,268,132006,1,0,1:0:0:0:
176,185,132150,5,8,1:3:0:0:
162,93,132294,1,4,1:3:0:0:
145,0,132438,1,8,1:2:0:0:
26,132,132583,6,0,L|210:98,1,176,14|2,1:0|1:0,1:0:0:0:
361,9,133015,1,14,1:0:0:0:
467,156,133159,2,0,B|510:250|445:351,1,176,14|8,1:2|1:2,1:0:0:0:
363,365,133592,1,10,1:0:0:0:
368,255,133736,6,0,L|375:153,1,88,10|0,1:0|1:0,1:0:0:0:
277,74,134025,1,0,1:0:0:0:
261,178,134169,1,10,1:0:0:0:
369,51,134313,2,0,B|294:0|186:51,1,176,14|8,1:2|1:2,1:0:0:0:
82,127,134746,2,0,P|30:119|-14:90,1,88,10|4,1:0|1:3,1:0:0:0:
179,203,135034,6,0,L|159:111,1,88,10|8,1:0|1:2,1:0:0:0:
129,27,135323,1,8,1:2:0:0:
54,246,135467,2,0,B|142:288|246:211,1,176,14|0,1:0|1:0,1:0:0:0:
378,130,135900,2,0,L|471:146,1,88,10|0,1:0|1:0,1:0:0:0:
308,47,136188,5,2,1:0:0:0:
310,209,136333,2,0,L|319:384,1,176,14|0,1:0|1:0,1:0:0:0:
408,292,136765,2,0,P|457:279|506:280,1,88,10|8,1:0|1:2,1:0:0:0:
211,259,137054,2,0,P|198:216|197:172,1,88,10|0,1:0|1:0,1:0:0:0:
286,63,137342,5,14,1:2:0:0:
196,80,137486,1,0,1:0:0:0:
103,95,137631,2,0,L|-2:108,1,88,8|2,1:0|1:0,1:0:0:0:
161,2,137919,2,0,B|217:81|172:184,1,176,2|8,1:0|1:0,1:0:0:0:
38,272,138352,6,0,P|24:341|32:381,1,88,2|8,1:0|1:2,1:0:0:0:
139,261,138640,1,2,1:0:0:0:
235,283,138784,2,0,L|346:297,1,88,10|0,1:0|1:0,1:0:0:0:
416,374,139073,1,10,1:2:0:0:
512,296,139217,1,2,1:0:0:0:
421,211,139361,2,0,P|418:153|428:110,1,88,10|0,1:0|1:0,1:0:0:0:
487,15,139650,6,0,B|425:5|425:5|380:42|301:23,1,176,10|10,1:2|1:0,1:0:0:0:
113,147,140083,2,0,B|175:137|175:137|220:174|299:155,1,176,10|8,1:2|1:2,1:0:0:0:
384,241,140515,2,0,P|393:188|390:132,1,88,10|0,1:0|1:0,1:0:0:0:
283,279,140804,5,10,1:2:0:0:
380,357,140948,1,2,1:0:0:0:
424,249,141092,1,8,1:0:0:0:
277,193,141236,2,0,B|175:165|89:256,1,176,10|8,1:2|1:2,1:0:0:0:
243,372,141669,2,0,L|231:257,1,88,14|0,1:0|1:0,1:0:0:0:
59,152,141958,6,0,L|77:348,1,176,14|8,1:2|1:0,1:0:0:0:
0,88,142390,2,0,B|85:135|188:75,1,176,10|8,1:2|1:2,1:0:0:0:
276,4,142823,1,10,1:0:0:0:
366,83,142967,1,0,1:0:0:0:
306,167,143111,5,10,1:2:0:0:
306,167,143256,2,0,L|323:280,1,88,2|8,1:0|1:0,1:0:0:0:
473,340,143544,2,0,B|524:258|459:155,1,176,10|8,1:2|1:2,1:0:0:0:
500,69,143977,2,0,L|402:84,1,88,10|0,1:0|1:0,1:0:0:0:
245,226,144265,6,0,B|187:236|187:236|148:294|59:276,1,176,10|10,1:2|1:0,1:0:0:0:
3,145,144698,1,10,1:2:0:0:
105,95,144842,2,0,L|100:194,1,88,10|0,1:2|1:0,1:0:0:0:
240,313,145131,2,0,L|244:225,1,88,10|0,1:0|1:0,1:0:0:0:
214,33,145419,6,0,B|318:-8|395:77,1,176,10|8,1:2|1:0,1:0:0:0:
496,9,145852,2,0,L|491:116,1,88,14|0,1:2|1:0,1:0:0:0:
381,201,146140,1,2,1:0:0:0:
427,296,146284,2,0,P|485:312|520:311,1,88,10|0,1:0|1:0,1:0:0:0:
371,165,146573,5,10,1:0:0:0:
270,288,146717,1,10,1:2:0:0:
270,288,146789,1,2,1:0:0:0:
270,288,146861,2,0,L|255:389,1,88,10|0,1:0|1:0,1:0:0:0:
190,222,147150,1,10,1:0:0:0:
190,222,147222,1,0,1:0:0:0:
190,222,147294,1,10,1:2:0:0:
190,222,147366,1,0,1:0:0:0:
190,222,147438,2,0,P|122:224|53:188,1,132,10|0,1:0|1:0,1:0:0:0:
64,197,147727,5,10,1:0:0:0:
11,78,147871,1,10,1:2:0:0:
11,78,147943,1,2,1:0:0:0:
11,78,148015,2,0,L|101:68,1,88,10|8,1:0|1:2,1:0:0:0:
253,1,148304,1,10,1:0:0:0:
253,1,148376,1,0,1:0:0:0:
253,1,148448,1,10,1:2:0:0:
253,1,148520,1,0,1:0:0:0:
253,1,148592,2,0,B|276:73|273:111|232:184,1,176,10|10,1:0|1:0,1:0:0:0:
89,278,149025,5,10,1:2:0:0:
89,278,149097,1,2,1:0:0:0:
89,278,149169,1,10,1:0:0:0:
199,366,149313,1,8,1:2:0:0:
307,264,149458,1,10,1:0:0:0:
347,246,149530,1,0,1:0:0:0:
390,239,149602,1,10,1:2:0:0:
434,242,149674,1,0,1:0:0:0:
476,256,149746,1,10,1:0:0:0:
414,331,149890,1,10,1:2:0:0:
361,140,150034,6,0,L|375:42,1,88,10|8,1:0|1:2,1:0:0:0:
167,279,150323,2,0,L|153:377,1,88,10|8,1:0|1:2,1:0:0:0:
98,195,150611,1,10,1:0:0:0:
219,222,150756,1,8,1:3:0:0:
343,246,150900,1,4,1:3:0:0:
475,272,151044,6,0,P|499:204|489:102,1,176,14|8,1:2|1:2,1:0:0:0:
437,42,151405,1,8,1:2:0:0:
437,42,151477,2,0,B|379:32|379:32|345:84|255:71,1,176,14|8,1:0|1:2,1:0:0:0:
161,0,151909,1,2,1:0:0:0:
66,89,152054,2,0,P|57:142|65:186,1,88,8|0,1:0|1:0,1:0:0:0:
166,238,152342,5,10,1:2:0:0:
172,122,152486,1,0,1:0:0:0:
61,188,152631,1,10,1:0:0:0:
119,315,152775,2,0,B|184:346|236:337|299:295,1,176,10|8,1:2|1:2,1:0:0:0:
384,335,153208,2,0,L|373:235,1,88,10|0,1:0|1:0,1:0:0:0:
320,67,153496,6,0,P|384:51|435:53,1,88,10|0,1:2|1:0,1:0:0:0:
462,138,153784,1,8,1:3:0:0:
292,280,154073,1,8,1:3:0:0:
125,28,154361,2,0,L|93:362,1,330.00000000000085,12|0,1:2|1:0,1:0:0:0:
184,384,155227,5,4,1:2:0:0:
270,259,155804,1,4,1:2:0:0:
383,363,156381,1,4,1:2:0:0:
477,211,156958,5,12,1:2:0:0:
319,286,157102,1,0,1:0:0:0:
462,373,157246,1,8,1:0:0:0:
415,283,157390,5,8,1:2:0:0:
284,197,157534,1,8,1:0:0:0:
192,325,157679,1,8,1:0:0:0:
319,286,157823,1,8,1:0:0:0:
344,129,157967,1,0,1:0:0:0:
245,30,158111,6,0,B|162:-9|64:47,1,176,14|8,1:2|1:0,1:0:0:0:
8,119,158544,1,0,1:0:0:0:
116,198,158688,1,10,1:2:0:0:
21,297,158833,1,2,1:0:0:0:
111,355,158977,1,8,1:0:0:0:
11,210,159121,5,10,1:2:0:0:
11,210,159193,1,8,1:2:0:0:
11,210,159265,2,0,L|195:200,1,176,8|8,1:2|1:0,1:0:0:0:
341,116,159698,2,0,P|351:58|343:16,1,88,2|8,1:0|1:2,1:0:0:0:
189,0,159986,2,0,P|179:58|187:100,1,88,2|8,1:0|1:0,1:0:0:0:
310,217,160275,1,2,1:0:0:0:
410,199,160419,6,0,L|502:186,1,88,8|0,1:2|1:0,1:0:0:0:
357,103,160708,1,10,1:0:0:0:
310,217,160852,1,0,1:0:0:0:
380,314,160996,1,10,1:2:0:0:
309,374,161140,1,2,1:0:0:0:
309,374,161284,2,0,P|233:372|208:358,1,88,12|2,1:0|1:0,1:0:0:0:
68,382,161573,6,0,B|23:297|91:199,1,176,10|8,1:2|1:0,1:0:0:0:
27,92,162006,2,0,L|123:101,1,88,2|8,1:0|1:2,1:0:0:0:
199,236,162294,2,0,L|286:244,1,88,2|8,1:0|1:0,1:0:0:0:
476,92,162583,6,0,B|396:135|295:73,1,176,14|8,1:2|1:2,1:0:0:0:
208,110,163015,2,0,L|220:16,1,88,10|0,1:0|1:0,1:0:0:0:
284,175,163304,1,8,1:2:0:0:
148,238,163448,1,8,1:2:0:0:
251,343,163592,1,10,1:0:0:0:
321,284,163736,5,10,1:2:0:0:
321,284,163809,1,8,1:2:0:0:
321,284,163881,2,0,L|134:323,1,176,8|8,1:2|1:0,1:0:0:0:
0,373,164313,2,0,P|-8:312|4:258,1,88,10|8,1:2|1:2,1:0:0:0:
102,190,164602,1,2,1:0:0:0:
78,100,164746,2,0,L|63:-2,1,88,8|0,1:0|1:0,1:0:0:0:
15,201,165034,6,0,B|105:246|205:168,1,176,14|10,1:2|1:0,1:0:0:0:
282,64,165467,1,2,1:0:0:0:
374,120,165611,2,0,L|366:216,1,88,2|0,1:0|1:0,1:0:0:0:
255,316,165900,2,0,L|263:220,1,88,10|0,1:0|1:0,1:0:0:0:
295,27,166188,5,10,1:0:0:0:
423,113,166333,1,8,1:2:0:0:
352,215,166477,1,8,1:2:0:0:
459,280,166621,5,10,1:0:0:0:
338,245,166765,1,8,1:2:0:0:
247,362,166909,1,0,1:0:0:0:
342,338,167054,1,14,1:0:0:0:
207,208,167198,1,10,1:2:0:0:
127,271,167342,6,0,P|107:326|106:372,1,88,14|0,1:2|1:0,1:0:0:0:
15,165,167631,2,0,L|102:188,1,88,10|8,1:0|1:2,1:0:0:0:
240,118,167919,1,2,1:0:0:0:
154,10,168063,1,8,1:3:0:0:
154,10,168135,1,8,1:3:0:0:
154,10,168208,1,4,1:3:0:0:
152,107,168352,6,0,B|262:140|322:58,1,176,14|8,1:2|1:2,1:0:0:0:
312,69,168784,1,8,1:0:0:0:
435,4,168929,1,8,1:3:0:0:
435,4,169001,1,8,1:3:0:0:
435,4,169073,1,4,1:3:0:0:
510,139,169217,1,4,1:3:0:0:
401,202,169361,1,4,1:3:0:0:
382,295,169506,6,0,P|436:301|516:276,1,132.0000000000003,8|0,1:2|1:0,1:0:0:0:
332,362,169938,6,0,L|321:204,1,132,10|0,1:0|1:0,1:0:0:0:
322,230,170227,2,0,P|326:179|316:137,1,88,8|0,1:2|1:0,1:0:0:0:
448,48,170515,2,0,P|439:91|443:134,1,88,10|0,1:0|1:0,1:0:0:0:
186,112,170804,2,0,B|262:127|300:117|356:48,1,176,10|8,1:2|1:0,1:0:0:0:
180,10,171236,1,8,1:3:0:0:
180,10,171309,1,8,1:3:0:0:
180,10,171381,2,0,B|119:88|164:199,1,176,4|0,1:3|1:0,1:0:0:0:
5,332,171813,6,0,L|188:304,1,176,14|8,1:2|1:2,1:0:0:0:
256,369,172246,1,10,1:0:0:0:
365,222,172390,2,0,B|259:245|188:163,1,176,14|8,1:2|1:2,1:0:0:0:
144,87,172823,1,10,1:0:0:0:
232,25,172967,6,0,L|333:14,1,88,2|0,1:0|1:0,1:0:0:0:
439,92,173256,1,10,1:2:0:0:
351,192,173400,1,10,1:0:0:0:
444,213,173544,2,0,B|480:294|447:392,1,176,14|8,1:2|1:2,1:0:0:0:
365,338,173977,2,0,L|273:323,1,88,10|8,1:0|1:3,1:0:0:0:
148,224,174265,5,10,1:0:0:0:
43,298,174409,2,0,P|35:356|44:395,1,88,10|8,1:2|1:2,1:0:0:0:
15,151,174698,2,0,B|91:228|205:163,1,176,14|8,1:0|1:2,1:0:0:0:
136,95,175131,2,0,L|152:2,1,88,10|0,1:0|1:0,1:0:0:0:
254,140,175419,5,10,1:2:0:0:
338,39,175563,2,0,L|535:15,1,176,14|8,1:0|1:2,1:0:0:0:
377,141,175996,2,0,P|365:192|364:250,1,88,10|0,1:2|1:0,1:0:0:0:
498,329,176284,2,0,P|510:278|511:220,1,88,10|0,1:0|1:0,1:0:0:0:
446,186,176573,5,10,1:2:0:0:
352,275,176717,1,8,1:2:0:0:
258,198,176861,1,10,1:0:0:0:
179,256,177006,2,0,L|77:243,1,88,2|8,1:0|1:2,1:0:0:0:
0,120,177294,1,2,1:0:0:0:
104,19,177438,1,0,1:0:0:0:
191,83,177583,6,0,B|254:79|254:79|299:136|386:116,1,176,10|8,1:2|1:2,1:0:0:0:
473,160,178015,2,8,P|481:96|476:56,1,88,10|0,1:0|1:0,1:0:0:0:
369,5,178304,1,10,1:2:0:0:
353,120,178448,1,8,1:2:0:0:
334,244,178592,2,0,L|321:355,1,88,10|0,1:0|1:0,1:0:0:0:
511,313,178881,6,0,P|465:294|417:297,1,88,10|0,1:2|1:0,1:0:0:0:
220,190,179169,2,0,B|310:237|394:165,1,176,10|8,1:0|1:2,1:0:0:0:
458,67,179602,2,0,L|271:32,1,176,10|0,1:2|1:0,1:0:0:0:
198,2,180034,5,10,1:2:0:0:
102,95,180179,1,8,1:2:0:0:
4,24,180323,1,10,1:0:0:0:
86,0,180467,2,0,B|115:91|53:180,1,176,10|8,1:2|1:2,1:0:0:0:
177,307,180900,2,0,L|166:208,1,88,14|0,1:0|1:0,1:0:0:0:
104,375,181188,6,0,B|195:315|299:371,1,176,14|8,1:2|1:0,1:0:0:0:
345,330,181621,1,2,1:0:0:0:
417,303,181765,2,0,L|515:289,1,88,10|0,1:2|1:0,1:0:0:0:
307,231,182054,2,0,B|279:188|283:122,1,88,10|0,1:0|1:0,1:0:0:0:
383,14,182342,6,0,L|413:194,1,176,14|8,1:2|1:3,1:0:0:0:
502,364,182775,2,0,B|401:405|310:318,1,176,10|4,1:0|1:3,1:0:0:0:
266,264,183208,2,0,L|171:278,1,88,10|0,1:0|1:0,1:0:0:0:
99,345,183496,1,12,1:2:0:0:
99,345,185371,5,12,1:2:0:0:
99,345,185515,2,0,L|81:217,1,99.00000000000024,8|0,1:2|1:0,1:0:0:0:
85,246,185804,2,0,L|97:159,1,88,12|0,1:2|1:0,1:0:0:0:
47,98,186092,1,10,1:0:0:0:
149,22,186236,2,0,B|258:5|324:113,1,176,10|8,1:2|1:2,1:0:0:0:
318,182,186669,1,10,1:0:0:0:
402,217,186813,2,0,L|496:203,1,88,10|8,1:2|1:2,1:0:0:0:
424,129,187102,5,8,1:2:0:0:
313,214,187246,1,10,1:0:0:0:
427,299,187390,2,0,P|440:349|431:396,1,88,10|8,1:2|1:2,1:0:0:0:
312,306,187679,2,0,L|215:318,1,88,8|10,1:2|1:0,1:0:0:0:
99,374,187967,1,10,1:2:0:0:
38,296,188111,5,8,1:2:0:0:
167,220,188256,1,8,1:2:0:0:
92,120,188400,1,10,1:0:0:0:
5,93,188544,5,10,1:2:0:0:
5,93,188616,1,8,1:2:0:0:
5,93,188688,1,8,1:2:0:0:
55,198,188833,1,8,1:2:0:0:
174,138,188977,2,8,L|271:109,1,88,10|10,1:0|1:2,1:0:0:0:
390,15,189265,5,8,1:2:0:0:
495,126,189409,1,8,1:2:0:0:
369,219,189554,1,10,1:0:0:0:
347,136,189698,5,10,1:2:0:0:
455,248,189842,1,8,1:2:0:0:
331,331,189986,1,8,1:2:0:0:
415,373,190131,2,0,L|512:382,1,88,10|10,1:0|1:2,1:0:0:0:
286,237,190419,6,0,B|207:217|147:289,1,132,8|0,1:3|1:0,1:0:0:0:
164,270,190708,1,14,1:2:0:0:
389,156,190996,1,12,1:2:0:0:
192,17,191284,1,12,1:2:0:0:
73,357,191573,5,12,1:2:0:0:
414,250,191861,1,12,1:2:0:0:
122,73,192150,1,12,1:2:0:0:
199,234,192438,1,12,1:2:0:0:
245,127,192727,5,12,1:2:0:0:
245,127,194458,5,0,3:0:0:0:
245,127,194530,1,0,3:0:0:0:
245,127,194602,2,0,B|322:96|353:152|454:104,1,176,12|0,1:2|2:0,1:0:0:0:
