osu file format v14

[General]
AudioFilename: audio.mp3
AudioLeadIn: 0
PreviewTime: 49648
Countdown: 0
SampleSet: Soft
StackLeniency: 0.5
Mode: 0
LetterboxInBreaks: 0
WidescreenStoryboard: 1

[Editor]
Bookmarks: 5804,17342,26573,35804,49650,58881,68111,77198,86573,95804,105034,118881,128111,137342,158111,167342,176573,183496,194458,194530,194602,194890
DistanceSpacing: 0.3
BeatDivisor: 4
GridSize: 32
TimelineZoom: 1.5

[Metadata]
Title:Art as <3
TitleUnicode:Art as ♡
Artist:KOTOKO
ArtistUnicode:KOTOKO
Creator:Shikibe Mayu
Version:Hard
Source:イノセントガール
Tags:Shizuku- Kazato Asa Yogurtt Amateurre Kowari Innocent Girl Front Wing eroge vn visual novel rock video game japanese heart
BeatmapID:2972404
BeatmapSetID:1399810

[Difficulty]
HPDrainRate:4.5
CircleSize:3.8
OverallDifficulty:6.4
ApproachRate:8
SliderMultiplier:1.44
SliderTickRate:0.5

[Events]
//Background and Video events
0,0,"f10a8bc1c.jpg",0,0
//Break Periods
2,86773,93900
//Storyboard Layer 0 (Background)
//Storyboard Layer 1 (Fail)
//Storyboard Layer 2 (Pass)
//Storyboard Layer 3 (Foreground)
//Storyboard Layer 4 (Overlay)
//Storyboard Sound Samples

[TimingPoints]
35,288.461538461538,4,2,1,50,1,0
5804,-100,4,2,1,70,0,0
17342,-125,4,2,1,60,0,0
26573,-100,4,2,1,70,0,0
35804,-100,4,2,1,60,0,0
42583,-100,4,2,1,70,0,0
46910,-100,4,2,1,50,0,0
48496,-100,4,2,1,70,0,0
49650,-90.9090909090909,4,2,1,80,0,1
68111,-90.9090909090909,4,2,1,70,0,0
68256,-100,4,2,1,70,0,0
75034,-100,4,2,1,60,0,0
77198,-100,4,2,1,70,0,0
86573,-100,4,2,1,50,0,0
94650,-100,4,2,1,60,0,0
99121,-100,4,2,1,70,0,0
105034,-100,4,2,1,60,0,0
111813,-100,4,2,1,70,0,0
115996,-100,4,2,1,50,0,0
117727,-100,4,2,1,70,0,0
118881,-90.9090909090909,4,2,1,80,0,1
137342,-100,4,2,1,70,0,0
158111,-90.9090909090909,4,2,1,80,0,1
176573,-90.9090909090909,4,2,1,80,0,0
176717,-100,4,2,1,80,0,0
183496,-125,4,2,1,60,0,0
185804,-90.9090909090909,4,2,1,80,0,1
192727,-111.111111111111,4,2,1,60,0,0

[Colours]
Combo1 : 148,86,92
Combo2 : 217,149,168
Combo3 : 202,155,199
Combo4 : 197,114,129

[HitObjects]
476,327,1044,6,0,P|406:308|336:292,1,144,4|0,3:2|3:0,2:0:0:0:
252,335,1477,2,0,P|217:342|183:351,1,72,8|0,2:0|3:0,2:0:0:0:
117,278,1765,1,8,2:0:0:0:
117,278,1909,2,0,P|151:268|186:261,1,72,0|0,3:0|2:0,2:0:0:0:
272,241,2198,6,0,P|279:169|291:98,1,144,4|0,3:2|3:0,2:0:0:0:
221,46,2631,1,8,2:0:0:0:
221,46,2775,1,0,3:0:0:0:
161,116,2919,1,8,2:0:0:0:
161,116,3063,2,0,P|127:106|91:101,1,72,8|4,2:3|2:3,2:0:0:0:
19,159,3352,1,4,3:1:0:0:
256,192,3496,12,4,4650,3:2:0:0:
428,360,5227,6,0,P|432:342|435:324,3,36,2|2|2|2,2:0|2:0|2:0|2:0,2:0:0:0:
430,295,5515,2,0,P|434:277|437:259,3,36,2|2|2|2,2:0|2:0|2:0|2:0,2:0:0:0:
455,236,5804,6,0,P|384:252|313:264,1,144,4|8,3:1|2:0,2:0:0:0:
264,338,6236,1,0,3:0:0:0:
179,301,6381,1,2,3:2:0:0:
179,301,6525,2,0,P|174:332|165:380,1,72,2|8,3:2|2:0,2:0:0:0:
75,295,6813,6,0,P|62:224|48:153,1,144,6|0,3:2|3:0,2:0:0:0:
109,85,7246,2,0,P|102:49|95:14,1,72,8|2,2:0|2:0,2:0:0:0:
200,48,7534,1,2,3:2:0:0:
200,48,7679,2,0,P|193:83|186:118,1,72,2|8,3:2|2:0,2:0:0:0:
142,197,7967,6,0,P|203:161|274:165,1,144,6|0,3:2|3:0,2:0:0:0:
359,194,8400,2,0,P|354:159|349:123,1,72,10|0,2:0|1:0,2:0:0:0:
457,84,8688,2,0,P|452:120|448:156,1,72,2|0,3:2|3:0,2:0:0:0:
510,233,8977,1,10,2:0:0:0:
510,233,9121,6,0,B|454:244|454:244|435:268|435:268|380:280,1,144,4|0,3:2|3:0,2:0:0:0:
323,357,9554,2,0,P|358:364|392:374,1,72,8|2,2:0|2:0,2:0:0:0:
294,270,9842,1,2,3:2:0:0:
219,324,9986,1,2,3:2:0:0:
219,324,10131,2,0,P|184:333|149:341,1,72,8|2,2:0|3:2,2:0:0:0:
57,358,10419,6,0,P|64:322|74:288,1,72,4|0,3:2|3:0,2:0:0:0:
17,231,10708,1,8,2:0:0:0:
50,151,10852,2,0,P|120:137|190:120,1,144,2|2,3:2|3:2,2:0:0:0:
238,201,11284,1,10,2:0:0:0:
322,200,11429,6,0,P|363:142|355:73,1,144,6|2,3:2|3:2,2:0:0:0:
303,17,11861,1,10,2:0:0:0:
303,17,12006,2,0,P|373:31|443:46,1,144,6|2,3:2|3:2,2:0:0:0:
512,129,12438,2,0,P|476:136|441:143,1,72,10|2,2:0|3:2,2:0:0:0:
394,221,12727,6,0,P|358:213|323:206,1,72,6|2,3:2|3:2,2:0:0:0:
261,262,13015,1,10,2:0:0:0:
180,245,13159,2,0,P|153:181|179:116,1,144,2|2,3:2|3:2,2:0:0:0:
233,62,13592,1,10,2:0:0:0:
233,62,13736,2,0,P|164:85|95:102,1,144,4|2,3:2|3:2,2:0:0:0:
34,181,14169,2,0,P|68:189|103:201,1,72,8|2,2:0|2:0,2:0:0:0:
157,258,14458,1,0,3:0:0:0:
157,258,14602,1,2,3:2:0:0:
239,236,14746,2,0,L|255:165,1,72,10|0,2:0|2:0,2:0:0:0:
332,123,15034,6,0,P|402:131|461:93,2,144,4|10|0,3:2|2:0|3:0,2:0:0:0:
301,45,15756,1,0,3:0:0:0:
301,45,15900,1,10,2:0:0:0:
209,25,16044,6,0,P|138:40|68:55,1,144,12|0,2:0|3:0,2:0:0:0:
17,144,16477,2,0,P|52:151|87:159,1,72,8|0,2:0|3:0,2:0:0:0:
87,159,16693,1,0,3:0:0:0:
87,159,16765,2,0,P|94:194|102:229,1,72,10|0,2:0|3:0,2:0:0:0:
25,308,17054,2,0,P|17:272|9:237,1,72,10|0,2:0|3:0,2:0:0:0:
102,229,17342,6,0,P|158:239|214:251,1,115.2,4|0,3:2|3:2,2:0:0:0:
274,322,17775,1,2,2:0:0:0:
273,322,17919,2,0,P|323:294|379:302,1,115.2,0|2,3:2|3:2,2:0:0:0:
494,195,18496,2,0,P|493:138|458:93,1,115.2,2|0,3:2|3:2,2:0:0:0:
512,11,18929,2,0,P|438:53|356:34,1,172.8,2|0,2:0|3:2,2:0:0:0:
279,148,19650,6,0,P|224:129|167:119,1,115.2,2|0,3:2|3:2,2:0:0:0:
106,62,20083,1,2,2:0:0:0:
106,61,20227,2,0,P|84:113|99:168,1,115.2,0|2,3:2|3:2,2:0:0:0:
134,321,20804,2,0,P|77:310|20:298,2,115.2,2|0|2,3:2|3:2|3:2,2:0:0:0:
296,79,21958,6,0,P|352:68|409:56,1,115.2,2|0,3:2|3:2,2:0:0:0:
474,0,22390,1,2,2:0:0:0:
474,0,22534,2,0,P|496:52|485:108,1,115.2,0|2,3:2|3:2,2:0:0:0:
510,235,23111,2,0,P|453:222|396:212,1,115.2,2|0,3:2|3:2,2:0:0:0:
320,256,23544,2,0,P|366:185|355:101,1,172.8,2|0,2:0|3:2,2:0:0:0:
187,22,24265,6,0,P|132:35|75:48,1,115.2,2|0,3:2|3:2,2:0:0:0:
6,106,24698,2,0,P|55:133|112:130,1,115.2,2|0,2:0|2:0,2:0:0:0:
112,130,25131,1,2,3:2:0:0:
243,230,25419,2,0,P|270:222|298:216,2,57.6,2|8|4,3:2|2:3|2:3,2:0:0:0:
205,308,25852,1,0,3:0:0:0:
205,308,25996,2,0,P|176:313|149:321,1,57.6,8|0,2:0|3:0,2:0:0:0:
86,378,26284,1,8,2:0:0:0:
0,224,26573,6,0,P|9:152|17:81,1,144,4|10,3:2|2:0,2:0:0:0:
0,3,27006,2,0,P|57:44|128:45,1,144,2|0,2:0|3:0,2:0:0:0:
185,107,27438,2,0,P|219:97|255:93,1,72,10|0,2:0|2:0,2:0:0:0:
324,42,27727,2,0,P|303:111|287:181,1,144,2|10,3:2|2:0,2:0:0:0:
205,226,28159,1,2,2:0:0:0:
205,226,28304,2,0,P|215:260|223:295,1,72,0|2,3:0|3:2,2:0:0:0:
225,377,28592,2,0,P|259:366|294:358,1,72,10|0,2:0|2:0,2:0:0:0:
355,296,28881,6,0,P|412:336|482:328,1,144,2|10,3:2|2:0,2:0:0:0:
501,233,29313,2,0,P|467:242|431:249,1,72,2|0,2:0|3:0,2:0:0:0:
374,182,29602,2,0,P|338:174|303:165,1,72,2|10,3:2|2:0,2:0:0:0:
232,62,29890,6,0,P|169:96|98:98,1,144,6|0,3:1|3:0,2:0:0:0:
8,78,30323,2,0,P|16:112|23:148,1,72,8|0,2:0|1:0,2:0:0:0:
0,237,30611,1,0,3:0:0:0:
0,237,30756,1,0,3:0:0:0:
67,297,30900,2,0,P|102:290|137:281,1,72,8|2,2:0|2:0,2:0:0:0:
182,357,31188,6,0,P|189:285|198:214,1,144,4|10,3:2|2:0,2:0:0:0:
146,140,31621,2,0,P|205:103|275:113,1,144,2|0,2:0|3:0,2:0:0:0:
348,69,32054,1,10,2:0:0:0:
348,69,32198,1,2,2:0:0:0:
432,94,32342,6,0,P|425:129|418:164,1,72,6|0,3:2|2:0,2:0:0:0:
499,200,32631,1,10,2:0:0:0:
499,200,32775,2,0,P|428:213|358:232,1,144,2|2,2:0|3:2,2:0:0:0:
298,288,33208,1,10,2:0:0:0:
199,148,33496,6,0,P|201:77|155:24,1,144,6|10,3:2|2:0,2:0:0:0:
74,58,33929,2,0,P|71:128|117:181,1,144,2|2,2:0|3:2,2:0:0:0:
190,241,34361,1,10,2:0:0:0:
190,241,34506,1,6,3:1:0:0:
109,289,34650,6,0,P|180:290|245:320,1,144,2|8,2:0|2:0,2:0:0:0:
314,370,35083,1,2,2:0:0:0:
406,360,35227,2,0,P|410:324|417:288,1,72,0|0,3:0|1:0,2:0:0:0:
501,280,35515,2,0,P|505:244|512:208,1,72,10|2,2:0|2:0,2:0:0:0:
454,140,35804,5,10,2:0:0:0:
388,197,35948,1,10,2:0:0:0:
302,171,36092,1,10,2:0:0:0:
302,171,36525,2,0,P|305:136|311:100,1,72,2|8,3:2|2:0,2:0:0:0:
229,53,36813,6,0,P|216:123|209:195,1,144,6|0,3:1|3:0,2:0:0:0:
224,288,37246,1,10,2:0:0:0:
61,374,37534,2,0,P|17:318|22:247,1,144,2|10,3:2|2:0,2:0:0:0:
67,175,37967,6,0,P|137:190|209:195,1,144,4|0,3:2|3:0,2:0:0:0:
280,153,38400,1,10,2:0:0:0:
280,153,38544,1,2,2:0:0:0:
348,205,38688,2,0,P|341:241|335:276,1,72,2|0,3:2|3:0,2:0:0:0:
275,336,38977,1,8,2:0:0:0:
275,336,39121,1,2,2:0:0:0:
363,378,39265,6,0,P|431:356|502:344,1,144,4|8,3:1|2:0,2:0:0:0:
452,269,39698,1,0,3:0:0:0:
505,190,39842,2,0,P|499:155|489:120,1,72,10|0,2:0|3:0,2:0:0:0:
489,120,40059,1,8,2:0:0:0:
489,120,40131,2,0,L|418:111,1,72,10|0,2:0|3:0,2:0:0:0:
346,18,40419,5,10,2:0:0:0:
292,83,40563,1,10,2:0:0:0:
202,66,40708,1,10,2:0:0:0:
202,66,41140,2,0,P|196:101|192:137,1,72,2|8,3:2|2:0,2:0:0:0:
270,189,41429,6,0,P|288:257|264:323,1,144,6|0,3:1|3:0,2:0:0:0:
192,376,41861,2,0,P|157:366|122:358,1,72,10|0,2:0|1:0,2:0:0:0:
122,358,42078,1,0,1:0:0:0:
122,358,42150,2,0,L|110:286,1,72,2|0,3:2|3:0,2:0:0:0:
52,233,42438,1,10,2:0:0:0:
128,164,42583,6,0,L|269:188,1,144,4|0,3:2|3:0,2:0:0:0:
313,263,43015,2,0,L|383:250,1,72,8|0,2:0|1:0,2:0:0:0:
463,304,43304,1,2,3:2:0:0:
463,304,43448,1,0,3:0:0:0:
496,216,43592,2,0,P|488:181|482:146,1,72,8|2,2:0|2:0,2:0:0:0:
512,72,43881,6,0,B|456:60|456:60|449:40|449:40|384:26,1,144,4|8,3:2|2:0,2:0:0:0:
291,10,44313,2,0,P|307:80|319:150,1,144,0|0,1:0|3:0,2:0:0:0:
388,204,44746,2,0,P|379:239|373:274,1,72,8|2,2:0|2:0,2:0:0:0:
416,362,45034,6,0,P|357:322|287:329,1,144,12|0,2:0|3:0,2:0:0:0:
287,328,45467,1,12,2:0:0:0:
221,275,45611,2,0,L|79:302,1,144,8|4,2:3|3:1,2:0:0:0:
256,192,46044,12,2,47342,2:3:0:0:
23,62,48496,5,0,3:0:0:0:
23,62,48640,2,0,B|65:91|65:91|155:70,1,144,8|0,2:0|3:0,2:0:0:0:
230,119,49073,2,0,P|236:83|244:48,1,72,8|0,2:0|3:0,2:0:0:0:
337,29,49361,2,0,P|330:64|322:99,1,72,10|0,2:0|1:0,2:0:0:0:
295,188,49650,6,0,P|361:146|439:155,1,158.4,6|8,3:1|2:0,2:0:0:0:
439,155,50083,1,0,1:0:0:0:
506,232,50227,1,2,3:2:0:0:
506,232,50371,2,0,P|467:242|431:258,1,79.2,0|8,3:0|2:0,2:0:0:0:
370,329,50659,6,0,P|293:307|216:291,1,158.4,2|0,2:0|2:0,2:0:0:0:
139,362,51092,1,10,2:0:0:0:
56,339,51236,2,0,P|50:299|37:262,1,79.2,0|0,1:0|3:2,2:0:0:0:
115,225,51525,2,0,P|120:185|133:148,1,79.2,2|8,3:2|2:0,2:0:0:0:
49,113,51813,1,2,2:0:0:0:
49,113,51958,6,0,L|206:87,1,158.4,0|8,3:2|2:0,2:0:0:0:
205,87,52390,1,0,1:0:0:0:
275,146,52534,1,2,3:2:0:0:
275,146,52679,2,0,P|266:184|259:223,1,79.2,0|8,3:0|2:0,2:0:0:0:
211,297,52967,6,0,P|272:343|348:334,1,158.4,2|0,2:0|3:0,2:0:0:0:
426,373,53400,1,10,2:0:0:0:
501,324,53544,2,0,P|492:285|482:246,1,79.2,0|0,1:0|3:2,2:0:0:0:
419,185,53833,2,0,P|427:146|437:107,1,79.2,2|8,3:2|2:0,2:0:0:0:
512,38,54121,6,0,B|478:67|478:67|365:48,1,158.4,6|0,3:2|3:0,2:0:0:0:
296,2,54554,2,0,P|312:80|326:158,1,158.4,8|2,2:0|3:2,2:0:0:0:
285,244,54986,1,0,3:0:0:0:
285,244,55131,2,0,P|293:282|300:321,1,79.2,10|0,2:0|2:0,2:0:0:0:
361,384,55419,6,0,P|292:347|215:357,1,158.4,2|8,3:2|2:0,2:0:0:0:
125,384,55852,2,0,P|133:345|140:306,1,79.2,2|0,3:2|2:0,2:0:0:0:
66,266,56140,1,0,3:2:0:0:
66,266,56284,2,0,P|75:228|82:189,1,79.2,8|0,2:0|1:0,2:0:0:0:
172,134,56573,6,0,P|95:146|34:98,2,158.4,4|10|2,3:1|2:0|3:2,2:0:0:0:
251,87,57294,1,0,3:0:0:0:
251,87,57438,2,0,P|259:125|264:164,1,79.2,10|0,2:0|3:0,2:0:0:0:
186,231,57727,6,0,B|163:326|163:326|208:366,1,158.4,10|0,2:0|3:0,2:0:0:0:
277,321,58159,2,0,B|332:311|332:311|362:327|362:327|429:315,1,158.4,10|0,2:0|3:0,2:0:0:0:
509,337,58592,2,0,P|508:297|493:261,1,79.2,10|0,2:0|2:0,2:0:0:0:
511,180,58881,6,0,P|434:180|371:134,1,158.4,6|8,3:1|2:0,2:0:0:0:
334,62,59313,1,0,1:0:0:0:
247,77,59458,1,2,3:2:0:0:
247,77,59602,2,0,P|242:117|237:156,1,79.2,0|8,3:0|2:0,2:0:0:0:
315,206,59890,6,0,B|236:198|251:252|166:248,1,158.4,2|0,2:0|2:0,2:0:0:0:
107,320,60323,1,10,2:0:0:0:
14,288,60467,2,0,P|8:248|0:210,1,79.2,0|0,1:0|3:2,2:0:0:0:
104,155,60756,2,0,P|95:194|89:233,1,79.2,2|8,3:2|2:0,2:0:0:0:
107,320,61044,6,0,B|195:338|175:280|258:295,1,158.4,2|0,2:0|3:0,2:0:0:0:
339,275,61477,2,0,P|345:315|352:353,1,79.2,12|0,2:0|2:0,2:0:0:0:
442,384,61765,1,2,3:2:0:0:
442,384,61909,1,0,3:0:0:0:
499,318,62054,2,0,P|492:278|485:240,1,79.2,10|0,0:0|0:0,0:0:0:0:
420,174,62342,6,0,P|343:188|276:150,1,158.4,2|8,3:2|2:0,2:0:0:0:
198,213,62775,1,0,1:0:0:0:
198,213,62847,1,0,1:0:0:0:
198,213,62919,2,0,P|188:174|179:135,2,79.2,2|0|8,3:2|3:2|2:0,2:0:0:0:
290,285,63352,6,0,P|213:270|146:308,1,158.4,4|0,3:1|3:2,2:0:0:0:
97,373,63784,1,8,2:0:0:0:
12,335,63929,2,0,P|17:295|24:256,1,79.2,6|0,3:2|2:0,2:0:0:0:
87,182,64217,1,0,3:2:0:0:
2,144,64361,1,8,2:0:0:0:
2,144,64506,2,0,P|80:131|157:113,1,158.4,4|2,3:2|3:2,2:0:0:0:
216,46,64938,1,8,2:0:0:0:
292,83,65083,6,0,P|280:161|270:239,1,158.4,4|0,3:2|3:2,2:0:0:0:
219,316,65515,2,0,P|258:325|295:338,1,79.2,8|0,2:0|3:0,2:0:0:0:
375,364,65804,6,0,P|451:366|503:309,1,158.4,10|0,2:0|3:0,2:0:0:0:
493,226,66236,2,0,P|415:211|339:187,1,158.4,10|0,2:0|3:0,2:0:0:0:
268,249,66669,2,0,P|260:210|248:172,1,79.2,10|0,2:0|3:0,2:0:0:0:
314,76,66958,5,2,3:0:0:0:
314,76,67102,2,0,B|227:64|254:110|160:97,1,158.4,14|0,2:0|3:0,2:0:0:0:
83,56,67534,2,0,B|65:10|18:16|18:16|-9:55|13:86,1,158.4,8|10,2:0|2:0,2:0:0:0:
19,219,68111,5,4,3:1:0:0:
91,267,68256,2,0,B|168:264|134:208|216:208,1,144,0|2,3:2|1:2,2:0:0:0:
291,242,68688,2,0,P|296:206|288:171,1,72,0|2,3:0|3:2,2:0:0:0:
221,125,68977,1,8,2:0:0:0:
238,50,69121,6,0,B|264:16|314:12|314:12|333:37|361:39,1,144,2|0,2:0|3:0,2:0:0:0:
453,32,69554,2,0,P|441:65|433:100,1,72,8|2,2:0|2:0,2:0:0:0:
511,136,69842,2,0,P|441:147|374:175,1,144,2|8,3:2|2:0,2:0:0:0:
267,316,70419,6,0,P|200:334|146:290,1,144,4|8,3:1|2:0,2:0:0:0:
84,235,70852,1,2,2:0:0:0:
84,235,70996,2,0,P|48:241|14:254,2,72,2|2|8,3:2|3:2|2:0,2:0:0:0:
210,146,71573,6,0,P|243:158|279:165,1,72,2|0,3:2|3:2,2:0:0:0:
360,223,71861,1,8,2:0:0:0:
360,223,72006,2,0,P|322:163|340:95,1,144,2|0,3:2|3:0,2:0:0:0:
428,75,72438,2,0,P|420:110|413:145,1,72,10|0,2:0|2:0,2:0:0:0:
416,290,72727,6,0,P|347:267|276:261,1,144,4|8,3:1|2:0,2:0:0:0:
204,302,73159,2,0,P|153:349|84:339,1,144,2|0,3:2|3:2,2:0:0:0:
83,338,73592,1,8,2:0:0:0:
16,177,73881,6,0,P|51:183|85:193,1,72,12|0,2:0|3:2,2:0:0:0:
130,266,74169,1,0,3:2:0:0:
130,266,74313,2,0,B|110:188|159:212|135:124,1,144,8|8,2:0|2:0,2:0:0:0:
133,39,74746,2,0,P|166:52|201:61,1,72,4|0,2:3|2:0,2:0:0:0:
306,23,75034,6,0,B|361:-11|413:46|413:46|384:59|371:98|382:127,1,216,4|0,3:1|2:0,2:0:0:0:
478,197,75756,1,2,2:0:0:0:
442,307,76044,6,0,P|407:316|372:325,1,72,2|0,2:0|1:0,2:0:0:0:
300,375,76333,2,0,P|291:340|281:305,1,72,2|0,2:0|1:0,2:0:0:0:
341,247,76621,2,0,B|375:217|375:167|375:167|339:126,1,144,2|2,2:0|2:0,2:0:0:0:
339,126,77054,1,2,3:2:0:0:
380,44,77198,6,0,P|326:88|255:88,1,144,6|0,3:2|3:0,2:0:0:0:
192,30,77631,1,10,2:0:0:0:
38,126,77919,2,0,P|55:195|68:266,1,144,2|10,3:2|2:0,2:0:0:0:
24,344,78352,6,0,P|81:303|151:303,1,144,4|0,3:2|3:0,2:0:0:0:
201,374,78784,1,8,2:0:0:0:
276,332,78929,2,0,P|259:263|250:191,1,144,2|2,3:2|3:2,2:0:0:0:
250,191,79361,1,8,2:0:0:0:
277,67,79650,6,0,P|312:61|346:50,1,72,4|0,3:2|3:0,2:0:0:0:
417,6,79938,1,8,2:0:0:0:
472,73,80083,2,0,B|449:166|487:118|465:215,1,144,2|2,3:2|3:2,2:0:0:0:
509,285,80515,1,10,2:0:0:0:
509,285,80659,1,6,3:2:0:0:
422,372,80948,6,0,P|388:362|353:355,1,72,2|10,3:2|2:0,2:0:0:0:
275,383,81236,2,0,P|229:329|240:260,1,144,6|2,3:2|3:2,2:0:0:0:
314,222,81669,1,10,2:0:0:0:
314,222,81813,2,0,P|324:188|329:152,1,72,2|6,3:2|3:2,2:0:0:0:
213,18,82246,6,0,P|159:62|88:61,1,144,2|8,2:0|2:0,2:0:0:0:
2,45,82679,2,0,P|10:79|18:115,1,72,2|2,3:2|2:0,2:0:0:0:
0,198,82967,2,0,P|54:153|125:154,1,144,4|10,3:2|2:0,2:0:0:0:
196,199,83400,1,2,2:0:0:0:
196,199,83544,1,0,3:0:0:0:
276,162,83688,5,8,2:0:0:0:
276,162,83833,2,0,P|284:94|347:63,1,144,2|0,2:0|2:0,2:0:0:0:
424,88,84265,1,4,3:2:0:0:
256,192,84337,12,2,86573,2:0:0:0:
334,118,94650,5,4,2:3:0:0:
334,117,94794,2,0,P|342:81|347:46,2,72,4|4|0,2:3|2:3|3:0,2:0:0:0:
404,169,95227,2,0,P|395:204|390:239,1,72,8|0,2:0|3:0,2:0:0:0:
449,308,95515,1,8,2:0:0:0:
275,347,95804,6,0,B|213:331|206:386|136:370,1,144,4|2,3:2|2:0,2:0:0:0:
68,333,96236,1,0,3:2:0:0:
68,333,96381,2,0,P|53:262|37:192,1,144,8|2,2:0|2:0,2:0:0:0:
91,19,96958,5,2,3:2:0:0:
18,46,97102,2,0,P|67:94|136:84,1,144,0|0,3:0|3:2,2:0:0:0:
192,16,97534,1,8,2:0:0:0:
241,144,97823,2,0,P|232:178|224:214,1,72,2|0,2:0|2:0,2:0:0:0:
158,267,98111,6,0,P|228:263|285:304,1,144,4|2,3:2|2:0,2:0:0:0:
340,375,98544,2,0,P|374:366|409:357,1,72,0|8,3:2|2:0,2:0:0:0:
494,384,98833,2,0,P|502:349|511:314,1,72,0|2,2:0|2:0,2:0:0:0:
490,227,99121,6,0,B|413:250|413:250|355:221,1,144,6|0,3:1|3:0,2:0:0:0:
280,177,99554,2,0,P|245:182|210:192,1,72,8|0,2:0|1:0,2:0:0:0:
184,282,99842,2,0,P|219:276|254:266,1,72,0|0,3:0|3:0,2:0:0:0:
310,332,100131,1,8,2:0:0:0:
310,332,100275,1,2,2:0:0:0:
242,383,100419,6,0,P|172:364|101:351,1,144,4|10,3:2|2:0,2:0:0:0:
22,375,100852,2,0,P|17:305|61:251,1,144,2|0,2:0|2:0,2:0:0:0:
22,185,101284,1,10,2:0:0:0:
22,185,101429,1,2,2:0:0:0:
84,133,101573,6,0,P|118:145|152:156,1,72,6|0,3:2|2:0,2:0:0:0:
183,236,101861,1,10,2:0:0:0:
263,203,102006,2,0,B|344:189|313:235|402:222,1,144,2|2,2:0|3:2,2:0:0:0:
466,272,102438,1,10,2:0:0:0:
506,113,102727,6,0,P|478:50|411:30,1,144,6|10,3:2|2:0,2:0:0:0:
342,0,103159,2,0,P|306:8|272:16,1,72,2|0,2:0|2:0,2:0:0:0:
227,81,103448,1,2,3:2:0:0:
302,121,103592,1,10,2:0:0:0:
302,121,103736,6,0,P|284:191|269:262,1,144,6|0,3:1|3:0,2:0:0:0:
316,333,104169,1,8,2:0:0:0:
246,381,104313,1,0,1:0:0:0:
246,381,104385,1,0,1:0:0:0:
246,381,104458,2,0,P|212:371|177:364,1,72,0|2,3:0|3:2,2:0:0:0:
116,303,104746,2,0,P|81:313|46:320,1,72,10|2,2:0|2:0,2:0:0:0:
11,241,105034,5,10,2:0:0:0:
61,174,105179,1,10,2:0:0:0:
25,95,105323,1,10,2:0:0:0:
25,95,105756,6,0,P|22:60|36:27,1,72,2|8,3:2|2:0,2:0:0:0:
119,0,106044,2,0,P|155:60|148:130,1,144,6|0,3:1|3:0,2:0:0:0:
92,190,106477,2,0,P|100:224|108:260,1,72,10|0,2:0|1:0,2:0:0:0:
33,300,106765,2,0,P|104:316|173:337,1,144,2|10,3:2|2:0,2:0:0:0:
245,379,107198,6,0,B|268:335|268:335|248:242,1,144,4|0,3:2|3:0,2:0:0:0:
171,203,107631,2,0,P|179:161|186:121,1,72,10|2,2:0|2:0,2:0:0:0:
144,64,107919,1,2,3:2:0:0:
144,64,108063,1,0,3:0:0:0:
199,5,108208,2,0,P|228:24|264:28,1,72,8|2,2:0|2:0,2:0:0:0:
326,80,108496,6,0,P|394:67|450:109,1,144,4|8,3:1|2:0,2:0:0:0:
512,55,108929,2,0,P|491:124|477:194,1,144,0|0,3:0|3:0,2:0:0:0:
477,194,109289,1,8,2:0:0:0:
477,194,109361,2,0,P|487:228|496:263,1,72,10|0,2:0|3:0,2:0:0:0:
435,356,109650,5,10,2:0:0:0:
370,299,109794,1,10,2:0:0:0:
286,331,109938,1,10,2:0:0:0:
286,330,110371,6,0,P|281:295|274:260,1,72,2|8,3:2|2:0,2:0:0:0:
344,220,110659,2,0,P|372:156|353:88,1,144,6|0,3:1|3:0,2:0:0:0:
314,22,111092,2,0,P|279:31|244:39,1,72,10|0,2:0|1:0,2:0:0:0:
201,112,111381,2,0,B|143:70|143:70|73:89,1,144,2|10,3:2|2:0,2:0:0:0:
4,32,111813,6,0,P|22:101|35:172,1,144,4|0,3:2|3:0,2:0:0:0:
0,259,112246,2,0,P|35:266|69:277,1,72,8|0,2:0|1:0,2:0:0:0:
120,344,112534,2,0,P|155:345|187:330,1,72,2|0,3:2|3:0,0:0:0:0:
216,248,112823,1,10,2:0:0:0:
216,248,112968,1,0,3:0:0:0:
148,194,113111,6,0,B|155:145|155:145|145:111|145:111|153:52,1,144,4|8,3:2|2:0,2:0:0:0:
223,0,113544,2,0,P|279:42|350:40,1,144,0|0,1:0|3:0,2:0:0:0:
430,3,113977,2,0,P|436:38|443:73,1,72,8|2,2:0|2:0,2:0:0:0:
511,163,114265,6,0,P|441:164|392:214,1,144,12|0,2:0|3:0,2:0:0:0:
443,286,114698,1,12,2:0:0:0:
387,357,114842,2,0,P|354:345|318:339,1,72,8|0,2:3|2:0,2:0:0:0:
256,275,115131,1,4,3:1:0:0:
256,192,115203,12,2,117150,2:3:0:0:
333,67,117727,6,0,B|405:51|405:51|433:69,1,108,4|0,3:2|2:0,2:0:0:0:
441,74,118015,2,0,L|427:146,1,72,4|0,3:2|2:0,2:0:0:0:
475,210,118304,2,0,B|403:194|403:194|374:212,1,108,4|0,3:2|2:0,2:0:0:0:
367,217,118592,2,0,L|381:289,1,72,4|0,3:2|2:0,2:0:0:0:
453,333,118881,6,0,B|367:314|394:363|298:346,1,158.4,6|8,3:1|2:0,2:0:0:0:
298,346,119313,1,0,1:0:0:0:
221,379,119458,1,2,3:2:0:0:
221,379,119602,2,0,P|217:339|208:301,1,79.2,0|8,3:0|2:0,2:0:0:0:
275,247,119890,6,0,P|325:188|315:112,1,158.4,2|0,2:0|2:0,2:0:0:0:
381,53,120323,1,10,2:0:0:0:
294,23,120467,2,0,P|256:32|218:41,1,79.2,0|0,1:0|3:2,2:0:0:0:
139,0,120756,2,0,P|129:38|120:76,1,79.2,2|8,3:2|2:0,2:0:0:0:
41,123,121044,1,2,2:0:0:0:
78,198,121188,6,0,B|137:183|137:183|229:213,1,158.4,0|8,3:2|2:0,2:0:0:0:
288,153,121621,1,0,1:0:0:0:
377,166,121765,1,2,3:2:0:0:
377,166,121909,2,0,P|383:204|392:243,1,79.2,0|8,3:0|2:0,2:0:0:0:
482,271,122198,6,0,P|430:328|353:326,1,158.4,2|0,2:0|3:0,2:0:0:0:
282,383,122631,1,10,2:0:0:0:
202,332,122775,2,0,P|163:342|126:354,1,79.2,0|0,1:0|3:2,2:0:0:0:
58,280,123063,2,0,P|95:267|133:257,1,79.2,2|8,3:2|2:0,2:0:0:0:
278,270,123352,6,0,P|321:205|307:129,1,158.4,6|0,3:2|3:0,2:0:0:0:
399,87,123784,2,0,P|320:77|248:45,1,158.4,8|2,2:0|3:2,2:0:0:0:
171,0,124217,1,0,3:0:0:0:
91,19,124361,2,0,P|73:53|76:92,1,79.2,10|2,2:0|2:0,2:0:0:0:
0,140,124650,6,0,P|78:139|142:182,1,158.4,2|8,3:2|2:0,2:0:0:0:
81,256,125083,2,0,P|157:234|234:215,1,158.4,2|0,3:2|3:2,2:0:0:0:
315,257,125515,2,0,P|325:218|331:179,1,79.2,8|0,2:0|1:0,2:0:0:0:
281,113,125804,1,4,3:1:0:0:
67,156,126092,6,0,P|55:77|43:0,2,158.4,10|2|10,2:0|3:2|2:0,2:0:0:0:
148,184,126813,1,0,3:0:0:0:
192,108,126958,6,0,P|229:91|267:82,1,79.2,10|0,2:0|3:0,2:0:0:0:
316,18,127246,1,0,3:0:0:0:
399,34,127390,2,0,P|447:100|425:181,1,158.4,10|0,2:0|3:0,2:0:0:0:
417,261,127823,2,0,P|456:251|495:245,1,79.2,10|0,2:0|1:0,2:0:0:0:
478,338,128111,6,0,P|402:315|324:297,1,158.4,6|8,3:1|2:0,2:0:0:0:
270,373,128544,1,0,1:0:0:0:
186,355,128688,1,2,3:2:0:0:
186,355,128833,2,0,P|184:315|174:277,1,79.2,0|8,3:0|2:0,2:0:0:0:
256,239,129121,6,0,B|289:201|289:201|265:95,1,158.4,2|0,2:0|3:0,2:0:0:0:
331,36,129554,1,10,2:0:0:0:
255,0,129698,2,0,P|217:13|179:22,1,79.2,0|0,1:0|3:2,2:0:0:0:
87,86,129986,2,0,P|125:95|162:108,1,79.2,2|8,3:2|2:0,2:0:0:0:
226,183,130275,6,0,P|287:134|363:143,1,158.4,2|0,2:0|3:0,2:0:0:0:
438,92,130708,2,0,P|446:130|453:169,1,79.2,12|0,2:0|2:0,2:0:0:0:
511,262,130996,2,0,P|454:277|422:325,1,118.8,2|0,3:2|2:0,2:0:0:0:
419,340,131284,2,0,L|341:325,1,79.2,10|0,2:0|2:0,2:0:0:0:
261,384,131573,6,0,P|306:321|283:248,1,158.4,2|8,3:2|2:0,2:0:0:0:
334,175,132006,1,0,1:0:0:0:
334,175,132078,1,0,1:0:0:0:
334,175,132150,2,0,P|371:186|410:195,2,79.2,2|0|8,3:2|3:2|2:0,2:0:0:0:
362,85,132583,6,0,P|303:136|227:131,1,158.4,4|0,3:1|3:2,2:0:0:0:
190,58,133015,1,8,2:0:0:0:
110,73,133159,2,0,P|101:111|91:149,1,79.2,6|0,3:2|2:0,2:0:0:0:
12,189,133448,1,0,3:2:0:0:
56,267,133592,1,8,2:0:0:0:
56,267,133736,6,0,P|132:248|210:234,1,158.4,4|2,3:2|3:2,2:0:0:0:
278,284,134169,1,8,2:0:0:0:
354,261,134313,2,0,P|393:193|378:117,1,158.4,4|0,3:2|3:2,2:0:0:0:
318,48,134746,2,0,P|356:38|395:32,1,79.2,8|0,2:0|3:0,2:0:0:0:
486,0,135034,6,0,P|474:78|463:156,1,158.4,10|0,2:0|3:0,2:0:0:0:
378,117,135467,2,0,P|300:110|237:155,1,158.4,10|0,2:0|3:0,2:0:0:0:
289,221,135900,2,0,P|280:260|271:299,1,79.2,10|0,2:0|3:0,2:0:0:0:
334,352,136188,5,2,3:0:0:0:
251,384,136333,2,0,B|196:365|196:365|162:373|162:373|99:354,1,158.4,14|0,2:0|3:0,2:0:0:0:
31,310,136765,2,0,B|8:199|8:199|40:229,1,158.4,8|10,2:0|2:0,2:0:0:0:
213,250,137342,6,0,B|293:237|272:273|355:260,1,144,4|8,3:2|2:0,2:0:0:0:
427,306,137775,1,2,2:0:0:0:
486,257,137919,2,0,P|479:221|473:186,1,72,0|0,3:0|3:0,2:0:0:0:
509,115,138208,1,8,2:0:0:0:
475,38,138352,6,0,B|408:53|408:53|344:12,1,144,2|0,3:2|3:0,2:0:0:0:
269,40,138784,2,0,P|264:75|257:111,1,72,8|2,2:0|2:0,2:0:0:0:
330,156,139073,2,0,P|336:191|341:227,1,72,0|0,3:0|3:0,2:0:0:0:
406,276,139361,2,0,P|353:282|313:317,1,108,8|0,2:0|2:0,2:0:0:0:
310,333,139650,6,0,B|262:327|262:327|232:345|232:345|172:335,1,144,0|8,3:0|2:0,2:0:0:0:
91,384,140083,2,0,P|125:322|103:256,1,144,2|0,2:0|3:0,2:0:0:0:
27,217,140515,1,8,2:0:0:0:
27,217,140659,1,0,2:0:0:0:
0,129,140804,6,0,P|34:118|69:111,1,72,2|0,3:2|2:0,2:0:0:0:
131,158,141092,1,8,2:0:0:0:
180,94,141236,2,0,P|219:37|288:26,1,144,2|0,2:0|3:0,2:0:0:0:
370,2,141669,2,0,P|374:37|382:72,1,72,8|2,2:0|2:0,2:0:0:0:
442,150,141958,6,0,P|372:132|301:116,2,144,4|10|0,3:2|2:0|3:0,2:0:0:0:
442,150,142679,1,2,3:2:0:0:
503,234,142823,2,0,P|468:238|433:247,1,72,8|0,2:0|2:0,2:0:0:0:
396,324,143111,6,0,P|328:339|271:300,1,144,2|10,3:2|2:0,2:0:0:0:
316,230,143544,2,0,P|308:159|291:89,1,144,2|2,2:0|3:2,2:0:0:0:
291,89,143977,1,8,2:0:0:0:
176,24,144265,6,0,B|127:13|127:13|83:29|83:29|37:18,1,144,4|10,3:2|2:0,2:0:0:0:
2,98,144698,2,0,P|23:166|35:237,1,144,2|2,2:0|3:2,2:0:0:0:
12,322,145131,1,8,2:0:0:0:
12,322,145275,1,0,2:0:0:0:
74,370,145419,6,0,P|107:358|142:349,1,72,2|0,3:2|2:0,2:0:0:0:
220,382,145708,1,10,2:0:0:0:
280,330,145852,2,0,B|296:245|251:279|260:190,1,144,2|2,2:0|3:2,2:0:0:0:
260,191,146284,1,8,2:0:0:0:
317,13,146573,6,0,P|385:27|424:85,1,144,12|8,2:0|2:0,2:0:0:0:
506,134,147006,1,0,3:0:0:0:
506,134,147078,1,0,3:0:0:0:
506,134,147150,2,0,P|490:204|478:275,1,144,10|8,2:0|2:0,2:0:0:0:
503,352,147583,1,0,3:0:0:0:
420,330,147727,6,0,B|361:340|361:340|346:360|346:360|287:370,1,144,12|8,2:0|2:0,2:0:0:0:
223,308,148159,1,0,3:0:0:0:
223,308,148232,1,0,3:0:0:0:
223,308,148304,2,0,P|224:238|281:200,1,144,8|8,2:0|2:0,2:0:0:0:
389,86,148881,6,0,P|323:58|253:43,1,144,12|8,2:0|2:0,2:0:0:0:
178,12,149313,1,0,3:0:0:0:
178,12,149385,1,0,3:0:0:0:
178,12,149458,2,0,P|126:59|56:56,1,144,8|8,2:0|2:0,2:0:0:0:
21,126,149890,1,0,3:0:0:0:
81,186,150034,6,0,P|71:221|64:257,1,72,12|2,2:0|3:2,2:0:0:0:
28,336,150323,2,0,P|73:307|126:308,1,108,8|0,2:0|2:0,2:0:0:0:
144,316,150611,2,0,P|178:306|213:299,1,72,8|8,2:0|2:0,2:0:0:0:
275,359,150900,1,8,2:0:0:0:
352,332,151044,2,0,B|378:287|357:241|357:241|369:193,1,144,0|0,3:0|3:0,2:0:0:0:
376,174,151405,1,0,3:0:0:0:
376,174,151477,6,0,B|318:185|318:185|311:194|311:194|239:209,1,144,12|2,2:1|2:0,2:0:0:0:
170,161,151909,1,0,3:0:0:0:
181,76,152054,2,0,P|216:80|250:92,1,72,8|2,2:0|2:0,2:0:0:0:
313,34,152342,6,0,P|379:15|436:55,1,144,4|8,3:2|2:0,2:0:0:0:
512,5,152775,2,0,P|485:71|466:141,1,144,0|0,1:0|3:0,2:0:0:0:
500,220,153208,1,8,2:0:0:0:
511,381,153496,6,0,P|454:340|384:344,1,144,12|0,2:0|3:0,2:0:0:0:
311,379,153929,1,0,1:0:0:0:
253,328,154073,2,0,P|268:257|274:230,1,72,8|0,2:3|3:1,2:0:0:0:
282,173,154361,1,4,3:2:0:0:
256,192,154434,12,0,156381,2:0:0:0:
401,54,156958,6,0,B|371:33|329:46|329:46|308:75|268:71,1,144,4|8,3:2|2:0,2:0:0:0:
197,21,157390,1,8,2:0:0:0:
142,79,157534,2,0,P|150:113|156:149,1,72,8|8,2:0|2:0,2:0:0:0:
68,190,157823,2,0,P|76:224|82:260,1,72,8|8,2:0|2:0,2:0:0:0:
82,260,158039,1,8,2:0:0:0:
81,260,158111,6,0,P|159:261|213:316,1,158.4,4|8,3:1|2:0,2:0:0:0:
254,384,158544,1,0,1:0:0:0:
331,365,158688,1,2,3:2:0:0:
331,365,158833,2,0,P|337:325|350:288,1,79.2,0|8,3:0|2:0,2:0:0:0:
297,220,159121,6,0,P|364:260|441:248,1,158.4,2|0,2:0|3:0,2:0:0:0:
501,194,159554,1,10,2:0:0:0:
501,194,159698,2,0,P|489:155|480:117,1,79.2,0|0,1:0|3:2,2:0:0:0:
512,46,159986,2,0,P|473:37|436:22,1,79.2,2|8,3:2|2:0,2:0:0:0:
363,0,160275,1,2,2:0:0:0:
286,24,160419,6,0,P|268:99|304:168,1,158.4,0|8,3:2|2:0,2:0:0:0:
304,168,160852,1,0,1:0:0:0:
391,143,160996,1,2,3:2:0:0:
391,143,161140,2,0,P|399:182|411:220,1,79.2,0|8,3:0|2:0,2:0:0:0:
491,264,161429,6,0,P|414:253|354:301,1,158.4,2|0,2:0|3:0,2:0:0:0:
311,368,161861,1,10,2:0:0:0:
311,368,162006,2,0,P|272:356|234:346,1,79.2,0|0,1:0|3:2,2:0:0:0:
166,269,162294,2,0,P|204:257|242:247,1,79.2,2|8,3:2|2:0,2:0:0:0:
322,220,162583,6,0,B|357:182|357:182|372:128|343:78,1,158.4,6|0,3:2|3:0,2:0:0:0:
427,35,163015,2,0,B|384:27|349:50|349:50|335:13|293:1,1,158.4,8|2,2:0|3:2,2:0:0:0:
215,32,163448,1,0,3:0:0:0:
215,32,163592,2,0,P|175:38|138:52,1,79.2,10|2,2:0|2:0,2:0:0:0:
78,0,163881,6,0,B|51:48|51:48|55:97|74:148,1,158.4,2|8,3:2|2:0,2:0:0:0:
0,197,164313,2,0,P|75:181|138:225,1,158.4,2|0,3:2|3:2,2:0:0:0:
150,313,164746,2,0,P|187:299|225:289,1,79.2,8|0,2:0|2:0,2:0:0:0:
214,384,165034,6,0,P|139:358|61:346,2,158.4,4|10|2,3:1|2:0|2:0,2:0:0:0:
291,341,165756,1,0,3:0:0:0:
357,376,165900,2,0,P|395:363|434:356,1,79.2,10|0,2:0|3:0,2:0:0:0:
487,305,166188,6,0,B|516:222|509:180|509:180|487:158,1,158.4,10|0,2:0|3:0,2:0:0:0:
453,83,166621,2,0,P|416:99|378:109,1,79.2,10|0,2:0|3:0,2:0:0:0:
298,90,166909,1,0,3:0:0:0:
252,167,167054,2,0,P|264:205|270:244,1,79.2,10|0,2:0|1:0,2:0:0:0:
343,313,167342,5,14,2:0:0:0:
286,383,167486,1,0,1:0:0:0:
200,352,167631,1,10,2:0:0:0:
59,277,167919,6,0,P|50:238|41:199,1,79.2,10|8,2:0|2:3,2:0:0:0:
42,200,168135,1,8,2:3:0:0:
42,200,168208,1,8,2:3:0:0:
0,127,168352,2,0,B|53:164|92:160|92:160|116:136|138:124,1,158.4,14|0,2:0|3:0,2:0:0:0:
202,69,168784,1,8,2:0:0:0:
281,108,168929,2,0,P|294:146|300:185,1,79.2,2|0,2:0|3:0,2:0:0:0:
230,231,169217,1,8,2:3:0:0:
285,377,169506,6,0,P|349:333|425:348,1,158.4,2|0,3:0|3:2,2:0:0:0:
446,363,169866,1,0,3:2:0:0:
446,363,169938,2,0,P|454:324|460:285,1,79.2,12|0,2:1|2:0,2:0:0:0:
512,219,170227,2,0,B|443:231|443:231|441:235|441:235|359:250,1,158.4,2|10,3:2|2:0,2:0:0:0:
295,197,170659,1,0,2:0:0:0:
345,132,170804,6,0,P|352:56|295:5,1,158.4,2|8,3:2|2:0,2:0:0:0:
229,47,171236,1,0,1:0:0:0:
229,47,171309,1,0,1:0:0:0:
229,47,171381,2,0,P|191:35|152:25,1,79.2,8|8,2:3|2:3,2:0:0:0:
76,6,171669,1,4,2:3:0:0:
12,90,171813,6,0,B|1:138|29:175|29:175|12:241,1,158.4,4|0,3:1|3:2,2:0:0:0:
12,241,172246,1,8,2:0:0:0:
0,328,172390,2,0,B|14:287|58:267|101:284|101:284|121:316,1,158.400004833985,6|0,3:2|3:2,2:0:0:0:
119,313,172823,1,8,2:0:0:0:
172,384,172967,6,0,P|182:305|195:227,1,158.4,4|2,3:2|3:2,2:0:0:0:
136,166,173400,1,8,2:0:0:0:
158,85,173544,2,0,B|189:61|199:21|199:21|228:50|272:52,1,158.4,4|0,3:2|3:2,2:0:0:0:
334,0,173977,1,8,2:0:0:0:
424,32,174121,5,0,3:0:0:0:
424,32,174193,1,0,3:0:0:0:
424,32,174265,2,0,P|413:70|405:109,1,79.2,12|0,2:0|3:0,2:0:0:0:
456,176,174554,1,0,3:0:0:0:
428,253,174698,6,0,P|353:226|276:209,1,158.4,10|0,2:0|3:0,2:0:0:0:
195,146,175131,2,0,P|155:152|118:165,1,79.2,10|0,2:0|2:0,2:0:0:0:
48,117,175419,1,2,3:0:0:0:
8,198,175563,2,0,B|-11:248|-18:297|-18:297|0:315|16:341,1,158.4,14|0,2:0|3:0,2:0:0:0:
92,384,175996,2,0,B|111:334|118:285|118:285|100:267|83:240,1,158.4,8|10,2:0|2:0,2:0:0:0:
149,19,176573,5,4,3:1:0:0:
149,19,176717,2,0,P|209:55|280:48,1,144,0|2,3:2|1:2,2:0:0:0:
368,6,177150,2,0,P|370:41|376:77,1,72,0|2,3:0|3:2,2:0:0:0:
303,132,177438,1,8,2:0:0:0:
303,132,177583,6,0,P|373:131|432:171,1,144,2|0,2:0|3:0,2:0:0:0:
508,203,178015,1,8,2:0:0:0:
498,287,178159,2,0,P|428:303|361:331,1,144,2|0,2:0|3:0,2:0:0:0:
361,331,178592,1,8,2:0:0:0:
290,200,178881,2,0,P|304:132|266:72,1,144,4|8,3:1|2:0,2:0:0:0:
266,72,179313,1,2,2:0:0:0:
184,33,179458,1,2,3:2:0:0:
184,33,179602,1,2,3:2:0:0:
120,92,179746,2,0,P|86:82|51:73,1,72,8|0,2:0|1:0,2:0:0:0:
1,156,180034,6,0,P|35:164|70:175,1,72,2|0,3:2|3:2,2:0:0:0:
125,246,180323,1,8,2:0:0:0:
125,246,180467,2,0,B|140:211|179:199|179:199|204:225|243:216,1,144,2|0,3:2|3:0,2:0:0:0:
310,178,180900,2,0,P|314:143|323:108,1,72,10|0,2:0|2:0,2:0:0:0:
270,30,181188,6,0,P|330:66|399:54,1,144,4|8,3:1|2:0,2:0:0:0:
466,2,181621,2,0,P|502:62|490:131,1,144,2|0,3:2|3:2,2:0:0:0:
426,198,182054,2,0,P|433:233|439:268,1,72,8|0,2:0|2:0,2:0:0:0:
490,336,182342,6,0,P|424:310|354:292,1,144,12|0,2:0|3:2,2:0:0:0:
274,357,182775,2,0,P|314:300|303:231,1,144,8|8,2:0|2:0,2:0:0:0:
303,231,183208,1,4,2:3:0:0:
290,89,183496,6,0,P|344:108|400:120,2,115.2,4|0|0,3:2|3:0|3:0,2:0:0:0:
233,33,184217,2,0,P|205:39|178:46,1,57.6,2|0,2:0|3:0,2:0:0:0:
104,0,184506,6,0,P|93:56|84:113,1,115.2,2|2,2:0|2:0,2:0:0:0:
17,172,184938,2,0,P|27:198|35:226,1,57.6,0|2,3:0|2:0,2:0:0:0:
10,303,185227,1,0,3:0:0:0:
9,302,185371,2,0,P|66:313|120:333,1,115.2,4|0,3:2|2:0,2:0:0:0:
207,350,185804,6,0,P|197:311|192:272,1,79.2,4|0,3:2|2:0,2:0:0:0:
119,237,186092,1,10,2:0:0:0:
119,237,186236,2,0,P|121:160|181:111,1,158.4,0|0,3:0|3:0,2:0:0:0:
215,33,186669,2,0,P|251:47|290:56,1,79.2,10|2,2:0|2:0,2:0:0:0:
375,13,186958,6,0,P|389:49|398:88,1,79.2,0|0,3:0|3:0,2:0:0:0:
360,162,187246,1,10,2:0:0:0:
360,162,187390,2,0,B|261:142|261:142|211:170,1,158.4,0|0,3:0|3:0,2:0:0:0:
126,156,187823,2,0,P|131:196|144:233,1,79.2,10|0,2:0|3:0,2:0:0:0:
144,233,188039,1,0,3:0:0:0:
144,233,188111,2,0,P|105:237|68:253,1,79.2,0|0,3:2|3:0,2:0:0:0:
24,328,188400,1,10,2:0:0:0:
88,383,188544,6,0,P|162:354|240:337,1,158.4,0|0,3:0|3:0,2:0:0:0:
318,378,188977,1,10,2:0:0:0:
318,378,189121,1,2,2:0:0:0:
393,343,189265,6,0,P|405:305|410:265,1,79.2,0|0,3:0|3:0,2:0:0:0:
426,188,189554,1,10,2:0:0:0:
492,227,189698,2,0,P|413:223|348:181,1,158.4,0|0,3:0|3:0,2:0:0:0:
296,85,190131,5,10,2:0:0:0:
222,123,190275,2,0,P|213:161|206:200,1,79.2,2|8,2:0|3:0,2:0:0:0:
260,342,190563,5,0,3:0:0:0:
260,342,190635,1,0,3:0:0:0:
260,342,190708,2,0,B|158:313|158:313|112:338,2,158.4,12|4|4,2:0|3:2|3:2,2:0:0:0:
400,372,191573,2,0,P|429:320|422:262,1,118.8,4|0,3:2|2:0,2:0:0:0:
422,262,191861,2,0,P|384:252|346:242,1,79.2,4|0,3:2|2:0,2:0:0:0:
235,220,192150,6,0,P|206:168|213:110,1,118.8,4|0,3:2|2:0,2:0:0:0:
213,110,192438,2,0,P|251:100|289:89,1,79.2,4|0,3:2|2:0,2:0:0:0:
362,148,192727,6,0,P|353:184|348:217,2,64.8000000000001,4|2|2,3:2|2:0|2:0,2:0:0:0:
440,125,193159,2,0,P|423:63|413:0,2,129.6,2|2|2,2:0|2:0|2:0,2:0:0:0:
493,222,194025,1,2,2:0:0:0:
493,222,194169,1,2,2:0:0:0:
444,311,194458,2,0,L|449:343,2,32.4,2|2|6,2:0|2:0|3:1,2:0:0:0:
