osu file format v14

[General]
AudioFilename: audio.mp3
AudioLeadIn: 0
PreviewTime: 49648
Countdown: 0
SampleSet: Soft
StackLeniency: 0.5
Mode: 0
LetterboxInBreaks: 0
WidescreenStoryboard: 1

[Editor]
Bookmarks: 5804,17342,26573,35804,49650,58881,68111,77198,86573,95804,105034,107919,118881,125515,128111,137342,158111,167342,176573,183496,194458,194530,194602,194890
DistanceSpacing: 0.3
BeatDivisor: 4
GridSize: 32
TimelineZoom: 1.5

[Metadata]
Title:Art as <3
TitleUnicode:Art as ♡
Artist:KOTOKO
ArtistUnicode:KOTOKO
Creator:Shikibe Mayu
Version:Easy
Source:イノセントガール
Tags:Shizuku- Kazato Asa Yogurtt Amateurre Kowari Innocent Girl Front Wing eroge vn visual novel rock video game japanese heart
BeatmapID:3028228
BeatmapSetID:1399810

[Difficulty]
HPDrainRate:3
CircleSize:3.2
OverallDifficulty:3
ApproachRate:3
SliderMultiplier:0.8
SliderTickRate:1

[Events]
//Background and Video events
0,0,"f10a8bc1c.jpg",0,0
//Break Periods
2,17542,23979
2,86773,93210
//Storyboard Layer 0 (Background)
//Storyboard Layer 1 (Fail)
//Storyboard Layer 2 (Pass)
//Storyboard Layer 3 (Foreground)
//Storyboard Layer 4 (Overlay)
//Storyboard Sound Samples

[TimingPoints]
35,288.461538461538,4,2,1,50,1,0
5804,-100,4,2,1,70,0,0
17342,-100,4,2,1,60,0,0
25419,-111.111111111111,4,2,1,60,0,0
26573,-100,4,2,1,70,0,0
35804,-100,4,2,1,60,0,0
42582,-100,4,2,1,70,0,0
46910,-100,4,2,1,50,0,0
48640,-100,4,2,1,70,0,0
49650,-90.9090909090909,4,2,1,80,0,1
68111,-100,4,2,1,70,0,0
86573,-100,4,2,1,50,0,0
94650,-111.111111111111,4,2,1,60,0,0
99121,-100,4,2,1,70,0,0
105034,-100,4,2,1,60,0,0
111813,-100,4,2,1,70,0,0
115996,-100,4,2,1,50,0,0
117727,-100,4,2,1,70,0,0
118881,-90.9090909090909,4,2,1,80,0,1
137342,-100,4,2,1,70,0,0
158111,-90.9090909090909,4,2,1,80,0,1
176573,-100,4,2,1,80,0,0
183496,-100,4,2,1,60,0,0
185804,-90.9090909090909,4,2,1,80,0,1
192727,-100,4,2,1,60,0,0

[Colours]
Combo1 : 148,86,92
Combo2 : 217,149,168
Combo3 : 202,155,199
Combo4 : 197,114,129

[HitObjects]
486,132,1044,6,0,P|436:101|377:105,1,120,4|8,3:2|2:0,2:0:0:0:
302,134,1765,2,0,L|286:14,2,120,8|4|8,2:0|3:2|2:0,2:0:0:0:
364,184,2919,2,0,B|388:235|388:235|371:296,1,120,8|4,2:0|3:1,2:0:0:0:
256,192,3496,12,4,4650,3:2:0:0:
183,52,5804,6,0,P|260:43|323:90,1,160,4|2,3:1|3:2,2:0:0:0:
440,65,6813,2,0,L|461:183,1,120,6|8,3:2|2:0,2:0:0:0:
476,262,7534,1,2,3:2:0:0:
409,361,7967,6,0,B|364:331|364:331|299:342,1,120,6|10,3:2|2:0,2:0:0:0:
223,314,8688,2,0,P|174:347|115:348,2,120,2|4|8,3:2|3:2|2:0,2:0:0:0:
242,236,9842,1,2,3:2:0:0:
232,76,10419,6,0,L|113:59,1,120,4|2,3:2|3:2,2:0:0:0:
51,110,11140,1,2,3:2:0:0:
74,186,11429,2,0,P|75:225|64:264,1,80,6|2,3:2|3:2,2:0:0:0:
14,325,12006,2,0,P|73:327|127:353,1,120,6|10,3:2|2:0,2:0:0:0:
203,378,12727,6,0,P|228:324|230:264,1,120,6|2,3:2|3:2,2:0:0:0:
174,114,13736,2,0,L|253:102,1,80,4|2,3:2|3:2,2:0:0:0:
320,59,14313,2,0,B|378:48|378:48|430:81,1,120,2|10,2:0|2:0,2:0:0:0:
458,155,15034,5,4,3:2:0:0:
256,192,15179,12,4,17342,3:2:0:0:
442,137,25419,6,0,L|513:125,2,72.0000000000001,2|4|8,3:2|2:3|2:0,2:0:0:0:
289,88,26573,6,0,B|202:88|230:143|144:143,1,160,4|0,3:2|3:0,2:0:0:0:
67,120,27438,1,10,2:0:0:0:
6,172,27727,2,0,L|25:290,2,120,2|2|10,3:2|2:0|2:0,2:0:0:0:
67,120,28881,6,0,P|126:120|178:92,1,120,2|2,3:2|2:0,2:0:0:0:
222,25,29602,1,2,3:2:0:0:
291,64,29890,2,0,L|321:265,1,200,6|0,3:1|3:0,2:0:0:0:
464,330,31188,6,0,P|503:262|494:184,1,160,4|0,3:2|3:0,2:0:0:0:
422,146,32054,1,10,2:0:0:0:
348,177,32342,2,0,L|230:156,1,120,6|2,3:2|2:0,2:0:0:0:
31,129,33496,6,0,P|-1:200|6:279,1,160,6|0,3:2|3:0,2:0:0:0:
71,326,34361,1,10,2:0:0:0:
148,305,34650,2,0,P|180:234|173:155,1,160,2|2,2:0|3:2,2:0:0:0:
278,33,35804,6,0,B|329:61|329:61|389:47,1,120,10|2,2:0|2:0,2:0:0:0:
466,27,36525,1,2,3:2:0:0:
510,93,36813,2,0,L|491:211,1,120,6|10,3:1|2:0,2:0:0:0:
474,290,37534,1,2,3:2:0:0:
380,364,37967,6,0,P|296:315|199:328,1,200,4|2,3:2|3:2,2:0:0:0:
130,369,38977,1,8,2:0:0:0:
50,358,39265,2,0,L|28:199,1,160,4|10,3:1|2:0,2:0:0:0:
98,55,40419,6,0,B|150:85|150:85|208:71,1,120,10|2,2:0|2:0,2:0:0:0:
273,24,41140,1,2,3:2:0:0:
348,51,41429,2,0,P|372:105|365:164,1,120,6|10,3:1|2:0,2:0:0:0:
393,238,42150,2,0,L|513:220,2,120,2|4|8,3:2|3:2|2:0,2:0:0:0:
314,251,43304,5,2,3:2:0:0:
182,342,43881,2,0,P|131:373|72:371,2,120,4|0|8,3:2|1:0|2:0,2:0:0:0:
225,274,45034,6,0,L|213:195,1,80,12|0,2:0|3:0,2:0:0:0:
201,115,45611,1,8,2:3:0:0:
256,192,45900,12,2,47342,2:3:0:0:
479,39,48640,6,0,B|401:55|401:55|381:86|381:86|300:101,1,200,8|10,2:0|2:0,2:0:0:0:
211,113,49650,6,0,P|138:66|53:81,1,176,6|2,3:1|3:2,2:0:0:0:
30,210,50659,2,0,P|103:257|188:242,1,176,2|0,2:0|1:0,2:0:0:0:
256,187,51525,1,2,3:2:0:0:
342,204,51813,6,0,L|363:334,1,132,2|8,2:0|2:0,2:0:0:0:
447,362,52534,1,2,3:2:0:0:
493,238,52967,2,0,B|515:177|515:177|486:69,1,176,2|0,2:0|3:2,2:0:0:0:
409,27,53833,1,2,3:2:0:0:
329,64,54121,6,0,B|267:32|218:81|239:84|189:135|128:110,1,220,6|2,3:2|3:2,2:0:0:0:
58,163,55131,1,10,2:0:0:0:
83,247,55419,2,0,L|64:377,2,132,2|2|8,3:2|3:2|2:0,2:0:0:0:
58,163,56573,5,4,3:1:0:0:
103,87,56861,2,0,B|113:44|113:44|97:2,2,88,10|2|10,2:0|3:2|2:0,2:0:0:0:
186,114,57727,2,0,L|316:95,2,132,10|10|10,2:0|2:0|2:0,2:0:0:0:
103,87,58881,5,6,3:1:0:0:
60,257,59458,1,2,3:2:0:0:
132,365,59890,2,0,P|204:319|288:334,1,176,2|0,2:0|1:0,2:0:0:0:
363,382,60756,1,2,3:2:0:0:
447,356,61044,6,0,P|474:298|467:233,1,132,2|12,2:0|2:0,2:0:0:0:
395,182,61765,1,2,3:2:0:0:
235,256,62342,2,0,L|61:286,1,176,2|2,3:2|3:2,2:0:0:0:
3,166,63352,6,0,P|21:84|100:52,1,176,4|6,3:1|3:2,2:0:0:0:
177,95,64217,1,0,3:2:0:0:
256,56,64506,2,0,L|344:43,1,88,4|2,3:2|3:2,2:0:0:0:
430,34,65083,2,0,B|469:85|469:85|449:149,1,132,4|8,3:2|2:0,2:0:0:0:
413,230,65804,6,0,L|437:359,2,132,10|10|10,2:0|2:0|2:0,2:0:0:0:
326,208,66958,2,0,P|283:208|242:225,1,88,6|0,3:2|3:0,2:0:0:0:
181,288,67534,1,8,2:0:0:0:
25,244,68111,6,0,P|-10:175|0:97,1,160,4|0,3:1|3:0,2:0:0:0:
61,46,68977,1,8,2:0:0:0:
137,69,69265,2,0,L|217:53,2,80,0|8|2,3:0|2:0|3:2,2:0:0:0:
110,227,70419,6,0,B|171:236|171:236|197:266|197:266|255:273,1,160,4|2,3:1|3:2,2:0:0:0:
412,242,71573,2,0,P|438:295|440:354,2,120,2|2|10,3:2|3:2|2:0,2:0:0:0:
468,183,72727,6,0,P|467:105|416:46,1,160,4|2,3:1|3:2,2:0:0:0:
337,30,73592,1,8,2:0:0:0:
277,83,73881,2,0,B|233:76|233:76|211:86|211:86|160:78,1,120,12|8,2:0|2:0,2:0:0:0:
82,95,74602,2,0,P|58:149|66:207,1,120,8|4,2:0|3:1,2:0:0:0:
188,333,77198,6,0,B|229:378|297:367,1,120,6|10,3:2|2:0,2:0:0:0:
371,336,77919,1,2,3:2:0:0:
488,363,78352,6,0,L|499:283,1,80,4|0,3:2|3:0,2:0:0:0:
458,214,78929,2,0,B|411:243|411:243|347:231,1,120,2|8,3:2|2:0,2:0:0:0:
267,220,79650,6,0,B|225:229|225:229|207:252|207:252|160:262,1,120,4|2,3:2|3:2,2:0:0:0:
82,281,80371,1,2,3:2:0:0:
15,235,80659,2,0,L|29:156,2,80,6|2|6,3:2|3:2|3:2,2:0:0:0:
157,375,81958,6,0,P|219:328|296:339,1,160,6|8,3:2|2:0,2:0:0:0:
412,371,82967,2,0,L|432:252,1,120,4|2,3:2|2:0,2:0:0:0:
447,173,83688,1,8,2:0:0:0:
411,17,84265,1,4,3:2:0:0:
256,192,84409,12,2,86573,2:0:0:0:
491,62,94650,6,0,B|425:69|425:69|415:75|415:75|349:84,1,144,4|8,2:3|2:0,2:0:0:0:
216,25,95804,5,4,3:2:0:0:
187,166,96381,1,8,2:0:0:0:
158,307,96958,2,0,L|87:320,2,72.0000000000001,2|2|8,3:2|2:0|2:0,2:0:0:0:
296,349,98111,6,0,B|349:359|349:359|397:334,1,108,4|0,3:2|3:2,2:0:0:0:
470,304,98833,1,2,2:0:0:0:
504,231,99121,2,0,P|510:173|486:119,1,120,6|8,3:1|2:0,2:0:0:0:
411,90,99842,1,0,3:0:0:0:
266,158,100419,6,0,B|205:145|205:145|173:159|173:159|111:148,1,160,4|0,3:2|3:0,2:0:0:0:
61,211,101284,1,10,2:0:0:0:
103,278,101573,2,0,B|164:288|164:288|196:274|196:274|257:287,1,160,6|0,3:2|3:0,2:0:0:0:
414,318,102727,6,0,P|453:250|445:172,1,160,6|0,3:2|2:0,2:0:0:0:
411,100,103592,1,10,2:0:0:0:
333,121,103881,2,0,P|253:123|184:86,1,160,2|0,2:0|3:0,2:0:0:0:
29,44,105034,6,0,L|6:161,1,120,10|2,2:0|2:0,2:0:0:0:
36,235,105756,1,2,3:2:0:0:
111,209,106044,2,0,P|170:212|219:245,1,120,6|10,3:1|2:0,2:0:0:0:
267,309,106765,1,2,3:2:0:0:
385,288,107198,6,0,P|437:205|426:107,1,200,4|2,3:2|3:2,2:0:0:0:
359,63,108208,1,8,2:0:0:0:
283,89,108496,2,0,L|204:73,2,80,4|8|10,3:1|2:0|2:0,2:0:0:0:
307,247,109650,6,0,B|253:255|253:255|216:309,1,120,10|2,2:0|2:0,2:0:0:0:
167,372,110371,1,2,3:2:0:0:
87,365,110659,2,0,L|64:248,1,120,6|10,3:1|2:0,2:0:0:0:
40,170,111381,1,2,3:2:0:0:
70,54,111813,6,0,B|133:35|172:76|148:76|193:119|254:96,1,200,4|2,3:2|2:0,2:0:0:0:
320,51,112823,1,8,2:0:0:0:
398,68,113111,2,0,P|430:117|430:176,1,120,4|0,3:2|1:0,2:0:0:0:
388,245,113833,1,0,3:0:0:0:
302,328,114265,6,0,L|223:314,1,80,12|0,2:0|3:0,2:0:0:0:
149,346,114842,1,8,2:3:0:0:
256,192,115131,12,2,116573,2:3:0:0:
382,44,117727,6,0,L|460:56,1,80,4|4,3:2|3:2,2:0:0:0:
496,128,118304,2,0,L|483:206,1,80,4|4,3:2|3:2,2:0:0:0:
501,293,118881,6,0,B|427:306|427:306|412:326|412:326|337:339,1,176,6|2,3:1|3:2,2:0:0:0:
206,314,119890,2,0,P|194:230|246:162,1,176,2|0,2:0|1:0,2:0:0:0:
330,188,120756,1,2,3:2:0:0:
412,158,121044,6,0,P|424:94|398:34,1,132,2|8,2:0|2:0,2:0:0:0:
314,8,121765,1,2,3:2:0:0:
189,51,122198,2,0,B|105:27|105:27|34:80,1,176,2|0,2:0|1:0,2:0:0:0:
9,165,123063,1,2,3:2:0:0:
46,244,123352,6,0,B|113:263|159:210|138:210|183:166|248:188,1,220,6|2,3:2|3:2,2:0:0:0:
331,210,124361,1,10,2:0:0:0:
398,153,124650,2,0,L|380:22,2,132,2|2|8,3:2|3:2|2:0,2:0:0:0:
475,195,125804,5,4,3:1:0:0:
440,367,126381,1,2,3:2:0:0:
266,336,126958,2,0,L|136:359,2,132,10|10|10,2:0|2:0|2:0,2:0:0:0:
317,264,128111,6,0,B|330:225|330:225|302:92,1,176,6|2,3:1|3:2,2:0:0:0:
188,25,129121,2,0,P|102:25|30:75,1,176,2|0,2:0|1:0,2:0:0:0:
9,160,129986,1,2,3:2:0:0:
58,232,130275,6,0,L|188:210,1,132,2|12,2:0|2:0,2:0:0:0:
274,230,130996,2,0,P|290:190|285:147,1,88,2|10,3:2|2:0,2:0:0:0:
230,78,131573,2,0,L|402:107,1,176,2|2,3:2|3:2,2:0:0:0:
497,200,132583,6,0,B|517:283|517:283|517:328|474:359,1,176,4|6,3:1|3:2,2:0:0:0:
387,344,133448,1,0,3:2:0:0:
307,381,133736,2,0,L|295:293,1,88,4|2,3:2|3:2,2:0:0:0:
307,206,134313,2,0,B|348:155|348:155|328:91,1,132,4|8,3:2|2:0,2:0:0:0:
378,18,135034,6,0,L|507:42,2,132,10|10|10,2:0|2:0|2:0,2:0:0:0:
328,91,136188,1,2,3:0:0:0:
153,61,136765,2,0,P|134:100|132:143,1,88,8|10,2:0|2:0,2:0:0:0:
181,206,137342,6,0,P|102:201|35:244,2,160,4|0|2,3:2|3:0|3:2,2:0:0:0:
295,318,139073,1,0,3:0:0:0:
453,293,139650,6,0,P|495:226|491:147,1,160,0|0,3:0|3:0,2:0:0:0:
431,94,140515,1,8,2:0:0:0:
361,134,140804,2,0,P|282:137|215:95,1,160,2|0,3:2|3:0,2:0:0:0:
77,15,141958,6,0,P|44:64|36:123,2,120,4|2|8,3:2|2:0|2:0,2:0:0:0:
154,35,143111,2,0,L|181:197,1,160,2|0,3:2|3:0,2:0:0:0:
203,350,144265,6,0,P|272:314|350:325,1,160,4|0,3:2|3:0,2:0:0:0:
491,248,145419,2,0,P|501:169|465:100,1,160,2|0,3:2|3:0,2:0:0:0:
394,61,146284,1,8,2:0:0:0:
319,90,146573,6,0,L|160:65,1,160,12|10,2:0|2:0,2:0:0:0:
12,125,147727,2,0,L|36:283,1,160,12|8,2:0|2:0,2:0:0:0:
47,362,148592,1,8,2:0:0:0:
125,376,148881,6,0,P|163:367|203:374,1,80,12|8,2:0|2:0,2:0:0:0:
274,338,149458,1,8,2:0:0:0:
188,202,150034,2,0,L|205:123,1,80,12|8,2:0|2:0,2:0:0:0:
184,46,150611,2,0,L|302:28,1,120,8|0,2:0|3:0,2:0:0:0:
421,12,151477,6,0,B|468:51|468:51|443:146,1,160,12|8,2:1|2:0,2:0:0:0:
493,209,152342,2,0,B|403:209|435:264|348:264,1,160,4|2,3:2|3:2,2:0:0:0:
213,176,153496,6,0,P|221:138|213:99,1,80,12|0,2:0|3:0,2:0:0:0:
151,48,154073,1,8,2:3:0:0:
256,192,154361,12,4,156958,3:2:0:0:
327,70,158111,6,0,P|401:26|486:42,1,176,4|2,3:1|3:2,2:0:0:0:
507,172,159121,2,0,P|432:215|347:199,1,176,2|0,2:0|1:0,2:0:0:0:
271,154,159986,1,2,3:2:0:0:
193,195,160275,6,0,L|174:325,1,132,2|8,2:0|2:0,2:0:0:0:
94,363,160996,1,2,3:2:0:0:
49,238,161429,2,0,B|18:156|18:156|50:73,1,176,2|0,2:0|1:0,2:0:0:0:
126,28,162294,1,2,3:2:0:0:
200,74,162583,6,0,P|305:92|387:24,1,220,6|2,3:2|3:2,2:0:0:0:
502,157,163881,2,0,L|479:287,2,132,2|2|8,3:2|3:2|2:0,2:0:0:0:
421,120,165034,6,0,B|378:111|338:140,1,88,4|10,3:1|2:0,2:0:0:0:
286,212,165611,1,2,2:0:0:0:
365,368,166188,2,0,P|425:341|491:345,2,132,10|10|10,2:0|2:0|2:0,2:0:0:0:
283,333,167342,5,14,2:0:0:0:
110,367,167919,1,10,2:0:0:0:
13,277,168352,2,0,L|39:102,1,176,14|2,2:0|2:0,2:0:0:0:
103,43,169217,1,8,2:3:0:0:
183,77,169506,6,0,B|250:87|250:87|304:53,1,132,2|12,3:0|2:1,2:0:0:0:
381,9,170227,1,2,3:2:0:0:
497,141,170804,2,0,P|517:226|499:311,1,176,2|8,3:2|2:3,2:0:0:0:
379,367,171813,6,0,P|300:333|213:340,1,176,4|6,3:1|3:2,2:0:0:0:
130,370,172679,1,0,3:2:0:0:
46,342,172967,2,0,L|32:256,1,88,4|2,3:2|3:2,2:0:0:0:
77,179,173544,2,0,L|206:203,1,132,4|8,3:2|2:0,2:0:0:0:
288,170,174265,6,0,P|302:106|288:41,2,132,12|10|10,2:0|2:0|2:0,2:0:0:0:
206,203,175419,1,2,3:0:0:0:
265,368,175996,2,0,L|351:353,1,88,8|10,2:0|2:0,2:0:0:0:
427,380,176573,6,0,B|463:308|463:308|445:230,1,160,4|0,3:1|3:0,2:0:0:0:
360,94,177727,2,0,B|288:130|288:130|210:112,1,160,2|2,3:2|3:2,2:0:0:0:
132,131,178592,1,8,2:0:0:0:
62,90,178881,2,0,L|50:11,2,80,4|8|2,3:1|2:0|3:2,2:0:0:0:
83,248,180034,6,0,P|60:302|11:336,2,120,2|2|10,3:2|3:2|2:0,2:0:0:0:
158,222,181188,2,0,L|316:251,1,160,4|2,3:1|3:2,2:0:0:0:
383,293,182054,1,8,2:0:0:0:
458,266,182342,2,0,B|486:214|486:214|472:154,1,120,12|8,2:0|2:0,2:0:0:0:
447,78,183063,1,8,2:0:0:0:
328,95,183496,6,0,B|239:95|273:40|183:40,2,160,4|0|2,3:2|3:0|3:2,2:0:0:0:
485,64,185227,1,0,3:0:0:0:
510,238,185804,6,0,B|439:250|439:250|419:274|419:274|348:290,1,176,4|0,3:2|3:0,2:0:0:0:
183,355,186958,2,0,P|98:356|34:299,1,176,0|0,3:0|3:0,2:0:0:0:
15,213,187823,1,10,2:0:0:0:
69,143,188111,6,0,L|240:180,1,176,0|0,3:2|3:0,2:0:0:0:
329,185,188977,1,10,2:0:0:0:
404,139,189265,2,0,B|456:211|456:211|432:294,1,176,0|0,3:0|3:0,2:0:0:0:
388,371,190131,2,0,L|301:353,1,88,10|8,2:0|3:0,2:0:0:0:
217,331,190708,6,0,P|173:336|136:359,2,88,12|4|4,2:0|3:2|3:2,2:0:0:0:
277,262,191573,2,0,P|320:256|357:233,2,88,4|4|4,3:2|3:2|3:2,2:0:0:0:
116,255,192727,6,0,B|86:206|86:206|100:145,1,120,4|2,3:2|2:0,2:0:0:0:
117,58,193448,1,2,2:0:0:0:
198,24,193736,2,0,P|251:50|309:42,1,120,2|2,2:0|2:0,2:0:0:0:
435,3,194602,1,6,3:1:0:0:
