osu file format v14

[General]
AudioFilename: audio.mp3
AudioLeadIn: 0
PreviewTime: 49648
Countdown: 0
SampleSet: Soft
StackLeniency: 0.8
Mode: 0
LetterboxInBreaks: 0
WidescreenStoryboard: 1

[Editor]
Bookmarks: 5804,17342,26573,35804,49650,77198,86573,95804,105034,118881,137342,146573,158111,183496,194458,194530,194602,194890
DistanceSpacing: 0.3
BeatDivisor: 4
GridSize: 8
TimelineZoom: 1.8

[Metadata]
Title:Art as <3
TitleUnicode:Art as ♡
Artist:KOTOKO
ArtistUnicode:KOTOKO
Creator:Shikibe Mayu
Version:Amateurre's Expert
Source:イノセントガール
Tags:Shizuku- Kazato Asa Yogurtt Amateurre Kowari Innocent Girl Front Wing eroge vn visual novel rock video game japanese heart
BeatmapID:2938726
BeatmapSetID:1399810

[Difficulty]
HPDrainRate:5.5
CircleSize:3.8
OverallDifficulty:8.8
ApproachRate:9.4
SliderMultiplier:1.8
SliderTickRate:0.5

[Events]
//Background and Video events
0,0,"f10a8bc1c.jpg",0,0
//Break Periods
2,86773,94110
//Storyboard Layer 0 (Background)
//Storyboard Layer 1 (Fail)
//Storyboard Layer 2 (Pass)
//Storyboard Layer 3 (Foreground)
//Storyboard Layer 4 (Overlay)
//Storyboard Sound Samples

[TimingPoints]
35,288.461538461538,4,2,1,50,1,0
5804,-100,4,2,1,70,0,0
17342,-125,4,2,1,60,0,0
26284,-100,4,2,1,60,0,0
26573,-100,4,2,1,70,0,0
35804,-100,4,2,1,60,0,0
42583,-100,4,2,1,70,0,0
45250,-100,4,2,1,5,0,0
45323,-100,4,2,1,70,0,0
45539,-100,4,2,1,5,0,0
45611,-100,4,2,1,70,0,0
45827,-100,4,2,1,5,0,0
45900,-250,4,2,1,70,0,0
46909,-250,4,2,1,50,0,0
47342,-166.666666666667,4,2,1,50,0,0
48640,-166.666666666667,4,2,1,70,0,0
49650,-66.6666666666667,4,2,1,80,0,0
50371,-83.3333333333333,4,2,1,80,0,0
68111,-83.3333333333333,4,2,1,70,0,0
77198,-100,4,2,1,70,0,0
81958,-125,4,2,1,70,0,0
86573,-125,4,2,1,50,0,0
94650,-125,4,2,1,60,0,0
99121,-125,4,2,1,70,0,0
100419,-100,4,2,1,70,0,0
105034,-100,4,2,1,60,0,0
111813,-100,4,2,1,70,0,0
114481,-100,4,2,1,5,0,0
114554,-100,4,2,1,70,0,0
114770,-100,4,2,1,5,0,0
114842,-100,4,2,1,70,0,0
115058,-100,4,2,1,5,0,0
115131,-250,4,2,1,70,0,0
115996,-250,4,2,1,50,0,0
117727,-83.3333333333333,4,2,1,70,0,0
117943,-83.3333333333333,4,2,1,5,0,0
118015,-83.3333333333333,4,2,1,70,0,0
118231,-83.3333333333333,4,2,1,5,0,0
118304,-83.3333333333333,4,2,1,70,0,0
118520,-83.3333333333333,4,2,1,5,0,0
118592,-83.3333333333333,4,2,1,70,0,0
118808,-83.3333333333333,4,2,1,5,0,0
118881,-83.3333333333333,4,2,1,80,0,0
137342,-83.3333333333333,4,2,1,70,0,0
151044,-125,4,2,1,70,0,0
151477,-100,4,2,1,70,0,0
153712,-100,4,2,1,5,0,0
153784,-100,4,2,1,70,0,0
154000,-100,4,2,1,5,0,0
154073,-100,4,2,1,70,0,0
154289,-100,4,2,1,5,0,0
154361,-250,4,2,1,70,0,0
158111,-83.3333333333333,4,2,1,80,0,0
183496,-125,4,2,1,60,0,0
185515,-166.666666666667,4,2,1,60,0,0
185804,-100,4,2,1,80,0,0
190708,-83.3333333333333,4,2,1,80,0,0
190924,-83.3333333333333,4,2,1,5,0,0
190996,-83.3333333333333,4,2,1,80,0,0
191212,-83.3333333333333,4,2,1,5,0,0
191284,-83.3333333333333,4,2,1,80,0,0
191500,-83.3333333333333,4,2,1,5,0,0
191573,-83.3333333333333,4,2,1,80,0,0
191789,-83.3333333333333,4,2,1,5,0,0
191861,-83.3333333333333,4,2,1,80,0,0
192077,-83.3333333333333,4,2,1,5,0,0
192150,-83.3333333333333,4,2,1,80,0,0
192366,-83.3333333333333,4,2,1,5,0,0
192438,-83.3333333333333,4,2,1,80,0,0
192654,-83.3333333333333,4,2,1,5,0,0
192727,-83.3333333333333,4,2,1,60,0,0

[Colours]
Combo1 : 148,86,92
Combo2 : 217,149,168
Combo3 : 202,155,199
Combo4 : 197,114,129

[HitObjects]
0,327,1044,6,0,P|96:313|186:303,1,180,4|0,3:2|3:0,2:0:0:0:
345,245,1477,2,0,P|335:284|326:336,1,90,8|0,2:0|3:0,2:0:0:0:
228,204,1765,1,8,2:0:0:0:
229,364,1909,2,0,P|221:287|210:203,1,135,0|0,3:0|2:0,2:0:0:0:
228,204,2198,6,0,P|186:229|141:112,1,180,4|0,3:2|3:0,2:0:0:0:
36,23,2631,2,0,P|25:69|14:125,1,90,8|0,2:0|3:0,2:0:0:0:
163,71,2919,1,8,2:0:0:0:
241,34,3063,2,0,L|249:-15,2,45,8|4|4,2:3|2:3|2:3,2:0:0:0:
292,154,3352,5,4,3:1:0:0:
256,192,3424,12,4,4650,3:2:0:0:
351,375,5227,5,2,2:0:0:0:
351,375,5299,1,2,2:0:0:0:
351,375,5371,2,0,L|340:310,1,45,2|2,2:0|2:0,2:0:0:0:
420,249,5515,2,0,L|427:204,3,45,2|2|2|2,2:0|2:0|2:0|2:0,2:0:0:0:
512,222,5804,6,0,P|432:231|314:251,1,180,4|8,3:1|2:0,2:0:0:0:
168,177,6236,1,0,3:0:0:0:
264,71,6381,2,0,P|285:109|277:153,1,90,2|2,3:2|3:2,2:0:0:0:
124,274,6669,1,8,2:0:0:0:
225,360,6813,6,0,P|211:276|189:155,1,180,6|0,3:2|3:0,2:0:0:0:
83,46,7246,2,0,L|66:148,1,90,8|2,2:0|2:0,2:0:0:0:
80,155,7462,1,2,2:0:0:0:
81,154,7534,1,2,3:2:0:0:
2,22,7679,1,2,3:2:0:0:
180,92,7823,1,8,2:0:0:0:
25,227,7967,6,0,P|76:182|200:207,1,180,6|0,3:2|3:0,2:0:0:0:
356,97,8400,2,0,P|311:106|267:114,1,90,10|0,2:0|1:0,2:0:0:0:
219,274,8688,2,0,P|263:264|307:256,1,90,2|0,3:2|3:0,2:0:0:0:
435,184,8977,1,10,2:0:0:0:
435,384,9121,6,0,P|450:272|463:193,1,180,4|0,3:2|3:0,2:0:0:0:
341,82,9554,2,0,P|330:132|367:181,1,90,8|2,2:0|2:0,2:0:0:0:
429,34,9842,1,2,3:2:0:0:
241,137,9986,1,2,3:2:0:0:
374,258,10131,1,8,2:0:0:0:
346,165,10275,1,2,3:2:0:0:
117,211,10419,6,0,P|74:204|21:199,1,90,4|0,3:2|3:0,2:0:0:0:
178,69,10708,1,8,2:0:0:0:
83,65,10852,2,0,B|188:63|150:142|255:136,1,180,2|2,3:2|3:2,2:0:0:0:
429,34,11284,5,10,2:0:0:0:
512,190,11429,2,0,P|444:120|376:155,1,180,6|2,3:2|3:2,2:0:0:0:
263,245,11861,5,10,2:0:0:0:
322,65,12006,2,0,P|334:154|347:243,1,180,6|2,3:2|3:2,2:0:0:0:
481,384,12438,6,0,P|491:330|498:289,1,90,10|2,2:0|3:2,2:0:0:0:
512,274,12655,1,0,3:0:0:0:
512,274,12727,2,0,P|467:280|402:288,1,90,6|2,3:2|3:2,2:0:0:0:
284,363,13015,1,10,2:0:0:0:
174,192,13159,2,0,B|70:196|120:268|11:263,1,180,2|2,3:2|3:2,2:0:0:0:
201,287,13592,5,10,2:0:0:0:
78,349,13736,2,0,P|89:270|98:160,1,180,4|2,3:2|3:2,2:0:0:0:
187,37,14169,2,0,P|133:47|83:52,1,90,8|2,2:0|2:0,2:0:0:0:
13,158,14458,1,0,3:0:0:0:
91,73,14602,1,2,3:2:0:0:
196,196,14746,2,0,P|247:219|285:211,1,90,10|0,2:0|2:0,2:0:0:0:
489,134,15034,6,0,L|478:74,2,60,4|2|2,3:2|2:0|2:0,2:0:0:0:
377,177,15323,2,0,L|387:117,2,60,10|2|2,2:0|2:0|2:0,2:0:0:0:
509,302,15611,1,0,3:0:0:0:
454,222,15756,5,0,3:0:0:0:
454,222,15828,1,0,3:0:0:0:
454,222,15900,1,10,2:0:0:0:
324,319,16044,2,0,P|243:329|138:348,1,180,12|0,2:0|3:0,2:0:0:0:
54,147,16477,1,8,2:0:0:0:
97,267,16621,5,0,3:0:0:0:
97,267,16693,1,0,3:0:0:0:
97,267,16765,2,0,P|110:223|117:195,1,45,10|0,2:0|2:0,2:0:0:0:
151,92,16909,2,0,P|164:136|171:164,1,45,0|0,3:0|2:0,2:0:0:0:
199,263,17054,2,0,P|243:250|271:243,1,45,10|0,2:0|2:0,2:0:0:0:
352,191,17198,2,0,P|308:178|280:171,1,45,0|0,3:0|2:0,2:0:0:0:
250,113,17342,6,0,P|265:182|274:254,1,144,4|0,3:2|3:2,2:0:0:0:
220,384,17775,2,0,P|248:347|355:358,1,144,2|0,2:0|2:0,2:0:0:0:
444,268,18208,2,0,P|434:304|426:359,1,72,2|0,3:2|2:0,2:0:0:0:
512,222,18496,6,0,P|442:230|392:182,1,144,2|0,3:2|3:2,2:0:0:0:
291,230,18929,2,0,B|217:217|237:282|153:267,1,144,2|0,2:0|2:0,2:0:0:0:
64,311,19361,2,0,P|60:276|57:239,1,72,0|0,3:2|2:0,2:0:0:0:
0,125,19650,6,0,P|71:143|159:161,1,144,2|0,3:2|3:2,2:0:0:0:
306,37,20083,2,0,P|218:35|181:90,1,144,2|0,2:0|2:0,2:0:0:0:
249,189,20515,2,0,P|257:145|268:99,1,72,2|0,3:2|2:0,2:0:0:0:
397,8,20804,6,0,P|405:79|420:181,1,144,2|0,3:2|3:2,2:0:0:0:
415,150,21236,1,0,2:0:0:0:
263,118,21381,2,0,P|255:189|240:291,1,144,2|0,3:2|3:2,2:0:0:0:
244,260,21813,1,0,2:0:0:0:
367,225,21958,6,0,P|399:189|499:227,1,144,2|0,3:2|3:2,2:0:0:0:
415,300,22390,2,0,P|349:281|253:274,1,144,2|0,2:0|2:0,2:0:0:0:
170,189,22823,2,0,P|228:179|270:171,1,72,2|0,3:2|2:0,2:0:0:0:
356,247,23111,6,0,P|367:202|386:75,1,144,2|0,3:2|3:2,2:0:0:0:
455,5,23544,2,0,P|496:53|475:133,1,144,2|0,2:0|2:0,2:0:0:0:
312,57,23977,2,0,P|254:47|212:39,1,72,0|0,3:2|2:0,2:0:0:0:
156,168,24265,6,0,B|82:155|102:220|18:205,1,144,2|0,3:2|3:2,2:0:0:0:
205,250,24698,2,0,P|242:222|240:123,1,144,2|0,2:0|2:0,2:0:0:0:
154,74,25131,2,0,P|160:109|166:144,1,72,2|0,3:2|2:0,2:0:0:0:
121,303,25419,5,2,3:2:0:0:
205,250,25563,1,8,2:3:0:0:
110,313,25708,2,0,P|63:307|25:304,1,72,4|0,2:3|2:0,2:0:0:0:
213,353,25996,5,8,2:0:0:0:
111,218,26140,1,0,3:0:0:0:
228,372,26284,2,0,P|305:357|383:346,1,135,8|0,2:0|1:0,2:0:0:0:
392,369,26573,6,0,P|399:324|409:280,1,90,4|0,3:2|2:0,2:0:0:0:
345,149,26861,1,10,2:0:0:0:
488,220,27006,2,0,B|391:194|420:282|304:249,1,180,2|0,2:0|3:0,2:0:0:0:
173,170,27438,2,0,P|221:162|271:156,1,90,10|0,2:0|2:0,2:0:0:0:
127,290,27727,6,0,P|85:282|37:277,1,90,2|0,3:2|2:0,2:0:0:0:
224,254,28015,1,10,2:0:0:0:
96,374,28159,2,0,P|84:285|69:168,1,180,2|2,2:0|3:2,2:0:0:0:
171,49,28592,2,0,P|188:105|166:145,1,90,10|0,2:0|2:0,2:0:0:0:
6,122,28881,6,0,P|59:109|104:97,1,90,2|0,3:2|2:0,2:0:0:0:
165,225,29169,1,10,2:0:0:0:
254,246,29313,2,0,P|307:259|352:271,1,90,2|0,2:0|3:0,2:0:0:0:
449,114,29602,2,0,P|405:125|361:136,1,90,2|10,3:2|2:0,2:0:0:0:
381,354,29890,6,0,P|436:316|416:207,1,180,6|0,3:1|3:0,2:0:0:0:
304,75,30323,2,0,P|316:140|334:270,1,180,8|0,2:0|3:0,2:0:0:0:
197,384,30756,1,0,3:0:0:0:
349,343,30900,2,0,P|297:328|257:316,1,90,8|2,2:0|2:0,2:0:0:0:
111,183,31188,6,0,P|105:230|97:294,1,90,4|0,3:2|2:0,2:0:0:0:
194,116,31477,1,10,2:0:0:0:
10,246,31621,2,0,P|113:229|208:222,1,180,2|0,2:0|3:0,2:0:0:0:
360,112,32054,1,10,2:0:0:0:
276,66,32198,1,2,2:0:0:0:
373,266,32342,6,0,P|397:229|394:185,1,90,6|0,3:2|2:0,2:0:0:0:
295,206,32631,1,10,2:0:0:0:
440,344,32775,2,0,P|369:292|283:308,1,180,2|2,2:0|3:2,2:0:0:0:
172,384,33208,2,0,P|180:339|186:295,1,90,10|0,2:0|1:0,2:0:0:0:
133,102,33496,6,0,P|193:113|236:120,1,90,6|0,3:2|2:0,2:0:0:0:
86,173,33784,1,10,2:0:0:0:
238,28,33929,2,0,P|252:107|269:209,1,180,2|2,2:0|3:2,2:0:0:0:
175,286,34361,1,10,2:0:0:0:
284,221,34506,1,6,3:1:0:0:
388,334,34650,6,0,P|442:339|497:347,1,90,2|0,2:0|3:0,2:0:0:0:
496,358,34866,1,0,3:0:0:0:
496,358,34938,1,8,2:0:0:0:
315,382,35083,1,2,2:0:0:0:
407,243,35227,5,0,3:0:0:0:
413,198,35371,1,0,1:0:0:0:
420,154,35515,1,10,2:0:0:0:
426,108,35659,1,2,2:0:0:0:
477,343,35804,5,10,2:0:0:0:
512,159,35948,1,10,2:0:0:0:
323,215,36092,1,10,2:0:0:0:
323,215,36525,6,0,P|282:208|217:201,1,90,2|8,3:2|2:0,2:0:0:0:
81,63,36813,2,0,P|27:108|82:227,1,180,6|0,3:1|3:0,2:0:0:0:
156,260,37246,2,0,P|142:212|134:146,1,90,10|0,2:0|1:0,2:0:0:0:
266,92,37534,2,0,P|252:140|244:206,1,90,2|0,3:2|3:0,2:0:0:0:
346,217,37823,1,10,2:0:0:0:
180,276,37967,6,0,P|234:221|352:251,1,180,4|0,3:2|3:0,2:0:0:0:
504,236,38400,5,10,2:0:0:0:
510,191,38544,1,2,2:0:0:0:
407,285,38688,5,2,3:2:0:0:
413,330,38833,1,0,3:0:0:0:
318,236,38977,5,10,2:0:0:0:
499,276,39121,1,2,2:0:0:0:
294,347,39265,2,0,P|302:298|308:258,1,90,4|0,3:1|3:0,2:0:0:0:
410,170,39554,2,0,P|402:121|395:81,1,90,8|0,2:0|3:0,2:0:0:0:
510,191,39842,5,10,2:0:0:0:
317,151,39986,1,0,3:0:0:0:
317,151,40059,1,8,2:0:0:0:
317,151,40131,2,0,P|277:163|209:179,1,90,10|0,2:0|3:0,2:0:0:0:
15,58,40419,5,10,2:0:0:0:
213,92,40563,1,10,2:0:0:0:
101,262,40708,1,10,2:0:0:0:
101,262,41140,6,0,P|108:215|114:153,1,90,2|8,3:2|2:0,2:0:0:0:
29,343,41429,2,0,P|84:288|190:312,1,180,6|0,3:1|3:0,2:0:0:0:
292,215,41861,2,0,P|299:261|305:324,1,90,10|0,2:0|1:0,2:0:0:0:
299,331,42078,1,0,1:0:0:0:
299,331,42150,1,2,3:2:0:0:
380,381,42294,1,0,3:0:0:0:
204,308,42438,1,10,2:0:0:0:
389,208,42583,6,0,P|459:195|490:312,1,180,4|0,3:2|3:0,2:0:0:0:
405,384,43015,2,0,P|412:308|415:254,1,90,8|0,2:0|1:0,2:0:0:0:
360,112,43304,1,2,3:2:0:0:
360,112,43448,1,0,3:0:0:0:
289,203,43592,1,8,2:0:0:0:
465,157,43736,1,2,2:0:0:0:
339,14,43881,6,0,B|245:-4|276:87|163:60,1,180,4|8,3:2|2:0,2:0:0:0:
48,129,44313,2,0,P|13:90|21:39,1,90,0|2,1:0|3:2,2:0:0:0:
176,62,44602,1,0,3:0:0:0:
156,145,44746,2,0,P|143:186|129:261,1,90,8|2,2:0|2:0,2:0:0:0:
11,347,45034,6,0,P|76:332|143:322,1,135,12|0,2:0|2:0,2:0:0:0:
210,369,45323,2,0,P|254:363|262:278,1,135,8|0,3:0|2:0,2:0:0:0:
327,232,45611,2,0,B|407:219|371:284|482:263,1,135,8|0,2:0|2:0,2:0:0:0:
511,207,45900,6,0,P|491:122|348:151,1,252,4|2,3:1|2:3,2:0:0:0:
353,138,46982,1,2,2:3:0:0:
353,138,47054,1,2,2:3:0:0:
286,99,47198,1,2,2:3:0:0:
187,139,47342,6,0,P|142:146|58:155,2,108,2|2|2,2:3|2:0|2:0,2:0:0:0:
277,109,48063,2,0,P|271:144|267:185,1,53.9999999999999,2|2,2:0|2:3,2:0:0:0:
200,240,48352,2,0,P|213:288|226:358,1,108,0|8,2:0|2:0,2:0:0:0:
308,237,48784,1,0,3:0:0:0:
308,237,48929,1,0,3:0:0:0:
116,277,49073,5,8,2:0:0:0:
348,330,49217,1,0,3:0:0:0:
100,272,49361,2,0,P|90:193|85:167,1,80.9999999999998,10|0,2:0|1:0,2:0:0:0:
6,171,49650,6,0,B|116:194|66:86|184:107,1,202.5,6|0,3:1|2:0,2:0:0:0:
202,116,49938,1,8,2:0:0:0:
376,188,50083,1,0,1:0:0:0:
247,245,50227,1,2,3:2:0:0:
314,55,50371,2,0,P|301:106|287:173,1,108,0|8,3:0|2:0,2:0:0:0:
162,349,50659,6,0,P|207:289|342:336,1,216,2|0,2:0|2:0,2:0:0:0:
504,211,51092,1,10,2:0:0:0:
433,369,51236,2,0,P|422:300|413:256,1,108,0|0,1:0|3:2,2:0:0:0:
462,97,51525,2,0,P|500:144|491:194,1,108,2|8,3:2|2:0,2:0:0:0:
307,152,51813,1,2,2:0:0:0:
224,352,51958,5,0,3:2:0:0:
224,352,52102,1,0,3:0:0:0:
186,216,52246,1,8,2:0:0:0:
336,314,52390,1,0,1:0:0:0:
125,368,52534,1,2,3:2:0:0:
269,261,52679,2,0,P|281:209|295:146,1,108,0|8,3:0|2:0,2:0:0:0:
161,38,52967,6,0,P|39:31|10:150,1,216,2|0,2:0|3:0,2:0:0:0:
176,192,53400,1,10,2:0:0:0:
66,258,53544,2,0,P|78:206|92:143,1,108,0|0,1:0|3:2,2:0:0:0:
256,102,53833,2,0,P|308:124|298:226,1,162,2|0,3:2|2:0,2:0:0:0:
196,211,54121,6,0,P|305:188|427:171,1,216,6|0,3:2|3:0,2:0:0:0:
512,328,54554,2,0,P|458:316|405:308,1,108,8|0,2:0|1:0,2:0:0:0:
286,240,54842,1,2,3:2:0:0:
309,361,54986,1,0,3:0:0:0:
275,218,55131,2,0,P|287:157|298:105,1,108,10|0,2:0|2:0,2:0:0:0:
206,325,55419,6,0,P|153:345|88:316,1,108,2|0,3:2|2:0,2:0:0:0:
149,110,55708,1,8,2:0:0:0:
15,197,55852,2,0,P|120:211|227:235,1,216,2|0,3:2|3:2,2:0:0:0:
406,353,56284,2,0,P|393:280|388:214,1,108,8|0,2:0|1:0,2:0:0:0:
494,70,56573,6,0,P|423:77|450:152,1,162,4|0,3:1|2:0,2:0:0:0:
433,171,56861,2,0,P|373:157|301:144,1,108,10|0,2:0|2:0,2:0:0:0:
169,65,57150,2,0,P|229:51|301:38,1,108,2|0,3:2|3:0,2:0:0:0:
220,222,57438,2,0,P|168:210|115:200,1,108,10|0,2:0|3:0,2:0:0:0:
25,100,57727,5,10,2:0:0:0:
218,243,57871,2,0,P|251:196|227:130,1,108,0|0,3:0|3:0,2:0:0:0:
33,307,58159,5,10,2:0:0:0:
143,178,58304,1,0,3:0:0:0:
311,373,58448,1,0,3:0:0:0:
139,293,58592,5,10,2:0:0:0:
139,293,58664,1,0,1:0:0:0:
139,293,58736,1,0,1:0:0:0:
139,293,58809,1,0,1:0:0:0:
139,293,58881,2,0,P|218:279|299:270,1,162,6|0,3:1|2:0,2:0:0:0:
333,278,59169,1,8,2:0:0:0:
512,342,59313,1,0,1:0:0:0:
410,172,59458,1,2,3:2:0:0:
414,363,59602,2,0,P|430:298|441:246,1,108,0|8,3:0|2:0,2:0:0:0:
427,52,59890,6,0,P|491:60|485:198,1,216,2|0,2:0|2:0,2:0:0:0:
259,109,60323,1,10,2:0:0:0:
333,278,60467,2,0,P|344:212|353:165,1,108,0|0,1:0|3:2,2:0:0:0:
150,218,60756,2,0,P|99:227|33:239,1,108,2|8,3:2|2:0,2:0:0:0:
248,249,61044,1,2,2:0:0:0:
81,137,61188,5,0,3:2:0:0:
81,137,61333,1,0,3:2:0:0:
138,345,61477,2,0,L|163:218,1,108,12|0,2:0|2:0,2:0:0:0:
124,18,61765,6,0,P|73:27|7:39,1,108,2|0,3:2|3:0,2:0:0:0:
176,158,62054,2,0,P|227:167|293:179,1,108,10|0,2:0|2:0,2:0:0:0:
489,39,62342,6,0,P|429:92|324:58,1,162,2|0,3:2|2:0,2:0:0:0:
334,70,62631,1,8,2:0:0:0:
509,228,62775,1,0,1:0:0:0:
509,228,62847,1,0,1:0:0:0:
509,228,62919,1,2,3:2:0:0:
331,312,63063,1,0,3:2:0:0:
375,206,63208,1,8,2:0:0:0:
445,377,63352,6,0,P|338:350|214:339,1,216,4|0,3:1|3:2,2:0:0:0:
45,382,63784,1,8,2:0:0:0:
88,166,63929,2,0,P|152:209|150:287,1,162,6|0,3:2|2:0,2:0:0:0:
134,308,64217,5,0,3:2:0:0:
188,118,64361,1,8,2:0:0:0:
297,185,64506,2,0,P|353:190|417:197,1,108,4|0,3:2|2:0,2:0:0:0:
330,278,64794,5,2,3:2:0:0:
453,96,64938,1,8,2:0:0:0:
502,168,65083,2,0,P|490:220|479:273,1,108,4|0,3:2|2:0,2:0:0:0:
297,185,65371,1,0,3:2:0:0:
224,234,65515,2,0,P|172:222|119:211,1,108,8|0,2:0|3:0,2:0:0:0:
43,0,65804,5,10,2:0:0:0:
195,105,65948,1,0,3:0:0:0:
0,205,66092,1,0,3:0:0:0:
135,39,66236,5,10,2:0:0:0:
230,256,66381,1,0,3:0:0:0:
77,133,66525,1,0,3:0:0:0:
219,12,66669,5,10,2:0:0:0:
129,236,66813,1,0,3:0:0:0:
63,104,66958,1,2,3:0:0:0:
224,231,67102,6,0,P|285:225|346:220,1,108,14|0,2:0|3:0,2:0:0:0:
191,140,67390,5,0,3:0:0:0:
410,274,67534,2,0,P|439:220|393:149,1,108,8|0,2:0|3:0,2:0:0:0:
304,33,67823,2,0,P|313:87|321:160,1,108,10|0,2:0|2:0,2:0:0:0:
228,341,68111,5,4,3:1:0:0:
102,199,68256,1,0,3:2:0:0:
7,325,68400,2,0,P|71:304|133:296,1,108,8|2,2:0|1:2,2:0:0:0:
304,162,68688,5,0,3:0:0:0:
150,65,68833,1,2,3:2:0:0:
319,139,68977,1,8,2:0:0:0:
189,262,69121,2,0,P|200:208|212:153,1,108,2|0,2:0|3:0,2:0:0:0:
457,100,69409,5,0,3:0:0:0:
331,25,69554,2,0,P|344:122|357:259,1,216,8|2,2:0|3:2,2:0:0:0:
270,357,69986,1,0,3:0:0:0:
464,384,70131,2,0,P|478:333|453:286,1,108,8|0,2:0|2:0,2:0:0:0:
349,319,70419,6,0,L|148:340,1,162,4|0,3:1|2:0,2:0:0:0:
166,322,70708,1,8,2:0:0:0:
26,266,70852,1,2,2:0:0:0:
137,123,70996,1,2,3:2:0:0:
76,377,71140,2,0,P|67:268|56:159,1,216,2|0,3:2|1:0,2:0:0:0:
221,68,71573,5,2,3:2:0:0:
171,211,71717,1,0,3:2:0:0:
93,25,71861,1,8,2:0:0:0:
270,167,72006,2,0,P|325:159|393:152,1,108,2|0,3:2|1:0,2:0:0:0:
401,166,72222,1,0,1:0:0:0:
401,166,72294,1,0,3:0:0:0:
511,354,72438,2,0,P|425:336|442:269,1,162,10|0,2:0|2:0,2:0:0:0:
511,231,72727,6,0,P|427:248|295:264,1,216,4|8,3:1|2:0,2:0:0:0:
120,156,73159,1,2,3:2:0:0:
26,281,73304,1,0,3:0:0:0:
26,281,73448,1,0,3:2:0:0:
204,211,73592,2,0,P|228:163|216:112,1,108,8|0,2:0|2:0,2:0:0:0:
50,229,73881,6,0,P|62:274|70:353,1,108,12|0,2:0|3:2,2:0:0:0:
217,103,74169,1,0,3:2:0:0:
129,141,74313,2,0,P|70:130|19:124,1,108,8|0,2:0|2:0,2:0:0:0:
219,225,74602,1,8,2:0:0:0:
307,263,74746,2,0,P|366:252|417:246,1,108,4|0,2:3|2:0,2:0:0:0:
508,42,75034,5,4,3:1:0:0:
441,326,76909,5,2,2:0:0:0:
441,326,77054,1,2,3:2:0:0:
512,273,77198,2,0,B|407:254|450:345|328:322,1,180,6|0,3:2|3:0,2:0:0:0:
242,287,77631,2,0,P|250:331|258:375,1,90,10|0,2:0|1:0,2:0:0:0:
331,230,77919,2,0,P|321:186|313:142,1,90,2|0,3:2|3:0,2:0:0:0:
148,275,78208,1,10,2:0:0:0:
6,163,78352,6,0,P|64:86|141:102,1,180,4|0,3:2|3:0,2:0:0:0:
242,23,78784,2,0,P|233:62|229:121,1,90,8|2,2:0|3:2,2:0:0:0:
87,171,79073,1,0,3:0:0:0:
155,15,79217,1,2,3:2:0:0:
326,62,79361,2,0,P|365:53|424:49,1,90,8|2,2:0|3:2,2:0:0:0:
512,234,79650,6,0,P|469:227|416:222,1,90,4|0,3:2|3:0,2:0:0:0:
297,301,79938,1,8,2:0:0:0:
374,137,80083,2,0,P|386:226|399:315,1,180,2|2,3:2|3:2,2:0:0:0:
511,210,80515,5,10,2:0:0:0:
262,384,80659,2,0,P|192:316|227:248,1,180,6|2,3:2|3:2,2:0:0:0:
374,137,81092,5,10,2:0:0:0:
157,197,81236,2,0,B|247:191|209:270|314:268,1,180,6|2,3:2|3:2,2:0:0:0:
481,136,81669,6,0,P|491:82|498:41,1,90,10|2,2:0|3:2,2:0:0:0:
512,26,81885,1,0,3:0:0:0:
512,26,81958,2,0,P|474:30|421:37,1,72,6|0,3:2|2:0,2:0:0:0:
369,144,82246,2,0,P|334:139|285:133,1,72,2|0,2:0|3:2,2:0:0:0:
143,21,82534,5,8,2:0:0:0:
184,114,82679,2,0,P|176:184|161:282,2,144,2|4|10,3:2|3:2|2:0,2:0:0:0:
239,50,83400,1,2,3:2:0:0:
239,50,83544,1,0,3:0:0:0:
133,182,83688,1,8,2:0:0:0:
263,146,83833,2,0,L|427:175,1,144,2|0,2:0|2:0,2:0:0:0:
512,334,84265,5,4,3:2:0:0:
256,192,84337,12,2,86573,2:0:0:0:
35,323,94650,5,4,2:3:0:0:
131,299,94794,1,4,2:3:0:0:
35,323,94938,1,4,2:3:0:0:
188,370,95227,5,8,2:0:0:0:
132,210,95371,1,0,3:0:0:0:
266,306,95515,2,0,P|337:325|381:296,1,108,8|0,2:0|2:0,2:0:0:0:
416,241,95804,6,0,P|407:312|399:384,1,144,4|2,3:2|2:0,2:0:0:0:
399,383,96236,1,0,3:2:0:0:
321,235,96381,2,0,P|311:195|302:150,1,72,8|0,2:0|2:0,2:0:0:0:
416,75,96669,2,0,P|406:115|397:160,1,72,2|0,2:0|2:0,2:0:0:0:
224,178,96958,2,0,P|153:158|74:145,1,144,2|2,3:2|2:0,2:0:0:0:
83,146,97390,1,0,3:2:0:0:
201,77,97534,2,0,P|241:70|288:67,1,72,8|0,2:0|2:0,2:0:0:0:
321,235,97823,2,0,P|356:241|392:244,1,72,2|0,2:0|2:0,2:0:0:0:
505,114,98111,6,0,P|411:104|373:151,1,144,4|2,3:2|2:0,2:0:0:0:
305,223,98544,2,0,P|297:178|288:140,1,72,0|8,3:2|2:0,2:0:0:0:
205,94,98833,2,0,P|197:139|188:177,1,72,0|2,2:0|2:0,2:0:0:0:
89,160,99121,2,0,P|23:171|11:256,1,144,6|0,3:1|3:0,2:0:0:0:
107,353,99554,2,0,P|143:342|196:338,1,72,8|0,2:0|1:0,2:0:0:0:
100,252,99842,5,0,3:0:0:0:
100,252,99986,1,0,3:0:0:0:
195,349,100131,2,0,P|231:360|284:364,1,72,8|2,2:0|2:0,2:0:0:0:
463,249,100419,6,0,P|384:212|312:271,1,180,4|10,3:2|2:0,2:0:0:0:
377,384,100852,2,0,P|385:327|396:285,1,90,2|0,2:0|3:0,2:0:0:0:
318,121,101140,1,0,3:0:0:0:
244,182,101284,2,0,P|199:188|144:197,1,90,10|2,2:0|2:0,2:0:0:0:
28,42,101573,6,0,B|128:31|89:107|194:106,1,180,6|10,3:2|2:0,2:0:0:0:
309,244,102006,2,0,B|407:245|368:169|468:180,1,180,2|2,2:0|3:2,2:0:0:0:
337,84,102438,2,0,P|354:150|364:195,1,90,10|0,2:0|2:0,2:0:0:0:
394,310,102727,6,0,P|312:286|202:273,1,180,6|10,3:2|2:0,2:0:0:0:
36,221,103159,2,0,P|43:265|47:310,1,90,2|0,2:0|3:0,2:0:0:0:
139,203,103448,1,2,3:2:0:0:
11,140,103592,5,10,2:0:0:0:
31,333,103736,1,6,3:1:0:0:
31,333,103809,1,0,3:0:0:0:
31,333,103881,2,0,P|86:319|142:320,1,90,2|0,3:2|3:0,2:0:0:0:
302,161,104169,2,0,P|257:158|213:145,1,90,8|0,2:0|1:0,2:0:0:0:
100,100,104458,5,0,3:0:0:0:
106,145,104602,1,2,3:2:0:0:
113,189,104746,1,10,2:0:0:0:
119,235,104890,1,2,2:0:0:0:
16,115,105034,5,10,2:0:0:0:
204,180,105179,1,10,2:0:0:0:
170,0,105323,1,10,2:0:0:0:
170,0,105756,6,0,P|158:43|139:113,1,90,2|8,3:2|2:0,2:0:0:0:
39,220,106044,2,0,B|136:246|102:143|224:186,1,180,6|0,3:1|3:0,2:0:0:0:
340,126,106477,2,0,P|346:81|356:37,1,90,10|0,2:0|1:0,2:0:0:0:
357,39,106693,1,0,1:0:0:0:
357,39,106765,1,2,3:2:0:0:
438,174,106909,1,0,3:0:0:0:
203,179,107054,5,10,2:0:0:0:
285,368,107198,2,0,P|338:316|314:202,1,180,4|0,3:2|3:0,2:0:0:0:
175,256,107631,5,10,2:0:0:0:
130,250,107775,1,2,2:0:0:0:
255,104,107919,5,2,3:2:0:0:
300,98,108063,1,0,3:0:0:0:
94,48,108208,5,10,2:0:0:0:
203,179,108352,1,2,2:0:0:0:
85,64,108496,2,0,P|79:108|72:152,1,90,4|0,3:1|2:0,2:0:0:0:
226,282,108784,2,0,P|218:237|211:193,1,90,8|0,2:0|3:0,2:0:0:0:
23,232,109073,5,10,2:0:0:0:
183,94,109217,1,0,3:0:0:0:
183,94,109289,1,8,2:0:0:0:
183,94,109361,2,0,P|223:106|291:122,1,90,10|0,2:0|3:0,2:0:0:0:
437,285,109650,5,10,2:0:0:0:
403,87,109794,1,10,2:0:0:0:
233,199,109938,1,10,2:0:0:0:
233,199,110371,6,0,P|292:191|354:189,1,90,2|8,3:2|2:0,2:0:0:0:
464,247,110659,2,0,P|483:162|429:95,1,180,6|0,3:1|3:0,2:0:0:0:
359,262,111092,2,0,P|368:305|373:350,1,90,10|0,2:0|1:0,2:0:0:0:
373,350,111309,1,0,1:0:0:0:
373,350,111381,1,2,3:2:0:0:
205,286,111525,1,0,3:0:0:0:
273,378,111669,1,10,2:0:0:0:
299,196,111813,6,0,P|388:208|477:218,1,180,4|0,3:2|3:0,2:0:0:0:
512,87,112246,2,0,P|469:100|424:109,1,90,8|0,2:0|1:0,2:0:0:0:
366,250,112534,1,2,2:0:0:0:
366,250,112679,1,0,3:0:0:0:
251,69,112823,1,8,2:0:0:0:
398,119,112967,1,2,2:0:0:0:
257,289,113111,6,0,P|250:348|244:412,1,90,4|0,3:2|2:0,2:0:0:0:
155,156,113400,1,8,2:0:0:0:
84,213,113544,2,0,P|46:218|-23:229,1,90,0|2,1:0|2:0,2:0:0:0:
250,191,113833,1,0,3:0:0:0:
206,89,113977,2,0,P|211:51|222:-18,1,90,8|2,2:0|2:0,2:0:0:0:
328,140,114265,6,0,P|393:125|460:115,1,135,12|0,2:0|2:0,2:0:0:0:
512,190,114554,2,0,P|513:253|453:274,1,135,0|0,3:0|2:0,2:0:0:0:
392,327,114842,2,0,B|312:314|348:379|237:358,1,135,8|0,2:0|2:0,2:0:0:0:
173,381,115131,6,0,P|88:361|89:242,1,216,4|2,3:1|2:3,2:0:0:0:
157,195,116140,2,0,L|177:113,2,72,2|2|2,2:0|2:0|2:0,2:0:0:0:
99,256,116861,1,2,2:0:0:0:
257,135,117150,1,2,2:3:0:0:
257,135,117294,1,2,2:0:0:0:
36,29,117583,5,0,2:0:0:0:
36,29,117727,2,0,B|138:19|89:99|208:81,1,162,4|0,3:2|2:0,2:0:0:0:
242,34,118015,2,0,P|310:18|315:126,1,162,4|0,3:2|2:0,2:0:0:0:
410,131,118304,2,0,P|478:147|483:39,1,162,4|0,3:2|2:0,2:0:0:0:
452,23,118592,2,0,L|485:221,1,162,4|0,3:2|2:0,2:0:0:0:
512,265,118881,6,0,P|448:216|353:245,1,162,6|0,3:1|2:0,2:0:0:0:
353,249,119169,1,8,2:0:0:0:
204,136,119313,1,0,1:0:0:0:
260,280,119458,1,2,3:2:0:0:
135,349,119602,2,0,P|84:336|17:322,1,108,0|8,3:0|2:0,2:0:0:0:
117,120,119890,6,0,P|134:221|151:333,1,216,2|0,2:0|2:0,2:0:0:0:
222,170,120323,1,10,2:0:0:0:
19,295,120467,2,0,P|30:226|39:182,1,108,0|0,1:0|3:2,2:0:0:0:
201,59,120756,2,0,P|239:106|230:156,1,108,2|8,3:2|2:0,2:0:0:0:
113,254,121044,1,2,2:0:0:0:
262,322,121188,5,0,3:2:0:0:
262,322,121333,1,0,3:2:0:0:
430,271,121477,1,8,2:0:0:0:
249,229,121621,1,0,1:0:0:0:
392,370,121765,1,2,3:2:0:0:
512,195,121909,2,0,P|500:143|486:80,1,108,0|8,3:0|2:0,2:0:0:0:
346,207,122198,6,0,P|239:183|120:161,1,216,2|0,2:0|3:0,2:0:0:0:
0,220,122631,1,10,2:0:0:0:
25,29,122775,2,0,P|59:76|51:144,1,108,0|0,1:0|3:2,2:0:0:0:
0,309,123063,2,0,P|22:257|124:267,1,162,2|0,3:2|2:0,2:0:0:0:
154,326,123352,2,0,P|166:242|189:108,1,216,6|0,3:2|3:0,2:0:0:0:
388,103,123784,2,0,P|441:94|494:83,1,108,8|0,2:0|1:0,2:0:0:0:
284,51,124073,5,2,3:2:0:0:
431,192,124217,1,0,3:0:0:0:
288,68,124361,2,0,P|276:120|266:173,1,108,10|2,2:0|2:0,2:0:0:0:
408,322,124650,6,0,P|459:335|508:315,1,108,2|0,3:2|2:0,2:0:0:0:
408,178,124938,1,8,2:0:0:0:
304,384,125083,2,0,P|290:279|266:172,1,216,2|0,3:2|3:2,2:0:0:0:
167,47,125515,2,0,P|160:100|150:153,1,108,8|0,2:0|1:0,2:0:0:0:
4,290,125804,6,0,P|-11:220|59:212,1,162,4|0,3:1|2:0,2:0:0:0:
77,234,126092,2,0,P|130:244|183:257,1,108,10|0,2:0|2:0,2:0:0:0:
381,150,126381,2,0,P|383:89|340:50,1,108,2|0,3:2|3:0,2:0:0:0:
281,193,126669,2,0,P|279:254|322:293,1,108,10|0,2:0|3:0,2:0:0:0:
423,365,126958,5,10,2:0:0:0:
512,209,127102,2,0,P|449:221|401:235,1,108,0|0,3:0|3:0,2:0:0:0:
173,163,127390,5,10,2:0:0:0:
329,299,127534,1,0,3:0:0:0:
376,42,127679,1,0,3:0:0:0:
266,200,127823,5,10,2:0:0:0:
266,200,127895,1,0,1:0:0:0:
266,200,127967,1,0,1:0:0:0:
266,200,128039,1,0,1:0:0:0:
266,200,128111,2,0,P|185:208|105:223,1,162,6|0,3:1|2:0,2:0:0:0:
80,233,128400,1,8,2:0:0:0:
189,109,128544,1,0,1:0:0:0:
0,150,128688,1,2,3:2:0:0:
118,0,128833,2,0,P|102:65|91:117,1,108,0|8,3:0|2:0,2:0:0:0:
0,273,129121,6,0,B|110:291|50:162|209:198,1,216,2|0,2:0|3:2,2:0:0:0:
377,97,129554,1,10,2:0:0:0:
306,283,129698,2,0,P|295:217|286:170,1,108,0|0,1:0|3:2,2:0:0:0:
462,55,129986,2,0,P|474:106|449:153,1,108,2|8,3:2|2:0,2:0:0:0:
269,62,130275,1,2,2:0:0:0:
405,240,130419,5,0,3:2:0:0:
405,240,130563,1,0,3:0:0:0:
203,175,130708,2,0,P|150:185|96:195,1,108,12|0,2:0|2:0,2:0:0:0:
261,377,130996,6,0,P|270:323|280:270,1,108,2|0,3:2|3:0,2:0:0:0:
85,214,131284,2,0,P|76:163|64:97,1,108,10|0,2:0|2:0,2:0:0:0:
220,0,131573,6,0,P|204:72|186:166,1,162,2|0,3:2|2:0,2:0:0:0:
203,175,131861,1,8,2:0:0:0:
469,116,132006,1,0,1:0:0:0:
469,116,132078,1,0,1:0:0:0:
469,116,132150,1,2,3:2:0:0:
313,17,132294,1,0,3:2:0:0:
338,147,132438,1,8,2:0:0:0:
187,263,132583,6,0,P|267:195|382:240,1,216,4|0,3:1|3:2,2:0:0:0:
469,116,133015,1,8,2:0:0:0:
512,333,133159,2,0,P|428:318|305:302,1,162,6|0,3:2|2:0,2:0:0:0:
338,321,133448,5,0,3:2:0:0:
230,169,133592,1,8,2:0:0:0:
33,270,133736,2,0,P|12:209|46:150,1,108,4|0,3:2|2:0,2:0:0:0:
156,53,134025,5,2,3:2:0:0:
17,152,134169,1,8,2:0:0:0:
133,279,134313,2,0,P|121:331|110:384,1,108,4|0,3:2|2:0,2:0:0:0:
124,144,134602,1,0,3:2:0:0:
224,185,134746,2,0,P|276:173|329:162,1,108,8|0,2:0|3:0,2:0:0:0:
469,248,135034,5,10,2:0:0:0:
317,143,135179,1,0,3:0:0:0:
512,43,135323,1,0,3:0:0:0:
354,248,135467,5,10,2:0:0:0:
384,31,135611,1,0,3:0:0:0:
207,171,135756,1,0,3:0:0:0:
107,0,135900,5,10,2:0:0:0:
248,70,136044,1,0,3:0:0:0:
28,207,136188,1,2,3:0:0:0:
101,125,136333,6,0,P|154:135|206:146,1,108,14|0,2:0|3:0,2:0:0:0:
8,55,136621,5,0,3:0:0:0:
128,215,136765,2,0,P|134:268|146:348,1,108,8|0,2:0|3:0,2:0:0:0:
215,130,137054,1,10,2:0:0:0:
303,176,137198,5,0,1:0:0:0:
303,176,137270,1,0,1:0:0:0:
303,176,137342,2,0,P|359:186|433:207,1,108,4|0,3:2|2:0,2:0:0:0:
495,85,137631,2,0,P|442:92|388:97,1,108,8|2,2:0|2:0,2:0:0:0:
231,229,137919,1,0,3:0:0:0:
214,129,138063,2,0,P|199:236|184:343,1,216,0|2,3:0|3:2,2:0:0:0:
97,249,138496,5,2,3:2:0:0:
284,304,138640,2,0,P|339:290|406:272,1,108,0|8,3:0|2:0,2:0:0:0:
200,116,138929,5,2,2:0:0:0:
303,37,139073,1,0,3:0:0:0:
183,130,139217,2,0,P|128:116|61:98,1,108,0|8,3:0|2:0,2:0:0:0:
208,231,139506,5,2,2:0:0:0:
35,363,139650,2,0,P|21:263|116:205,1,216,0|8,3:0|2:0,2:0:0:0:
333,294,140083,1,2,2:0:0:0:
312,205,140227,2,0,P|306:162|292:80,1,108,0|0,3:0|3:0,2:0:0:0:
431,35,140515,2,0,P|422:88|414:141,1,108,8|0,2:0|2:0,2:0:0:0:
480,247,140804,6,0,P|400:171|298:227,1,216,2|8,3:2|2:0,2:0:0:0:
175,43,141236,1,2,2:0:0:0:
35,149,141381,2,0,P|88:138|141:131,1,108,0|0,3:0|3:0,2:0:0:0:
320,223,141669,2,0,P|236:231|247:149,1,162,8|0,2:0|2:0,2:0:0:0:
277,108,141958,6,0,P|264:193|242:363,1,216,4|10,3:2|2:0,2:0:0:0:
367,144,142390,1,2,2:0:0:0:
140,244,142534,2,0,P|150:296|158:350,1,108,0|2,3:0|3:2,2:0:0:0:
227,171,142823,2,0,P|216:118|208:64,1,108,8|0,2:0|2:0,2:0:0:0:
122,255,143111,6,0,P|54:257|62:106,1,216,2|10,3:2|2:0,2:0:0:0:
234,55,143544,1,2,2:0:0:0:
101,0,143688,2,0,P|111:52|119:106,1,108,0|2,3:0|3:2,2:0:0:0:
240,190,143977,2,0,P|293:199|344:215,1,108,8|0,2:0|2:0,2:0:0:0:
492,91,144265,6,0,P|486:117|480:143,1,54,4|0,3:2|2:0,2:0:0:0:
395,144,144409,2,0,P|401:117|406:91,1,54,0|0,3:0|2:0,2:0:0:0:
512,70,144554,2,0,P|501:124|489:179,1,108,10|2,2:0|2:0,2:0:0:0:
424,317,144842,6,0,P|418:290|412:264,1,54,0|0,3:0|2:0,2:0:0:0:
327,264,144986,2,0,P|333:290|338:316,1,54,2|0,3:2|2:0,2:0:0:0:
444,338,145131,2,0,P|433:283|421:228,1,108,8|0,2:0|2:0,2:0:0:0:
386,65,145419,5,2,3:2:0:0:
281,133,145563,1,0,2:0:0:0:
117,36,145708,2,0,P|64:32|-8:24,1,108,10|2,2:0|2:0,2:0:0:0:
121,172,145996,2,0,L|129:225,2,54,0|0|2,3:0|3:0|3:2,2:0:0:0:
223,15,146284,2,0,L|200:144,1,108,8|0,2:0|2:0,2:0:0:0:
66,310,146573,5,12,2:0:0:0:
66,310,146645,1,0,3:0:0:0:
66,310,146717,1,2,3:2:0:0:
66,310,146789,1,2,3:2:0:0:
66,310,146861,2,0,P|132:276|196:300,1,108,8|0,2:0|3:0,2:0:0:0:
308,176,147150,1,10,2:0:0:0:
263,272,147294,1,2,3:2:0:0:
263,272,147366,1,2,3:2:0:0:
264,272,147438,2,0,P|277:326|286:399,1,108,8|0,2:0|3:0,2:0:0:0:
352,257,147727,5,12,2:0:0:0:
364,252,147799,1,0,3:0:0:0:
377,248,147871,1,2,3:2:0:0:
390,243,147943,1,2,3:2:0:0:
403,239,148015,2,0,P|423:188|409:138,1,108,8|0,2:0|3:0,2:0:0:0:
477,24,148304,1,8,2:0:0:0:
366,49,148448,1,2,3:2:0:0:
350,56,148520,1,2,3:2:0:0:
337,62,148592,2,0,P|285:48|232:38,1,108,8|0,2:0|3:0,2:0:0:0:
2,28,148881,5,12,2:0:0:0:
3,45,148953,1,0,3:0:0:0:
5,62,149025,1,2,3:2:0:0:
7,79,149097,1,2,3:2:0:0:
9,96,149169,1,8,2:0:0:0:
131,34,149313,1,0,3:0:0:0:
250,175,149458,1,8,2:0:0:0:
267,174,149530,1,0,3:0:0:0:
284,172,149602,1,2,3:2:0:0:
301,170,149674,1,2,3:2:0:0:
318,168,149746,2,0,P|330:104|338:53,1,108,8|0,2:0|3:0,2:0:0:0:
447,182,150034,5,12,2:0:0:0:
452,208,150107,1,0,3:0:0:0:
457,235,150179,1,2,3:2:0:0:
461,261,150251,1,0,3:0:0:0:
470,292,150323,2,0,P|411:281|347:271,1,108,8|0,2:0|3:0,2:0:0:0:
345,291,150539,1,0,3:0:0:0:
345,291,150611,1,8,2:0:0:0:
171,369,150756,1,8,2:0:0:0:
244,209,150900,1,8,2:0:0:0:
261,384,151044,6,0,P|252:312|236:242,1,144,0|0,3:0|3:0,2:0:0:0:
249,212,151405,1,0,3:0:0:0:
249,212,151477,2,0,P|169:198|169:102,1,180,12|2,2:1|2:0,2:0:0:0:
194,7,151909,5,0,3:0:0:0:
65,180,152054,1,8,2:0:0:0:
180,102,152198,1,2,2:0:0:0:
267,225,152342,2,0,P|311:233|355:241,1,90,4|0,3:2|3:0,2:0:0:0:
380,234,152559,5,0,3:0:0:0:
380,234,152631,1,8,2:0:0:0:
490,123,152775,2,0,P|500:170|517:246,1,90,2|0,1:0|3:0,2:0:0:0:
378,0,153063,1,0,3:0:0:0:
293,41,153208,2,0,P|246:31|170:14,1,90,8|2,2:0|2:0,2:0:0:0:
173,157,153496,6,0,B|91:139|127:204|47:191,1,135,12|0,2:0|2:0,2:0:0:0:
0,90,153784,2,0,P|60:72|96:124,1,135,8|0,3:0|2:0,2:0:0:0:
39,209,154073,2,0,P|23:274|13:341,1,135,8|0,2:0|2:0,2:0:0:0:
89,384,154361,2,0,B|204:395|146:298|287:317,1,216,4|0,3:1|2:0,2:0:0:0:
282,316,155804,1,2,2:0:0:0:
256,192,155876,12,0,156885,2:0:0:0:
467,296,156958,5,4,3:2:0:0:
375,294,157102,1,8,2:0:0:0:
496,268,157246,1,8,2:0:0:0:
408,384,157390,1,8,2:0:0:0:
270,170,157534,5,8,2:0:0:0:
230,340,157679,1,8,2:0:0:0:
359,109,157823,1,8,2:0:0:0:
399,279,157967,1,8,2:0:0:0:
201,240,158111,6,0,P|120:250|44:278,1,162,4|0,3:1|2:0,2:0:0:0:
32,296,158400,1,8,2:0:0:0:
186,154,158544,1,0,1:0:0:0:
6,105,158688,1,2,3:2:0:0:
131,3,158833,2,0,P|118:54|104:121,1,108,0|8,3:0|2:0,2:0:0:0:
222,255,159121,6,0,B|343:278|292:157|421:191,1,216,2|0,2:0|3:0,2:0:0:0:
509,224,159554,1,10,2:0:0:0:
331,94,159698,2,0,P|295:132|298:185,1,108,0|0,1:0|3:2,2:0:0:0:
394,380,159986,2,0,P|402:326|412:273,1,108,2|8,3:2|2:0,2:0:0:0:
512,108,160275,1,2,2:0:0:0:
318,210,160419,5,0,3:2:0:0:
318,210,160563,1,0,3:0:0:0:
411,163,160708,1,8,2:0:0:0:
311,296,160852,1,0,1:0:0:0:
221,128,160996,1,2,3:2:0:0:
423,182,161140,2,0,P|435:129|446:76,1,108,0|8,3:0|2:0,2:0:0:0:
295,281,161429,6,0,P|173:288|144:169,1,216,2|0,2:0|3:0,2:0:0:0:
0,133,161861,1,10,2:0:0:0:
122,14,162006,2,0,P|110:66|98:119,1,108,0|0,1:0|3:2,2:0:0:0:
0,280,162294,2,0,P|22:228|124:238,1,162,2|0,3:2|2:0,2:0:0:0:
153,316,162583,6,0,P|168:209|191:103,1,216,6|0,3:2|3:0,2:0:0:0:
324,19,163015,2,0,P|362:68|344:126,1,108,8|0,2:0|1:0,2:0:0:0:
273,205,163304,1,2,3:2:0:0:
385,290,163448,1,0,3:0:0:0:
247,224,163592,2,0,P|186:212|134:201,1,108,10|2,2:0|2:0,2:0:0:0:
449,122,163881,6,0,P|472:169|463:221,1,108,2|0,3:2|3:0,2:0:0:0:
265,119,164169,1,8,2:0:0:0:
330,384,164313,2,0,P|344:279|368:172,1,216,2|0,3:2|3:2,2:0:0:0:
183,78,164746,2,0,P|110:91|44:96,1,108,8|0,2:0|2:0,2:0:0:0:
4,290,165034,6,0,P|75:283|48:208,1,162,4|0,3:1|2:0,2:0:0:0:
57,197,165323,2,0,P|110:207|163:220,1,108,10|0,2:0|2:0,2:0:0:0:
297,327,165611,2,0,P|283:267|270:195,1,108,2|0,2:0|3:0,2:0:0:0:
415,81,165900,2,0,P|403:133|393:186,1,108,10|0,2:0|3:0,2:0:0:0:
477,277,166188,5,10,2:0:0:0:
262,228,166333,2,0,P|229:181|253:115,1,108,0|0,3:0|3:0,2:0:0:0:
305,339,166621,5,10,2:0:0:0:
376,177,166765,1,0,3:0:0:0:
130,241,166909,1,0,3:0:0:0:
237,133,167054,5,10,2:0:0:0:
237,133,167126,1,0,1:0:0:0:
237,133,167198,1,0,1:0:0:0:
237,133,167270,1,0,1:0:0:0:
237,133,167342,2,0,P|223:212|214:293,1,162,14|0,2:1|2:0,2:0:0:0:
0,369,167631,1,10,2:0:0:0:
122,232,167775,1,0,3:0:0:0:
221,319,167919,1,10,2:0:0:0:
0,269,168063,2,0,P|16:204|27:152,1,108,8|8,2:3|2:3,2:0:0:0:
260,223,168352,6,0,P|373:206|492:195,1,216,14|0,2:0|3:0,2:0:0:0:
284,63,168784,1,8,2:0:0:0:
356,271,168929,2,0,P|367:205|376:158,1,108,2|0,2:0|3:0,2:0:0:0:
507,4,169217,2,0,P|497:57|487:110,1,108,8|0,2:3|3:0,2:0:0:0:
512,290,169506,1,2,3:0:0:0:
359,152,169650,5,2,2:0:0:0:
359,152,169794,1,0,3:2:0:0:
234,346,169938,2,0,L|107:321,1,108,12|0,2:1|2:0,2:0:0:0:
0,151,170227,6,0,P|42:125|94:132,1,108,2|0,3:2|3:0,2:0:0:0:
216,229,170515,2,0,P|207:175|197:100,1,108,10|0,2:0|2:0,2:0:0:0:
39,50,170804,6,0,P|50:122|62:238,1,162,2|0,3:2|2:0,2:0:0:0:
38,234,171092,1,8,2:0:0:0:
191,121,171236,1,0,1:0:0:0:
191,121,171309,1,0,1:0:0:0:
191,121,171381,1,8,2:3:0:0:
205,307,171525,1,8,2:3:0:0:
144,209,171669,1,4,2:3:0:0:
325,274,171813,6,0,B|438:275|373:176|504:175,1,216,4|0,3:1|3:2,2:0:0:0:
299,100,172246,1,8,2:0:0:0:
411,0,172390,2,0,P|393:102|391:180,1,162,6|0,3:2|2:0,2:0:0:0:
400,181,172679,5,0,3:2:0:0:
227,29,172823,1,8,2:0:0:0:
151,67,172967,2,0,P|95:72|31:79,1,108,4|0,3:2|2:0,2:0:0:0:
330,278,173256,5,2,3:2:0:0:
227,112,173400,1,8,2:0:0:0:
163,160,173544,2,0,P|151:212|140:265,1,108,4|0,3:2|2:0,2:0:0:0:
51,165,173833,5,0,3:2:0:0:
234,273,173977,2,0,P|286:260|339:249,1,108,8|0,2:0|3:0,2:0:0:0:
480,117,174265,5,12,2:0:0:0:
512,315,174409,1,0,3:0:0:0:
353,149,174554,1,0,3:0:0:0:
259,376,174698,5,10,2:0:0:0:
432,205,174842,1,0,3:0:0:0:
410,375,174986,1,0,3:0:0:0:
192,102,175131,5,10,2:0:0:0:
380,290,175275,1,0,2:0:0:0:
132,362,175419,1,2,3:0:0:0:
257,267,175563,6,0,P|261:213|266:159,1,108,14|0,2:0|3:0,2:0:0:0:
362,269,175852,5,0,3:0:0:0:
163,218,175996,2,0,P|109:225|57:240,1,108,8|0,2:0|3:0,2:0:0:0:
0,77,176284,2,0,P|53:83|106:92,1,108,10|0,2:0|2:0,2:0:0:0:
303,40,176573,5,4,3:1:0:0:
424,138,176717,1,0,3:2:0:0:
243,245,176861,2,0,P|212:186|246:127,1,108,8|2,2:0|1:2,2:0:0:0:
387,26,177150,5,0,3:0:0:0:
301,182,177294,1,2,3:2:0:0:
493,221,177438,1,8,2:0:0:0:
406,127,177583,2,0,P|394:180|384:233,1,108,2|0,2:0|3:0,2:0:0:0:
131,166,177871,5,0,3:0:0:0:
338,366,178015,2,0,P|361:255|299:181,1,216,8|2,2:0|3:2,2:0:0:0:
93,333,178448,1,0,3:0:0:0:
269,284,178592,2,0,P|224:265|144:251,1,108,8|0,2:0|2:0,2:0:0:0:
16,132,178881,6,0,P|80:73|176:92,1,162,4|0,3:1|2:0,2:0:0:0:
161,90,179169,1,8,2:0:0:0:
304,0,179313,1,2,2:0:0:0:
242,146,179458,1,2,3:2:0:0:
185,0,179602,2,0,P|195:107|204:215,1,216,2|0,3:2|1:0,2:0:0:0:
313,251,180034,5,2,3:2:0:0:
114,194,180179,1,0,3:2:0:0:
328,262,180323,1,8,2:0:0:0:
86,376,180467,2,0,P|67:319|99:268,1,108,2|0,3:2|2:0,2:0:0:0:
222,140,180756,1,0,3:0:0:0:
405,329,180900,2,0,P|331:304|207:287,1,162,10|0,2:0|2:0,2:0:0:0:
234,377,181188,6,0,P|222:269|201:163,1,216,4|8,3:1|2:0,2:0:0:0:
265,9,181621,1,2,3:2:0:0:
125,98,181765,1,0,3:0:0:0:
125,98,181909,1,0,3:2:0:0:
302,168,182054,2,0,P|350:144|401:156,1,108,8|0,2:0|2:0,2:0:0:0:
492,260,182342,6,0,P|500:205|511:154,1,108,12|0,2:0|3:2,2:0:0:0:
384,321,182631,1,0,3:2:0:0:
296,359,182775,2,0,P|237:348|186:342,1,108,8|0,2:0|2:0,2:0:0:0:
83,186,183063,1,8,2:0:0:0:
33,261,183208,2,0,P|22:320|16:371,1,108,4|0,2:3|1:0,2:0:0:0:
167,242,183496,6,0,P|210:234|256:229,1,72,4|2,3:2|2:0,2:0:0:0:
271,154,183784,2,0,P|306:158|342:165,1,72,0|2,3:0|2:0,2:0:0:0:
403,246,184073,1,0,3:0:0:0:
480,193,184217,2,0,P|484:157|491:121,1,72,2|0,2:0|3:0,2:0:0:0:
409,22,184506,6,0,P|341:9|303:79,1,144,2|2,2:0|2:0,2:0:0:0:
212,92,184938,2,0,P|150:78|120:75,1,72,0|2,3:0|2:0,2:0:0:0:
39,15,185227,1,0,3:0:0:0:
124,85,185371,1,4,3:2:0:0:
26,252,185515,2,0,P|-4:215|8:173,1,80.9999999999998,0|0,3:0|2:0,2:0:0:0:
24,166,185804,6,0,P|67:177|111:183,1,90,4|0,3:2|3:0,2:0:0:0:
310,122,186092,1,10,2:0:0:0:
354,219,186236,1,0,3:0:0:0:
354,219,186309,1,0,3:0:0:0:
354,219,186381,2,0,P|346:260|337:325,1,90,0|0,3:0|3:0,2:0:0:0:
218,151,186669,2,0,P|224:106|233:62,1,90,10|2,2:0|2:0,2:0:0:0:
28,270,186958,6,0,P|19:314|12:358,1,90,0|0,3:0|3:0,2:0:0:0:
175,244,187246,1,10,2:0:0:0:
205,366,187390,1,0,3:0:0:0:
205,366,187462,1,0,3:0:0:0:
205,366,187534,2,0,P|164:358|99:349,1,90,0|0,3:0|3:0,2:0:0:0:
0,178,187823,2,0,P|44:169|88:162,1,90,10|2,2:0|2:0,2:0:0:0:
249,65,188111,5,0,3:2:0:0:
169,22,188256,1,0,3:0:0:0:
236,153,188400,1,10,2:0:0:0:
347,3,188544,1,0,3:0:0:0:
347,3,188616,1,0,3:0:0:0:
347,3,188688,2,0,P|337:47|324:117,1,90,0|0,3:0|3:0,2:0:0:0:
445,213,188977,2,0,P|435:168|422:99,1,90,10|2,2:0|2:0,2:0:0:0:
313,220,189265,5,0,3:0:0:0:
431,103,189409,1,0,3:0:0:0:
488,340,189554,1,10,2:0:0:0:
407,253,189698,1,0,3:0:0:0:
407,253,189770,1,0,3:0:0:0:
407,253,189842,1,0,3:0:0:0:
265,344,189986,1,0,3:0:0:0:
510,253,190131,1,10,2:0:0:0:
289,92,190275,1,2,2:0:0:0:
423,53,190419,5,8,3:0:0:0:
423,53,190491,1,0,3:0:0:0:
423,53,190563,2,0,L|416:100,1,45,0|0,3:0|3:0,2:0:0:0:
292,203,190708,6,0,B|207:194|258:134|151:131,1,162,12|0,2:0|2:0,2:0:0:0:
60,147,190996,2,0,P|16:105|90:16,1,162,4|0,3:2|2:0,2:0:0:0:
115,65,191284,2,0,P|102:133|87:239,1,162,4|0,3:2|2:0,2:0:0:0:
21,307,191573,6,0,P|116:271|215:269,1,162,4|0,3:2|2:0,2:0:0:0:
234,322,191861,2,0,P|301:344|319:244,1,162,4|0,3:2|2:0,2:0:0:0:
343,194,192150,2,0,B|438:195|383:261|483:265,1,162,4|0,3:2|2:0,2:0:0:0:
512,193,192438,2,0,P|503:265|490:384,1,162,4|0,3:2|2:0,2:0:0:0:
415,362,192727,5,4,3:2:0:0:
388,338,192871,1,2,2:0:0:0:
353,328,193015,1,2,2:0:0:0:
318,334,193159,1,2,2:0:0:0:
218,316,193448,1,2,2:0:0:0:
118,298,193736,1,2,2:0:0:0:
18,280,194025,1,2,2:0:0:0:
18,280,194169,1,2,2:0:0:0:
227,88,194458,5,2,2:0:0:0:
227,88,194530,1,2,2:0:0:0:
227,88,194602,1,6,3:1:0:0:
