osu file format v14

[General]
AudioFilename: Art as.mp3
AudioLeadIn: 0
PreviewTime: 50006
Countdown: 0
SampleSet: Soft
StackLeniency: 0.7
Mode: 0
LetterboxInBreaks: 0
WidescreenStoryboard: 1

[Editor]
Bookmarks: 5872,17410,26641,35872,36881,40487,41497,45102,48131,49718,70487,75102,77410,84333
DistanceSpacing: 1.5
BeatDivisor: 4
GridSize: 4
TimelineZoom: 2.5

[Metadata]
Title:Art as
TitleUnicode:Art as ♥
Artist:KOTOKO
ArtistUnicode:KOTOKO
Creator:Laurier
Version:Hard
Source:イノセントガール
Tags:opening eroge genso innocent girl
BeatmapID:638737
BeatmapSetID:282465

[Difficulty]
HPDrainRate:5
CircleSize:4
OverallDifficulty:6
ApproachRate:8
SliderMultiplier:1.5
SliderTickRate:2

[Events]
//Background and Video events
Video,0,"2.flv"
0,0,"dd.jpg",0,0
//Break Periods
//Storyboard Layer 0 (Background)
//Storyboard Layer 1 (Fail)
//Storyboard Layer 2 (Pass)
//Storyboard Layer 3 (Foreground)
//Storyboard Sound Samples

[TimingPoints]
101,288.461538461538,4,2,1,60,1,0
389,-125,4,2,1,30,0,0
4716,-125,4,2,1,20,0,0
5293,-125,4,2,1,40,0,0
5870,-100,4,2,1,60,0,0
17408,-125,4,2,1,40,0,0
26639,-100,4,2,1,60,0,0
46975,-142.857142857143,4,2,1,40,0,0
49716,-100,4,2,1,70,0,1
70485,-100,4,2,1,60,0,0
75100,-125,4,2,1,60,0,0
77408,-100,4,2,1,60,0,0
84331,-125,4,2,1,60,0,0

[Colours]
Combo1 : 255,162,162
Combo2 : 181,255,181
Combo3 : 255,255,179
Combo4 : 181,255,255

[HitObjects]
413,333,1110,6,0,P|355:318|301:340,1,120,6|0,0:0|0:0,0:0:0:0:
190,293,1543,2,0,P|162:305|133:310,1,60,8|0,0:0|0:0,0:0:0:0:
41,233,1831,1,8,0:0:0:0:
41,233,1975,1,2,0:0:0:0:
203,56,2264,6,0,P|260:41|314:63,1,120,6|2,0:0|0:0,0:0:0:0:
343,180,2697,2,0,L|336:262,1,60,8|0,0:0|0:0,0:0:0:0:
451,279,2985,2,0,L|444:361,2,60,8|0|0,0:0|3:0|3:0,0:0:0:0:
458,158,3418,1,6,0:0:0:0:
256,192,3490,12,6,4716,0:0:0:0:
101,338,5293,6,0,P|159:341|205:305,1,120
257,29,5870,6,0,P|249:103|243:178,1,150,6|8,0:0|0:0,0:0:0:0:
316,263,6302,2,0,P|382:291|445:256,1,150,2|2,0:0|0:0,0:0:0:0:
445,256,6735,1,8,0:0:0:0:
507,162,6879,6,0,P|440:133|377:168,1,150,6|2,0:0|0:0,0:0:0:0:
245,179,7312,2,0,L|95:170,1,150,8|2,0:0|0:0,0:0:0:0:
95,170,7745,1,2,0:0:0:0:
178,267,7889,1,8,0:0:0:0:
300,233,8033,6,0,P|320:163|275:107,1,150,6|2,0:0|0:0,0:0:0:0:
181,35,8466,2,0,P|159:65|149:101,1,75,8|0,0:0|0:0,0:0:0:0:
276,107,8754,2,0,P|350:105|425:94,1,150,2|8,0:0|0:0,0:0:0:0:
493,216,9187,6,0,P|455:216|418:224,1,75,6|0,0:0|0:0,0:0:0:0:
351,313,9475,1,2,0:0:0:0:
256,196,9620,1,8,0:0:0:0:
256,196,9764,1,0,0:0:0:0:
200,292,9908,2,0,P|166:307|127:308,1,75,2|2,0:0|0:0,0:0:0:0:
65,214,10197,2,0,P|99:199|137:198,1,75,8|0,0:0|0:0,0:0:0:0:
256,196,10485,6,0,L|261:111,1,75,6|0,0:0|0:0,0:0:0:0:
216,2,10774,1,8,0:0:0:0:
320,43,10918,2,0,B|432:27|432:27|410:56,1,150,6|0,0:0|0:0,0:0:0:0:
350,172,11350,1,8,0:0:0:0:
350,172,11495,2,0,L|345:246,1,75,6|0,0:0|0:0,0:0:0:0:
455,340,11783,6,0,P|418:333|383:344,1,75,2|8,0:0|0:0,0:0:0:0:
274,311,12072,2,0,P|204:330|137:300,1,150,6|2,0:0|0:0,0:0:0:0:
32,245,12504,2,0,P|56:216|89:199,1,75,8|0,0:0|0:0,0:0:0:0:
191,151,12793,6,0,P|202:186|198:223,1,75,6|0,0:0|0:0,0:0:0:0:
90,199,13081,1,8,0:0:0:0:
135,96,13225,2,0,P|205:76|261:121,1,150,6|2,0:0|0:0,0:0:0:0:
304,225,13658,1,8,0:0:0:0:
304,225,13802,6,0,L|471:199,1,150,6|2,0:0|0:0,0:0:0:0:
445,89,14235,2,0,P|409:99|371:101,1,75,8|0,0:0|0:0,0:0:0:0:
262,123,14524,2,0,P|272:158|274:196,1,75,2|2,0:0|0:0,0:0:0:0:
243,334,14812,2,0,P|278:323|316:321,1,75,8|0,0:0|0:0,0:0:0:0:
179,249,15100,6,0,P|108:270|40:241,2,150,6|8|2,0:0|0:0|0:0,0:0:0:0:
167,152,15822,1,2,0:0:0:0:
167,152,15966,2,0,L|154:73,1,75,8|4,0:0|0:0,0:0:0:0:
244,10,16254,6,0,L|256:84,1,75,2|2,0:0|0:0,0:0:0:0:
300,188,16543,2,0,L|283:229,2,37.5,8|0|0,0:0|0:0|0:0,0:0:0:0:
345,85,16831,1,2,0:0:0:0:
410,176,16975,1,2,0:0:0:0:
410,176,17120,1,8,0:0:0:0:
256,340,17408,6,0,P|199:328|144:351,1,120,6|0,0:0|0:0,0:0:0:0:
27,227,17841,2,0,P|81:249|139:237,1,120
237,191,18274,2,0,L|304:191,1,60,2|0,0:0|0:0,0:0:0:0:
477,191,18562,6,0,P|496:135|480:78,1,120,2|2,0:0|0:0,0:0:0:0:
387,23,18995,1,0,0:0:0:0:
387,22,19139,2,0,P|371:48|367:78,1,60,2|0,0:0|0:0,0:0:0:0:
369,186,19427,2,0,P|364:215|349:241,1,60,2|0,0:0|0:0,0:0:0:0:
349,349,19716,6,0,L|467:328,1,120,2|2,0:0|0:0,0:0:0:0:
349,241,20149,1,0,0:0:0:0:
349,241,20293,2,0,P|322:254|292:258,1,60,2|0,0:0|0:0,0:0:0:0:
191,222,20581,2,0,P|167:203|139:193,1,60,2|0,0:0|0:0,0:0:0:0:
6,282,20870,6,0,L|125:268,2,120,2|2|2,0:0|0:0|0:0,0:0:0:0:
45,180,21591,1,0,0:0:0:0:
45,180,21735,2,0,L|49:120,1,60,2|0,0:0|0:0,0:0:0:0:
131,48,22024,6,0,P|187:62|241:38,1,120,2|2,0:0|0:0,0:0:0:0:
284,137,22456,1,0,0:0:0:0:
283,137,22600,2,0,P|312:127|342:125,1,60,2|0,0:0|0:0,0:0:0:0:
400,215,22889,2,0,P|371:225|341:227,1,60,2|0,0:0|0:0,0:0:0:0:
234,230,23177,6,0,L|217:348,1,120,2|2,0:0|0:0,0:0:0:0:
120,299,23610,1,0,0:0:0:0:
119,299,23754,2,0,P|93:313|64:319,1,60,2|0,0:0|0:0,0:0:0:0:
8,214,24043,2,0,P|37:220|63:234,1,60,2|0,0:0|0:0,0:0:0:0:
172,143,24331,6,0,P|228:158|283:136,1,120,2|2,0:0|0:0,0:0:0:0:
361,61,24764,1,0,0:0:0:0:
361,61,24908,2,0,L|368:0,1,60,2|0,0:0|0:0,0:0:0:0:
462,53,25197,2,0,L|455:112,1,60,2|0,0:0|0:0,0:0:0:0:
440,302,25485,5,2,0:0:0:0:
476,198,25629,1,2,0:0:0:0:
369,218,25774,2,0,P|340:214|310:214,1,60,8|0,0:0|0:0,0:0:0:0:
155,260,26062,2,0,P|185:264|215:264,1,60,2|2,0:0|0:0,0:0:0:0:
70,193,26350,2,0,L|34:186,2,30,8|0|0,0:0|0:0|0:0,0:0:0:0:
192,135,26639,6,0,P|222:68|197:0,1,150,6|8,0:0|0:0,0:0:0:0:
59,65,27072,1,0,0:0:0:0:
60,66,27216,2,0,P|96:73|132:64,1,75,2|2,0:0|0:0,0:0:0:0:
305,35,27504,2,0,P|341:26|377:33,1,75,8|0,0:0|0:0,0:0:0:0:
477,126,27793,6,0,P|503:193|466:255,1,150,2|8,0:0|0:0,0:0:0:0:
369,198,28225,1,0,0:0:0:0:
369,198,28370,2,0,P|353:231|349:268,1,75,2|2,0:0|0:0,0:0:0:0:
324,378,28658,2,0,P|290:362|253:358,1,75,8|0,0:0|0:0,0:0:0:0:
122,272,28947,6,0,P|195:275|250:228,1,150,2|8,0:0|0:0,0:0:0:0:
265,115,29379,2,0,L|267:40,1,75,0|2,0:0|0:0,0:0:0:0:
167,92,29668,2,0,L|164:166,1,75,2|8,0:0|0:0,0:0:0:0:
296,151,29956,6,0,L|302:0,1,150,6|2,0:0|0:0,0:0:0:0:
412,66,30389,2,0,P|439:90|476:98,1,75,8|0,0:0|0:0,0:0:0:0:
412,208,30677,2,0,P|375:215|347:240,1,75,2|2,0:0|0:0,0:0:0:0:
293,356,30966,1,8,0:0:0:0:
293,356,31110,1,0,0:0:0:0:
186,285,31254,6,0,L|37:262,1,150,6|8,0:0|0:0,0:0:0:0:
37,262,31687,1,0,0:0:0:0:
124,169,31831,2,0,P|160:182|197:184,1,75,2|2,0:0|0:0,0:0:0:0:
211,327,32120,2,0,P|175:314|138:312,1,75,8|0,0:0|0:0,0:0:0:0:
279,247,32408,6,0,P|351:257|411:214,1,150,6|8,0:0|0:0,0:0:0:0:
372,108,32841,1,0,0:0:0:0:
372,108,32985,2,0,L|383:26,1,75,2|2,0:0|0:0,0:0:0:0:
275,72,33274,2,0,L|265:146,1,75,8|0,0:0|0:0,0:0:0:0:
162,190,33562,6,0,P|92:214|23:188,1,150,6|8,0:0|0:0,0:0:0:0:
104,99,33995,1,0,0:0:0:0:
104,98,34139,2,0,P|138:85|176:81,1,75,2|2,0:0|0:0,0:0:0:0:
276,31,34427,2,0,P|310:44|347:48,1,75,8|0,0:0|0:0,0:0:0:0:
429,125,34716,6,0,P|417:161|412:198,1,75,6|2,0:0|0:0,0:0:0:0:
466,314,35004,1,8,0:0:0:0:
465,314,35293,2,0,P|433:332|396:334,1,75,2|2,0:0|0:0,0:0:0:0:
312,259,35581,2,0,P|274:261|242:279,1,75,2|2,0:0|0:0,0:0:0:0:
164,360,35870,5,2,0:0:0:0:
164,360,36014,1,8,0:0:0:0:
79,255,36158,1,8,0:0:0:0:
169,190,36302,2,0,P|177:115|182:40,1,150,0|2,0:0|0:0,0:0:0:0:
182,40,36735,1,12,0:0:0:0:
298,130,36879,6,0,P|368:155|436:129,1,150,2|2,0:0|0:0,0:0:0:0:
361,45,37312,2,0,P|326:31|289:29,1,75,8|0,0:0|0:0,0:0:0:0:
299,131,37600,2,0,P|291:205|286:280,1,150,2|8,0:0|0:0,0:0:0:0:
379,344,38033,6,0,P|309:319|241:345,1,150,2|2,0:0|0:0,0:0:0:0:
150,277,38466,2,0,P|128:307|120:343,1,75,8|0,0:0|0:0,0:0:0:0:
216,218,38754,2,0,P|185:196|149:188,1,75,2|2,0:0|0:0,0:0:0:0:
274,287,39043,2,0,P|295:256|303:220,1,75,8|0,0:0|0:0,0:0:0:0:
256,77,39331,5,2,0:0:0:0:
256,77,39620,1,8,0:0:0:0:
350,16,39764,1,2,0:0:0:0:
370,126,39908,2,0,P|402:135|448:137,1,75,2|2,0:0|0:0,0:0:0:0:
505,231,40197,2,0,P|467:232|431:242,1,75,8|2,0:0|0:0,0:0:0:0:
328,286,40485,5,6,0:0:0:0:
328,286,40629,1,8,0:0:0:0:
257,170,40774,1,8,0:0:0:0:
177,247,40918,2,0,P|105:264|45:223,1,150,0|2,0:0|0:0,0:0:0:0:
45,223,41350,1,8,0:0:0:0:
0,98,41495,6,0,P|72:81|132:122,1,150,6|2,0:0|0:0,0:0:0:0:
257,170,41927,2,0,L|266:91,1,75,8|0,0:0|0:0,0:0:0:0:
377,108,42216,2,0,P|449:125|509:84,1,150,2|8,0:0|0:0,0:0:0:0:
508,84,42649,6,0,L|490:243,1,150,6|2,0:0|0:0,0:0:0:0:
380,259,43081,2,0,P|350:280|326:308,1,75,8|0,0:0|0:0,0:0:0:0:
231,371,43370,2,0,P|200:349|176:321,1,75,2|2,0:0|0:0,0:0:0:0:
84,256,43658,2,0,P|53:277|29:305,1,75,8|0,0:0|0:0,0:0:0:0:
176,321,43947,6,0,P|197:250|167:183,1,150,2|8,0:0|0:0,0:0:0:0:
60,147,44379,1,0,0:0:0:0:
60,147,44524,2,0,L|72:70,1,75,2|2,0:0|0:0,0:0:0:0:
172,23,44812,2,0,L|160:97,1,75,8|0,0:0|0:0,0:0:0:0:
282,154,45100,6,0,P|352:172|413:132,1,150,6|8,0:0|0:0,0:0:0:0:
413,132,45533,1,8,0:0:0:0:
398,266,45677,2,0,L|385:341,1,75,2|0,0:0|0:0,0:0:0:0:
385,339,45966,1,8,0:0:0:0:
76,302,46975,5,0,0:0:0:0:
76,302,47120,1,0,0:0:0:0:
76,302,47264,1,0,0:0:0:0:
76,302,47408,6,0,L|179:284,1,104.999996795654
193,195,47841,2,0,L|296:177,1,104.999996795654
385,162,48274,1,0,0:0:0:0:
385,162,48418,6,0,L|396:97,1,52.4999983978272
314,70,48706,2,0,L|322:18,1,52.4999983978272,0|2,0:0|0:0,0:0:0:0:
233,29,48995,1,2,0:0:0:0:
233,29,49139,1,2,0:0:0:0:
233,29,49283,1,8,0:0:0:0:
233,28,49427,2,0,P|210:42|185:49,1,52.4999983978272,8|0,0:0|0:0,0:0:0:0:
103,102,49716,6,0,L|10:94,1,75,6|0,0:0|0:0,0:0:0:0:
65,201,50004,6,0,L|139:207,1,75,8|0,0:0|0:0,0:0:0:0:
244,215,50293,1,2,0:0:0:0:
244,214,50437,2,0,P|238:251|221:285,1,75,0|8,0:0|0:0,0:0:0:0:
137,335,50725,1,0,0:0:0:0:
137,335,50870,6,0,L|295:349,1,150,2|8,0:0|0:0,0:0:0:0:
329,244,51302,2,0,P|332:206|321:171,1,75,0|2,0:0|0:0,0:0:0:0:
186,102,51591,1,2,0:0:0:0:
186,102,51735,2,0,P|216:123|253:130,1,75,8|0,0:0|0:0,0:0:0:0:
383,50,52024,6,0,P|349:65|324:93,1,75,2|0,0:0|0:0,0:0:0:0:
329,245,52312,2,0,L|316:319,1,75,8|0,0:0|0:0,0:0:0:0:
213,359,52600,1,2,0:0:0:0:
213,359,52745,2,0,L|226:285,1,75,2|8,0:0|0:0,0:0:0:0:
162,192,53033,1,0,0:0:0:0:
162,192,53177,6,0,P|92:173|31:212,1,150,2|8,0:0|0:0,0:0:0:0:
46,323,53610,2,0,P|80:308|106:281,1,75,0|2,0:0|0:0,0:0:0:0:
87,173,53899,2,0,L|86:91,1,75,2|8,0:0|0:0,0:0:0:0:
175,30,54187,1,0,0:0:0:0:
175,30,54331,6,0,P|236:69|306:49,1,150,6|8,0:0|0:0,0:0:0:0:
419,37,54764,1,0,0:0:0:0:
419,37,54908,2,0,P|417:74|403:108,1,75,2|2,0:0|0:0,0:0:0:0:
300,155,55197,2,0,P|301:193|315:227,1,75,8|0,0:0|0:0,0:0:0:0:
381,318,55485,6,0,P|423:258|409:187,1,150,2|8,0:0|0:0,0:0:0:0:
315,228,55918,1,0,0:0:0:0:
315,228,56062,2,0,L|148:217,1,150,2|8,0:0|0:0,0:0:0:0:
69,157,56495,1,0,0:0:0:0:
68,156,56639,6,0,P|50:124|45:87,1,75,6|0,0:0|0:0,0:0:0:0:
150,29,56927,2,0,P|144:65|126:98,1,75,8|0,0:0|0:0,0:0:0:0:
0,205,57216,2,0,P|71:191|127:237,1,150,2|8,0:0|0:0,0:0:0:0:
151,347,57649,1,0,0:0:0:0:
151,347,57793,6,0,L|300:335,1,150,8|0,0:0|0:0,0:0:0:0:
238,242,58225,2,0,L|387:230,1,150,6|0,0:0|0:0,0:0:0:0:
493,191,58658,2,0,P|504:155|502:118,1,75,8|0,0:0|0:0,0:0:0:0:
421,5,58947,5,6,0:0:0:0:
421,5,59235,2,0,P|409:40|411:77,1,75,8|0,0:0|0:0,0:0:0:0:
320,144,59524,2,0,L|241:135,1,75,2|2,0:0|0:0,0:0:0:0:
192,234,59812,2,0,L|113:225,1,75,8|0,0:0|0:0,0:0:0:0:
25,160,60100,6,0,P|8:89|50:29,1,150,2|8,0:0|0:0,0:0:0:0:
162,39,60533,1,0,0:0:0:0:
162,39,60677,2,0,P|198:44|236:41,1,75,2|2,0:0|0:0,0:0:0:0:
326,109,60966,2,0,P|320:145|323:183,1,75,8|0,0:0|0:0,0:0:0:0:
472,261,61254,6,0,P|400:248|340:289,1,150,2|8,0:0|0:0,0:0:0:0:
240,339,61687,1,0,0:0:0:0:
239,339,61831,2,0,P|167:351|107:310,2,150,2|8|2,0:0|0:0|0:0,0:0:0:0:
195,234,62552,5,0,0:0:0:0:
195,234,62697,2,0,L|195:157,1,75,8|0,0:0|0:0,0:0:0:0:
293,105,62985,2,0,L|293:180,2,75,2|2|8,0:0|0:0|0:0,0:0:0:0:
178,47,63418,6,0,B|70:30|70:30|88:66,1,150,6|2,0:0|0:0,0:0:0:0:
85,193,63850,1,8,0:0:0:0:
84,193,63995,2,0,P|73:228|49:256,1,75,0|2,0:0|0:0,0:0:0:0:
144,317,64283,2,0,P|169:344|181:379,1,75,2|8,0:0|0:0,0:0:0:0:
288,341,64572,6,0,L|444:328,1,150,2|2,0:0|0:0,0:0:0:0:
472,220,65004,1,8,0:0:0:0:
472,220,65149,2,0,P|435:228|397:228,1,75,2|0,0:0|0:0,0:0:0:0:
286,211,65437,1,2,0:0:0:0:
286,211,65581,2,0,L|286:134,1,75,8|0,0:0|0:0,0:0:0:0:
368,27,65870,6,0,P|302:60|232:38,1,150,6|0,0:0|0:0,0:0:0:0:
192,159,66302,2,0,L|192:317,1,150,8|0,0:0|0:0,0:0:0:0:
304,317,66735,2,0,L|357:300,2,37.5,8|0|0,0:0|0:0|0:0,0:0:0:0:
191,309,67024,6,0,L|101:293,1,75,2|8,0:0|0:0,0:0:0:0:
16,217,67312,2,0,L|89:203,1,75
193,160,67600,2,0,P|215:91|172:33,1,150,2|8,0:0|0:0,0:0:0:0:
172,33,68033,1,0,0:0:0:0:
298,52,68177,6,0,B|407:34|407:34|383:65,1,150,6|8,0:0|0:0,0:0:0:0:
311,153,68610,2,0,P|288:221|331:279,1,150,2|2,0:0|0:0,0:0:0:0:
438,207,69043,2,0,P|401:199|365:208,1,75,8|0,0:0|0:0,0:0:0:0:
230,304,69331,6,0,P|160:325|94:293,2,150,2|8|2,0:0|0:0|0:0,0:0:0:0:
168,208,70052,1,2,0:0:0:0:
168,208,70197,2,0,L|168:133,1,75,8|0,0:0|0:0,0:0:0:0:
238,45,70485,6,0,P|304:13|374:34,1,150,6|8,0:0|0:0,0:0:0:0:
443,124,70918,1,0,0:0:0:0:
353,192,71062,1,2,0:0:0:0:
442,259,71206,2,0,L|439:338,2,75,2|8|0,0:0|0:0|0:0,0:0:0:0:
352,192,71639,6,0,P|320:210|284:219,1,75,2|0,0:0|0:0,0:0:0:0:
282,332,71927,2,0,P|245:322|213:303,1,75,8|0,0:0|0:0,0:0:0:0:
158,204,72216,2,0,L|8:188,1,150,2|8,0:0|0:0,0:0:0:0:
282,332,72793,6,0,L|267:182,1,150,6|8,0:0|0:0,0:0:0:0:
315,80,73225,2,0,P|243:93|183:50,1,150,2|2,0:0|0:0,0:0:0:0:
152,165,73658,2,0,P|158:201|155:238,1,75,8|0,0:0|0:0,0:0:0:0:
133,350,73947,6,0,L|281:331,1,150,6|8,0:0|0:0,0:0:0:0:
415,223,74379,2,0,P|345:246|280:213,1,150,2|2,0:0|0:0,0:0:0:0:
256,102,74812,1,8,0:0:0:0:
256,102,75100,5,4,0:0:0:0:
132,26,75389,1,2,0:0:0:0:
24,120,75677,1,2,0:0:0:0:
99,243,75966,2,0,L|107:312,1,60,2|0,0:0|0:0,0:0:0:0:
205,280,76254,6,0,P|260:260|317:275,2,120,2|2|2,0:0|0:0|0:0,0:0:0:0:
272,350,76975,1,4,0:0:0:0:
272,350,77120,2,0,P|299:361|329:364,1,60,2|0,0:0|0:0,0:0:0:0:
419,285,77408,6,0,L|436:126,1,150,6|8,0:0|0:0,0:0:0:0:
377,38,77841,1,0,0:0:0:0:
377,38,77985,2,0,P|346:57|307:61,1,75,2|2,0:0|0:0,0:0:0:0:
301,174,78274,2,0,P|264:165|234:140,1,75,8|0,0:0|0:0,0:0:0:0:
196,36,78562,6,0,L|116:29,1,75,2|0,0:0|0:0,0:0:0:0:
32,130,78850,2,0,L|106:136,1,75,8|0,0:0|0:0,0:0:0:0:
179,251,79139,2,0,L|153:340,1,75,2|2,0:0|0:0,0:0:0:0:
286,281,79427,2,0,L|307:209,1,75,8|0,0:0|0:0,0:0:0:0:
347,79,79716,5,2,0:0:0:0:
347,79,79860,1,0,0:0:0:0:
434,181,80004,2,0,P|470:188|507:188,1,75,8|0,0:0|0:0,0:0:0:0:
440,305,80293,2,0,P|403:297|366:297,1,75,2|2,0:0|0:0,0:0:0:0:
240,348,80581,2,0,P|250:311|253:274,1,75,8|0,0:0|0:0,0:0:0:0:
156,178,80870,6,0,P|146:214|143:251,1,75,2|0,0:0|0:0,0:0:0:0:
264,192,81158,2,0,P|273:155|276:118,1,75,8|0,0:0|0:0,0:0:0:0:
182,19,81447,1,2,0:0:0:0:
182,19,81591,1,2,0:0:0:0:
315,38,81735,2,0,L|394:28,2,75,8|0|2,0:0|0:0|0:0,0:0:0:0:
37,218,82312,6,0,P|109:207|164:255,2,150,6|2|2,0:0|0:0|0:0,0:0:0:0:
256,376,83177,1,2,0:0:0:0:
457,195,83466,1,2,0:0:0:0:
255,15,83754,1,2,0:0:0:0:
255,15,84043,1,2,0:0:0:0:
255,15,84331,6,0,L|242:73,1,60
312,130,84620,2,0,L|324:188,1,60
257,375,85052,1,0,0:0:0:0:
257,375,85341,1,0,0:0:0:0:
257,375,85629,6,0,L|257:298,1,60
255,46,86062,2,0,L|255:0,2,30,0|0|6,0:0|0:0|0:0,0:0:0:0:
