osu file format v14

[General]
AudioFilename: audio.mp3
AudioLeadIn: 0
PreviewTime: 60344
Countdown: 0
SampleSet: Normal
StackLeniency: 0.7
Mode: 0
LetterboxInBreaks: 0
EpilepsyWarning: 1
WidescreenStoryboard: 1

[Editor]
Bookmarks: 59246
DistanceSpacing: 1.2
BeatDivisor: 4
GridSize: 16
TimelineZoom: 2.5

[Metadata]
Title:Aonatsu Line (Short Ver.)
TitleUnicode:アオナツライン
Artist:KOTOKO
ArtistUnicode:KOTOKO
Creator:Zer0-G
Version:Normal
Source:アオナツライン
Tags:Blue giga eroge visual novel vn opening short ver
BeatmapID:2178543
BeatmapSetID:1039174

[Difficulty]
HPDrainRate:2.4
CircleSize:3
OverallDifficulty:2.7
ApproachRate:4.2
SliderMultiplier:0.999999904632569
SliderTickRate:1

[Events]
//Background and Video events
0,0,"gbb.jpg",0,0
//Break Periods
2,55421,56526
//Storyboard Layer 0 (Background)
//Storyboard Layer 1 (Fail)
//Storyboard Layer 2 (Pass)
//Storyboard Layer 3 (Foreground)
//Storyboard Layer 4 (Overlay)
//Storyboard Sound Samples

[TimingPoints]
1076,365.853658536585,4,1,0,100,1,0
2539,-142.857142857143,4,2,1,45,0,0
14246,-125,4,1,1,55,0,0
25954,-142.857142857143,4,2,1,45,0,0
37661,-133.333333333333,4,1,1,65,0,0
49368,-142.857142857143,4,1,1,55,0,0
57966,-125,4,1,1,65,0,0
61075,-117.647058823529,4,1,1,65,0,1
84490,-117.647058823529,4,1,1,65,0,0

[Colours]
Combo1 : 0,255,0
Combo2 : 0,128,255
Combo3 : 255,128,0
Combo4 : 128,128,192

[HitObjects]
38,251,2539,6,0,P|70:262|181:250,1,139.999982376099,8|0,0:0|0:0,0:0:0:0:
261,323,3636,1,0,0:0:0:0:
261,323,3819,2,0,B|339:324|339:324|418:255,1,174.999977970124,8|0,0:0|0:0,0:0:0:0:
470,163,5100,1,0,0:0:0:0:
398,77,5466,6,0,P|357:62|268:103,1,139.999982376099,8|0,0:0|0:0,0:0:0:0:
188,171,6563,1,0,0:0:0:0:
188,171,6746,2,0,P|179:126|105:77,1,139.999982376099,8|0,0:0|0:0,0:0:0:0:
22,223,8027,1,0,0:0:0:0:
115,160,8393,6,0,P|139:194|119:298,1,139.999982376099,8|0,0:0|0:0,0:0:0:0:
226,341,9490,1,0,0:0:0:0:
226,341,9673,2,0,L|402:356,1,174.999977970124,8|0,0:0|0:0,0:0:0:0:
511,374,10954,1,0,0:0:0:0:
485,265,11319,6,0,P|447:214|472:136,1,139.999982376099,8|0,0:0|0:0,0:0:0:0:
444,33,12417,1,0,0:0:0:0:
444,33,12600,1,8,0:0:0:0:
39,82,14246,6,0,P|67:122|37:270,1,199.999980926514,6|0,0:0|0:0,0:0:0:0:
113,329,15527,2,0,P|203:299|269:334,1,159.999984741211,6|0,0:0|0:0,0:0:0:0:
351,347,16624,2,0,P|403:354|433:343,1,79.9999923706055
451,303,17173,6,0,P|430:273|448:142,1,159.999984741211,6|0,0:0|0:0,0:0:0:0:
461,114,18088,1,0,0:0:0:0:
382,59,18454,6,0,B|336:39|288:62|288:62|223:92|178:59,1,199.999980926514,6|0,0:0|0:0,0:0:0:0:
95,46,19734,1,0,0:0:0:0:
113,140,20100,6,0,P|76:157|44:199,1,79.9999923706055,6|0,0:0|0:0,0:0:0:0:
19,277,20832,1,8,0:0:0:0:
113,259,21197,1,8,0:0:0:0:
163,340,21563,5,8,0:0:0:0:
231,273,21929,1,8,0:0:0:0:
300,339,22295,1,8,0:0:0:0:
356,261,22661,1,8,0:0:0:0:
417,334,23027,6,0,P|443:293|433:171,1,159.999984741211,14|0,0:0|0:0,0:0:0:0:
446,89,24124,2,0,P|415:86|340:181,1,159.999984741211,14|0,0:0|0:0,0:0:0:0:
372,264,25222,1,8,0:0:0:0:
293,319,25588,1,0,0:0:0:0:
229,244,25954,6,0,P|241:209|220:137,1,104.999986782074,4|2,0:0|0:0,0:0:0:0:
101,66,27051,1,2,0:0:0:0:
101,66,27234,2,0,P|78:110|73:177,1,104.999986782074,2|2,0:0|0:0,0:0:0:0:
90,210,27966,2,0,P|106:249|91:314,1,104.999986782074,2|0,0:0|0:0,0:0:0:0:
174,365,28880,6,0,P|207:341|328:379,1,174.999977970124,2|2,0:0|0:0,0:0:0:0:
422,358,30161,2,0,P|404:319|424:251,1,104.999986782074,2|0,0:0|0:0,0:0:0:0:
348,190,31075,1,2,0:0:0:0:
413,116,31441,1,2,0:0:0:0:
345,45,31807,6,0,P|294:35|239:48,1,104.999986782074,2|2,0:0|0:0,0:0:0:0:
97,66,32905,1,2,0:0:0:0:
97,66,33088,2,0,P|119:88|124:164,1,104.999986782074,2|2,0:0|0:0,0:0:0:0:
80,177,33819,2,0,P|46:212|47:275,1,104.999986782074,2|0,0:0|0:0,0:0:0:0:
120,326,34734,6,0,P|192:300|252:325,1,139.999982376099,2|2,0:0|0:0,0:0:0:0:
395,328,36015,1,2,0:0:0:0:
395,328,36197,2,0,P|364:280|392:191,1,139.999982376099,2|2,0:0|0:0,0:0:0:0:
444,127,37295,1,8,1:0:0:0:
391,35,37661,6,0,P|370:51|346:143,1,112.499993562698,0|2,0:0|0:0,0:0:0:0:
382,282,38758,1,10,0:0:0:0:
382,282,38941,2,0,P|394:312|351:379,1,112.499993562698,2|10,0:0|0:0,0:0:0:0:
304,376,39673,2,0,P|252:358|180:371,1,112.499993562698,2|8,0:0|0:0,0:0:0:0:
91,352,40588,6,0,P|116:318|116:239,1,112.499993562698,2|2,0:0|0:0,0:0:0:0:
52,169,41502,1,2,0:0:0:0:
81,68,41868,2,0,P|110:94|261:80,1,187.499989271164,2|2,0:0|0:0,0:0:0:0:
346,47,43149,1,10,0:0:0:0:
410,130,43515,6,0,B|427:164|427:164|420:212,1,74.9999957084655,2|10,0:0|0:0,0:0:0:0:
413,252,44063,1,2,0:0:0:0:
342,330,44429,1,2,0:0:0:0:
289,238,44795,2,0,P|263:246|199:316,1,112.499993562698,2|10,0:0|0:0,0:0:0:0:
180,351,45527,1,2,0:0:0:0:
47,266,46075,5,10,0:0:0:0:
47,266,46258,2,0,P|39:219|152:146,1,187.499989271164,2|0,0:0|0:0,0:0:0:0:
162,244,47539,1,8,0:0:0:0:
162,244,47722,2,0,P|209:249|280:218,1,112.499993562698,6|0,0:0|0:0,0:0:0:0:
283,122,48636,2,0,P|309:109|364:108,1,74.9999957084655,2|2,0:0|0:0,0:0:0:0:
430,167,49368,6,0,B|450:210|450:210|446:281,1,104.999986782074,6|2,0:0|0:0,0:0:0:0:
317,313,50466,1,2,0:0:0:0:
317,313,50649,2,0,P|270:284|161:325,1,174.999977970124,2|10,0:0|0:0,0:0:0:0:
74,303,51929,1,10,0:0:0:0:
41,217,52295,6,0,P|67:183|56:120,1,104.999986782074,6|2,0:0|0:0,0:0:0:0:
111,49,53210,1,10,0:0:0:0:
180,107,53575,2,0,B|229:101|229:101|293:106,1,104.999986782074,6|0,0:0|0:0,0:0:0:0:
352,44,54490,6,0,P|374:101|343:185,1,139.999982376099,10|6,0:0|0:0,0:0:0:0:
104,87,57966,6,0,P|82:113|143:252,1,199.999980926514,14|0,0:0|0:0,0:0:0:0:
196,166,59246,1,0,0:0:0:0:
196,166,59429,2,0,P|245:201|251:266,1,119.999988555908,14|8,0:0|0:0,0:0:0:0:
469,40,61075,6,0,P|492:88|487:136,1,84.9999935150146,6|8,0:0|0:0,0:0:0:0:
395,153,61807,1,0,0:0:0:0:
455,235,62173,1,10,0:0:0:0:
455,235,62356,2,0,P|472:273|435:358,1,127.499990272522,2|8,0:0|0:0,0:0:0:0:
371,279,63271,1,2,0:0:0:0:
293,344,63636,1,10,0:0:0:0:
243,254,64002,6,0,P|201:264|172:303,1,84.9999935150146,2|10,0:0|0:0,0:0:0:0:
151,340,64551,1,2,0:0:0:0:
58,296,64917,1,2,0:0:0:0:
110,208,65283,2,0,P|124:178|105:121,1,84.9999935150146,2|0,0:0|0:0,0:0:0:0:
50,47,66015,2,0,P|111:33|152:37,1,84.9999935150146
183,41,66563,1,10,0:0:0:0:
237,127,66929,6,0,P|285:126|321:99,1,84.9999935150146,0|10,0:0|0:0,0:0:0:0:
353,72,67478,1,2,0:0:0:0:
470,169,68027,1,10,0:0:0:0:
470,169,68210,2,0,P|453:205|463:266,1,84.9999935150146,2|2,0:0|0:0,0:0:0:0:
394,331,68941,2,0,P|357:316|305:320,1,84.9999935150146,2|0,0:0|0:0,0:0:0:0:
262,330,69490,1,8,0:0:0:0:
160,336,69856,6,0,P|135:354|39:318,1,127.499990272522,2|2,0:0|0:0,0:0:0:0:
59,282,70588,2,0,P|73:254|10:126,1,169.999987030029,2|0,0:0|0:0,0:0:0:0:
83,48,71685,1,10,0:0:0:0:
163,111,72051,1,2,0:0:0:0:
232,36,72417,1,10,0:0:0:0:
300,112,72783,6,0,P|326:144|336:204,1,84.9999935150146,6|8,0:0|0:0,0:0:0:0:
237,208,73515,1,0,0:0:0:0:
285,297,73880,1,10,0:0:0:0:
285,297,74063,2,0,P|312:314|416:303,1,127.499990272522,6|8,0:0|0:0,0:0:0:0:
460,224,74978,1,2,0:0:0:0:
395,144,75344,1,10,0:0:0:0:
469,74,75710,6,0,P|419:38|343:63,1,127.499990272522,6|6,0:0|0:0,0:0:0:0:
277,113,76624,1,2,0:0:0:0:
198,47,76990,2,0,P|174:79|185:177,1,127.499990272522,6|8,0:0|0:0,0:0:0:0:
269,204,77905,1,2,0:0:0:0:
239,301,78271,1,8,0:0:0:0:
146,343,78636,6,0,P|98:345|63:306,1,84.9999935150146,6|8,0:0|0:0,0:0:0:0:
105,226,79368,1,0,0:0:0:0:
34,152,79734,1,8,0:0:0:0:
112,86,80100,6,0,P|136:58|192:41,1,84.9999935150146,2|8,0:0|0:0,0:0:0:0:
216,136,80832,1,0,0:0:0:0:
297,74,81197,1,8,0:0:0:0:
370,144,81563,6,0,P|356:170|375:278,1,127.499990272522,2|0,0:0|0:0,0:0:0:0:
448,204,82478,1,8,0:0:0:0:
438,305,82844,2,0,P|424:333|361:359,1,84.9999935150146,2|2,0:0|0:0,0:0:0:0:
301,291,83575,1,2,0:0:0:0:
218,350,83941,1,10,0:0:0:0:
162,264,84307,1,2,0:0:0:0:
162,264,84490,6,0,P|111:275|63:340,1,127.499990272522,6|2,0:0|0:0,0:0:0:0:
25,298,85222,2,0,P|14:263|40:169,1,127.499990272522,2|0,0:0|0:0,0:0:0:0:
119,120,86136,1,2,0:0:0:0:
67,31,86502,1,0,0:0:0:0:
67,31,86685,2,0,P|120:13|161:23,1,84.9999935150146,2|8,0:0|0:0,0:0:0:0:
249,29,87417,6,0,P|234:70|253:163,1,127.499990272522,2|0,0:0|0:0,0:0:0:0:
270,196,88149,1,0,0:0:0:0:
365,159,88515,1,8,0:0:0:0:
365,159,88697,2,0,P|387:194|393:252,1,84.9999935150146,2|0,0:0|0:0,0:0:0:0:
384,338,89429,1,0,0:0:0:0:
384,338,89612,2,0,L|282:327,1,84.9999935150146,2|10,0:0|0:0,0:0:0:0:
197,335,90344,6,0,P|212:312|193:218,1,127.499990272522,6|0,0:0|0:0,0:0:0:0:
162,180,91075,1,0,0:0:0:0:
67,141,91441,1,10,0:0:0:0:
67,141,91624,1,2,0:0:0:0:
39,42,91990,1,2,0:0:0:0:
139,25,92356,1,0,0:0:0:0:
139,25,92539,2,0,P|188:22|231:34,1,84.9999935150146,2|8,0:0|0:0,0:0:0:0:
324,28,93271,6,0,P|351:112|293:181,1,169.999987030029,14|0,0:0|0:0,0:0:0:0:
224,113,94368,2,0,P|197:154|245:259,1,169.999987030029,14|0,0:0|0:0,0:0:0:0:
306,179,95466,1,14,0:0:0:0:
368,259,95832,1,8,0:0:0:0:
