osu file format v14

[General]
AudioFilename: audio.mp3
AudioLeadIn: 0
PreviewTime: 60344
Countdown: 0
SampleSet: Normal
StackLeniency: 0.7
Mode: 0
LetterboxInBreaks: 0
EpilepsyWarning: 1
WidescreenStoryboard: 1

[Editor]
Bookmarks: 14795,22844,59246
DistanceSpacing: 1.1
BeatDivisor: 4
GridSize: 16
TimelineZoom: 2.5

[Metadata]
Title:Aonatsu Line (Short Ver.)
TitleUnicode:アオナツライン
Artist:KOTOKO
ArtistUnicode:KOTOKO
Creator:Zer0-G
Version:Insane
Source:アオナツライン
Tags:Blue giga eroge visual novel vn opening short ver
BeatmapID:2190770
BeatmapSetID:1039174

[Difficulty]
HPDrainRate:6.2
CircleSize:4.1
OverallDifficulty:6.8
ApproachRate:9
SliderMultiplier:1.79999990463257
SliderTickRate:1

[Events]
//Background and Video events
0,0,"gbb.jpg",0,0
//Break Periods
//Storyboard Layer 0 (Background)
//Storyboard Layer 1 (Fail)
//Storyboard Layer 2 (Pass)
//Storyboard Layer 3 (Foreground)
//Storyboard Layer 4 (Overlay)
//Storyboard Sound Samples

[TimingPoints]
1076,365.853658536585,4,1,0,100,1,0
2539,-153.846153846154,4,2,1,45,0,0
14246,-125,4,1,1,65,0,0
20466,-125,4,1,1,25,0,0
21563,-125,4,1,1,55,0,0
22661,-125,4,1,1,65,0,0
25954,-153.846153846154,4,2,1,45,0,0
37661,-125,4,1,1,55,0,0
55222,-153.846153846154,4,2,1,45,0,0
57966,-125,4,1,1,65,0,0
58423,-125,4,1,1,35,0,0
58880,-125,4,1,1,55,0,0
59429,-105.263157894737,4,1,1,65,0,0
61075,-100,4,1,1,65,0,1
84490,-100,4,1,1,65,0,0
96289,-153.846153846154,4,2,1,15,0,0

[Colours]
Combo1 : 0,255,0
Combo2 : 0,128,255
Combo3 : 255,128,0
Combo4 : 128,128,192

[HitObjects]
102,82,2539,6,0,L|240:75,1,116.999988445283,8|0,0:0|0:0,0:0:0:0:
343,43,3088,1,0,0:0:0:0:
343,43,3271,2,0,L|336:165,1,116.999988445283
257,313,3819,6,0,P|257:248|321:239,1,116.999988445283,8|0,0:0|0:0,0:0:0:0:
421,151,4551,1,0,0:0:0:0:
421,151,4734,2,0,L|348:149,1,58.4999942226413
253,160,5100,1,0,0:0:0:0:
253,160,5283,1,0,0:0:0:0:
111,71,5466,6,0,P|119:117|113:204,1,116.999988445283,8|0,0:0|0:0,0:0:0:0:
139,351,6015,1,0,0:0:0:0:
185,274,6197,2,0,L|64:277,1,116.999988445283
229,196,6746,6,0,P|272:250|273:312,1,116.999988445283,8|0,0:0|0:0,0:0:0:0:
445,339,7478,1,0,0:0:0:0:
445,339,7569,1,0,0:0:0:0:
445,339,7661,2,0,L|359:341,1,58.4999942226413
343,217,8027,2,0,L|340:194,5,19.4999980742138
343,217,8393,6,0,P|405:226|458:191,1,116.999988445283,8|0,0:0|0:0,0:0:0:0:
338,100,8941,1,0,0:0:0:0:
338,100,9124,2,0,L|344:241,1,116.999988445283,2|0,1:0|0:0,0:0:0:0:
118,217,9673,6,0,P|154:245|233:229,1,116.999988445283,8|0,0:0|0:0,0:0:0:0:
101,119,10222,2,0,P|55:141|43:156,1,58.4999942226413
160,27,10588,2,0,P|183:62|186:81,1,58.4999942226413,2|0,1:0|0:0,0:0:0:0:
173,224,10954,2,0,P|162:187|165:164,1,58.4999942226413
366,163,11319,6,0,L|238:161,1,116.999988445283,8|0,0:0|0:0,0:0:0:0:
85,77,11868,1,0,0:0:0:0:
85,77,12051,2,0,L|86:154,1,58.4999942226413,2|0,1:0|0:0,0:0:0:0:
41,255,12417,1,2,1:0:0:0:
200,200,12600,1,10,0:0:0:0:
256,192,12691,12,0,13880,0:0:0:0:
418,76,14246,6,0,B|354:97|349:147|349:147|340:211|276:230,1,215.999988555908,6|0,0:0|0:0,0:0:0:0:
190,110,14978,1,0,0:0:0:0:
190,110,15161,2,0,L|190:202,1,71.9999961853028,2|0,0:0|0:0,0:0:0:0:
65,296,15527,6,0,P|113:257|200:286,1,143.999992370606,6|0,0:0|0:0,0:0:0:0:
364,213,16075,2,0,L|281:217,1,71.9999961853028
211,47,16441,2,0,P|195:108|206:170,1,107.999994277954,2|0,0:0|0:0,0:0:0:0:
209,186,16807,1,2,0:0:0:0:
46,50,16990,1,0,0:0:0:0:
46,50,17082,1,0,0:0:0:0:
46,50,17173,6,0,P|101:63|191:49,1,143.999992370606,6|0,0:0|0:0,0:0:0:0:
284,191,17722,2,0,L|279:110,1,71.9999961853028
349,0,18088,2,0,L|361:80,1,71.9999961853028,2|0,0:0|0:0,0:0:0:0:
379,315,18454,6,0,P|400:265|340:192,1,143.999992370606,6|0,0:0|0:0,0:0:0:0:
179,265,19002,2,0,L|257:256,1,71.9999961853028
146,72,19368,5,6,0:0:0:0:
165,97,19460,1,0,0:0:0:0:
180,125,19551,1,8,0:0:0:0:
182,157,19643,1,8,0:0:0:0:
165,184,19734,5,0,0:0:0:0:
137,201,19825,1,0,0:0:0:0:
120,228,19917,1,0,0:0:0:0:
113,259,20008,1,0,0:0:0:0:
127,288,20100,6,0,P|153:339|211:361,1,107.999994277954,6|0,0:0|0:0,0:0:0:0:
283,350,20466,2,8,L|273:315,3,35.9999980926514
355,233,20832,2,8,L|351:268,3,35.9999980926514
446,332,21197,2,8,L|410:335,3,35.9999980926514
462,232,21563,6,8,L|468:195,3,35.9999980926514
402,100,21929,2,8,L|405:148,3,35.9999980926514
314,187,22295,5,8,0:0:0:0:
280,166,22386,1,8,0:0:0:0:
241,155,22478,1,8,0:0:0:0:
202,164,22569,1,8,0:0:0:0:
169,187,22661,1,8,0:0:0:0:
130,197,22752,1,8,0:0:0:0:
90,189,22844,1,8,0:0:0:0:
237,22,23027,5,14,0:0:0:0:
179,152,23210,2,0,L|185:223,1,71.9999961853028,8|0,0:0|0:0,0:0:0:0:
237,22,23575,5,14,0:0:0:0:
306,192,23758,2,0,L|297:263,1,71.9999961853028,8|0,0:0|0:0,0:0:0:0:
237,22,24124,5,14,0:0:0:0:
185,223,24307,2,0,L|189:294,1,71.9999961853028,8|0,0:0|0:0,0:0:0:0:
237,22,24673,5,14,0:0:0:0:
297,263,24856,2,0,L|291:334,1,71.9999961853028,8|0,0:0|0:0,0:0:0:0:
276,119,25222,5,14,0:0:0:0:
238,106,25313,1,8,0:0:0:0:
199,114,25405,1,0,0:0:0:0:
164,133,25496,1,0,0:0:0:0:
126,145,25588,1,0,0:0:0:0:
86,145,25679,1,0,0:0:0:0:
52,123,25771,1,0,0:0:0:0:
47,83,25862,1,0,0:0:0:0:
69,59,25954,6,0,P|103:41|137:33,1,58.4999942226413,6|0,1:0|0:0,0:0:0:0:
221,19,26319,1,2,0:0:0:0:
221,19,26502,2,0,L|228:95,1,58.4999942226413,2|0,0:0|0:0,0:0:0:0:
227,204,26868,1,0,0:0:0:0:
303,125,27051,1,2,0:0:0:0:
341,243,27234,2,0,L|403:236,1,58.4999942226413,2|0,0:0|0:0,0:0:0:0:
508,172,27600,1,0,0:0:0:0:
414,62,27783,1,2,0:0:0:0:
414,62,27966,6,0,L|419:147,1,58.4999942226413,2|0,0:0|0:0,0:0:0:0:
402,218,28332,1,0,0:0:0:0:
295,156,28515,1,0,0:0:0:0:
287,270,28697,1,2,0:0:0:0:
269,122,28880,6,0,P|263:162|260:244,1,116.999988445283,2|2,0:0|0:0,0:0:0:0:
321,341,29429,2,0,L|243:343,1,58.4999942226413,2|0,0:0|0:0,0:0:0:0:
113,292,29795,2,0,L|180:289,1,58.4999942226413,2|0,0:0|0:0,0:0:0:0:
258,214,30161,1,2,0:0:0:0:
204,69,30344,6,0,L|206:136,1,58.4999942226413
75,212,30710,2,0,L|153:215,1,58.4999942226413
320,144,31075,2,0,L|197:138,1,116.999988445283,2|2,0:0|0:0,0:0:0:0:
21,24,31807,6,0,P|33:79|39:148,1,116.999988445283,2|2,0:0|0:0,0:0:0:0:
0,235,32356,2,0,P|33:230|72:238,1,58.4999942226413,2|0,0:0|0:0,0:0:0:0:
144,304,32722,1,0,0:0:0:0:
170,181,32905,1,2,0:0:0:0:
246,302,33088,1,2,0:0:0:0:
207,120,33271,6,0,P|218:166|225:248,1,116.999988445283,0|2,0:0|0:0,0:0:0:0:
293,372,33819,2,0,P|286:324|278:292,1,58.4999942226413,2|0,0:0|0:0,0:0:0:0:
236,201,34185,1,0,0:0:0:0:
301,115,34368,1,0,0:0:0:0:
342,233,34551,1,2,0:0:0:0:
224,77,34734,6,0,L|352:84,1,116.999988445283,2|0,0:0|0:0,0:0:0:0:
480,116,35283,1,2,0:0:0:0:
480,116,35466,2,0,L|485:34,1,58.4999942226413,2|0,0:0|0:0,0:0:0:0:
399,149,35832,2,0,L|401:222,1,58.4999942226413,0|2,0:0|0:0,0:0:0:0:
467,317,36197,6,0,P|424:297|344:331,1,116.999988445283,2|0,0:0|0:0,0:0:0:0:
269,373,36746,1,2,0:0:0:0:
198,201,36929,1,2,0:0:0:0:
141,345,37112,1,8,1:0:0:0:
141,345,37204,1,8,1:0:0:0:
141,345,37295,1,10,1:0:0:0:
295,216,37478,1,0,1:0:0:0:
295,216,37569,1,0,1:0:0:0:
295,216,37661,6,0,P|336:199|358:152,1,71.9999961853028,6|0,0:0|0:0,0:0:0:0:
286,49,38027,1,10,0:0:0:0:
193,172,38210,1,2,0:0:0:0:
193,172,38301,1,0,0:0:0:0:
193,172,38393,1,0,0:0:0:0:
156,35,38575,1,0,0:0:0:0:
295,116,38758,1,10,0:0:0:0:
92,114,38941,6,0,P|108:158|127:261,1,143.999992370606,2|0,0:0|0:0,0:0:0:0:
11,155,39490,2,0,P|7:101|18:52,1,71.9999961853028,10|2,0:0|0:0,0:0:0:0:
99,193,39856,1,0,0:0:0:0:
99,193,39947,1,8,0:0:0:0:
99,193,40039,1,0,0:0:0:0:
1,304,40222,2,0,L|92:305,1,71.9999961853028,8|2,0:0|0:0,0:0:0:0:
188,189,40588,6,0,L|191:344,1,143.999992370606,2|10,0:0|0:0,0:0:0:0:
281,211,41136,1,2,0:0:0:0:
281,211,41228,1,0,0:0:0:0:
281,211,41319,1,0,0:0:0:0:
328,357,41502,1,2,0:0:0:0:
380,228,41685,1,10,0:0:0:0:
458,357,41868,6,0,P|463:288|386:257,1,143.999992370606,2|0,0:0|0:0,0:0:0:0:
322,113,42417,2,0,P|315:162|324:208,1,71.9999961853028,10|0,0:0|0:0,0:0:0:0:
341,290,42783,1,2,0:0:0:0:
341,290,42874,1,8,0:0:0:0:
341,290,42966,1,0,0:0:0:0:
462,183,43149,2,0,L|365:187,1,71.9999961853028,2|0,0:0|0:0,0:0:0:0:
322,113,43424,1,8,0:0:0:0:
294,123,43515,6,0,L|317:285,1,143.999992370606,2|10,0:0|0:0,0:0:0:0:
175,195,44063,1,2,0:0:0:0:
175,195,44155,1,0,0:0:0:0:
175,195,44246,1,0,0:0:0:0:
139,348,44429,1,2,0:0:0:0:
267,283,44612,1,10,0:0:0:0:
76,180,44795,6,0,P|90:248|153:278,1,143.999992370606,2|0,0:0|0:0,0:0:0:0:
83,27,45344,2,0,P|93:71|88:111,1,71.9999961853028,10|2,0:0|0:0,0:0:0:0:
66,216,45710,1,0,0:0:0:0:
66,216,45801,1,8,0:0:0:0:
66,216,45893,1,0,0:0:0:0:
171,94,46075,2,0,L|176:179,1,71.9999961853028,10|2,0:0|0:0,0:0:0:0:
115,309,46441,6,0,B|153:293|184:313|184:313|222:333|267:318,1,143.999992370606,0|8,0:0|0:0,0:0:0:0:
355,215,46990,1,2,0:0:0:0:
355,215,47082,1,0,0:0:0:0:
355,215,47173,1,2,0:0:0:0:
373,355,47356,1,0,0:0:0:0:
469,233,47539,1,10,0:0:0:0:
219,268,47722,6,0,P|269:264|350:188,1,143.999992370606,6|0,0:0|0:0,0:0:0:0:
190,57,48271,1,8,0:0:0:0:
162,84,48362,1,0,0:0:0:0:
158,123,48454,1,0,0:0:0:0:
175,158,48545,1,0,0:0:0:0:
210,175,48636,1,0,0:0:0:0:
317,21,48819,6,0,L|319:171,1,143.999992370606,6|0,0:0|0:0,0:0:0:0:
175,158,49368,6,0,B|135:159|135:159|76:172|76:172|26:169,1,143.999992370606,6|2,0:0|0:0,0:0:0:0:
64,23,49917,2,0,L|74:110,1,71.9999961853028,2|0,0:0|0:0,0:0:0:0:
38,222,50283,1,0,0:0:0:0:
123,136,50466,1,10,0:0:0:0:
163,234,50649,2,0,L|148:386,1,143.999992370606,2|0,0:0|0:0,0:0:0:0:
251,326,51197,2,0,L|338:321,1,71.9999961853028
213,127,51563,5,10,0:0:0:0:
284,233,51746,1,2,0:0:0:0:
348,81,51929,1,10,0:0:0:0:
184,98,52112,1,10,0:0:0:0:
184,98,52204,1,8,0:0:0:0:
184,98,52295,6,0,P|256:76|344:114,1,143.999992370606,6|2,0:0|0:0,0:0:0:0:
435,7,52844,2,0,L|430:93,1,71.9999961853028,2|0,0:0|0:0,0:0:0:0:
333,210,53210,1,10,0:0:0:0:
317,97,53393,1,2,0:0:0:0:
451,187,53575,2,0,L|290:179,1,143.999992370606,6|0,0:0|0:0,0:0:0:0:
199,108,54124,1,0,0:0:0:0:
150,211,54307,1,0,0:0:0:0:
306,177,54490,6,10,L|320:249,2,47.9999974568685
246,85,54856,2,0,L|234:28,2,47.9999974568685
197,192,55222,6,0,L|123:191,2,58.4999942226413,6|2|2,1:0|0:0|0:0,0:0:0:0:
308,148,55771,2,0,P|288:195|304:268,1,116.999988445283
339,348,56319,1,2,0:0:0:0:
239,340,56502,2,0,P|187:326|106:350,1,116.999988445283,2|2,0:0|0:0,0:0:0:0:
39,348,57051,1,0,0:0:0:0:
178,213,57234,2,0,L|37:211,1,116.999988445283,2|0,0:0|0:0,0:0:0:0:
61,211,57783,1,0,0:0:0:0:
245,27,57966,6,0,B|235:65|235:65|264:99|257:166,1,143.999992370606,6|0,0:0|0:0,0:0:0:0:
243,201,58423,1,8,0:0:0:0:
282,196,58515,1,0,0:0:0:0:
320,203,58606,1,0,0:0:0:0:
355,219,58697,1,0,0:0:0:0:
385,245,58789,1,0,0:0:0:0:
423,254,58880,5,0,0:0:0:0:
462,247,58972,1,0,0:0:0:0:
486,216,59063,1,0,0:0:0:0:
489,176,59155,1,0,0:0:0:0:
464,144,59246,1,0,0:0:0:0:
329,7,59429,2,0,L|348:152,1,128.249989780426,14|0,0:0|0:0,0:0:0:0:
361,209,59795,1,10,0:0:0:0:
153,146,59978,1,10,0:0:0:0:
425,29,61075,6,0,B|374:43|355:83|355:83|326:135|270:135,1,179.999990463257,6|8,0:0|0:0,0:0:0:0:
133,69,61624,1,2,0:0:0:0:
133,69,61716,1,0,0:0:0:0:
133,69,61807,1,2,0:0:0:0:
135,223,61990,1,0,0:0:0:0:
10,134,62173,1,10,0:0:0:0:
236,92,62356,6,0,P|201:173|268:233,1,179.999990463257,2|0,0:0|0:0,0:0:0:0:
156,265,62905,2,0,P|109:244|68:234,1,89.9999952316285,8|2,0:0|0:0,0:0:0:0:
180,347,63271,2,0,P|226:367|268:377,1,89.9999952316285,2|0,0:0|0:0,0:0:0:0:
287,205,63636,2,0,P|237:246|203:297,1,89.9999952316285,10|0,0:0|0:0,0:0:0:0:
398,288,64002,6,0,P|402:209|435:106,1,179.999990463257,2|10,0:0|0:0,0:0:0:0:
496,14,64551,1,2,0:0:0:0:
496,14,64643,1,0,0:0:0:0:
496,14,64734,1,2,0:0:0:0:
419,170,64917,1,2,0:0:0:0:
357,5,65100,1,8,0:0:0:0:
315,151,65283,6,0,P|308:206|314:278,1,89.9999952316285,2|0,0:0|0:0,0:0:0:0:
246,57,65649,1,2,0:0:0:0:
216,84,65740,1,0,0:0:0:0:
199,121,65832,1,10,0:0:0:0:
163,322,66015,2,0,P|154:268|130:221,1,89.9999952316285,2|2,0:0|0:0,0:0:0:0:
99,176,66289,1,8,0:0:0:0:
99,176,66380,1,0,0:0:0:0:
236,31,66563,2,0,L|242:132,1,89.9999952316285,10|0,0:0|0:0,0:0:0:0:
427,221,66929,6,0,P|342:253|260:218,1,179.999990463257,2|10,0:0|0:0,0:0:0:0:
208,329,67478,1,2,0:0:0:0:
208,329,67569,1,0,0:0:0:0:
208,329,67661,1,2,0:0:0:0:
100,188,67844,1,0,0:0:0:0:
59,352,68027,1,10,0:0:0:0:
10,184,68210,6,0,P|2:229|2:274,1,89.9999952316285,2|0,0:0|0:0,0:0:0:0:
91,90,68575,2,0,P|99:160|97:207,1,89.9999952316285,2|8,0:0|0:0,0:0:0:0:
113,314,68941,2,0,P|102:242|197:197,1,179.999990463257,2|0,0:0|0:0,0:0:0:0:
271,267,69490,1,8,0:0:0:0:
289,121,69673,1,2,0:0:0:0:
386,243,69856,6,0,P|393:153|385:63,1,179.999990463257,2|8,0:0|0:0,0:0:0:0:
303,357,70405,1,2,0:0:0:0:
303,357,70496,1,0,0:0:0:0:
303,357,70588,1,2,0:0:0:0:
463,286,70771,1,0,0:0:0:0:
350,191,70954,1,8,0:0:0:0:
363,324,71136,6,0,P|331:236|358:130,1,179.999990463257,2|0,0:0|0:0,0:0:0:0:
351,15,71685,1,10,0:0:0:0:
446,175,71868,1,0,0:0:0:0:
446,175,71960,1,8,0:0:0:0:
446,175,72051,1,10,0:0:0:0:
224,101,72234,5,8,0:0:0:0:
198,125,72325,1,8,0:0:0:0:
185,158,72417,1,2,0:0:0:0:
186,193,72508,1,0,0:0:0:0:
199,226,72600,2,0,P|206:247|222:277,1,44.9999976158143
310,355,72783,6,0,B|269:333|215:350|215:350|156:367|102:337,1,179.999990463257,6|8,0:0|0:0,0:0:0:0:
2,234,73332,1,2,0:0:0:0:
2,234,73423,1,0,0:0:0:0:
2,234,73515,1,2,0:0:0:0:
189,200,73697,1,0,0:0:0:0:
18,121,73880,1,10,0:0:0:0:
217,181,74063,6,0,P|218:115|121:64,1,179.999990463257,6|0,0:0|0:0,0:0:0:0:
63,157,74612,2,0,L|56:266,1,89.9999952316285,8|2,0:0|0:0,0:0:0:0:
174,164,74978,2,0,B|218:146|266:145,1,89.9999952316285,2|0,0:0|0:0,0:0:0:0:
137,265,75344,2,0,B|93:283|2:284,1,134.999992847443,10|0,0:0|0:0,0:0:0:0:
8,201,75710,5,6,0:0:0:0:
194,120,75893,1,0,0:0:0:0:
8,158,76075,1,10,0:0:0:0:
210,263,76258,2,0,P|181:200|254:107,1,179.999990463257,6|2,0:0|0:0,0:0:0:0:
349,202,76807,1,8,0:0:0:0:
432,61,76990,6,0,B|391:79|377:122|377:122|359:169|302:186,1,179.999990463257,6|0,0:0|0:0,0:0:0:0:
203,113,77539,1,8,0:0:0:0:
262,240,77722,1,2,0:0:0:0:
262,240,77813,1,8,0:0:0:0:
262,240,77905,1,2,0:0:0:0:
108,175,78088,5,0,0:0:0:0:
73,166,78179,1,0,0:0:0:0:
40,149,78271,1,8,0:0:0:0:
9,129,78362,2,0,L|19:235,1,89.9999952316285
37,297,78636,6,0,L|-21:336,3,44.9999976158143,2|0|0|0,0:0|0:0|0:0|0:0,0:0:0:0:
124,274,79002,2,0,L|133:326,1,44.9999976158143,10|0,0:0|0:0,0:0:0:0:
214,337,79185,2,0,L|239:294,3,44.9999976158143,2|0|0|0,0:0|0:0|0:0|0:0,0:0:0:0:
193,166,79551,2,0,L|197:219,1,44.9999976158143,2|0,0:0|0:0,0:0:0:0:
292,219,79734,2,0,L|336:198,3,44.9999976158143,10|0|0|0,0:0|0:0|0:0|0:0,0:0:0:0:
256,128,80100,5,2,0:0:0:0:
238,96,80191,1,0,0:0:0:0:
206,77,80283,1,2,0:0:0:0:
170,71,80374,1,0,0:0:0:0:
138,88,80466,2,0,L|148:145,3,44.9999976158143,8|0|2|0,0:0|0:0|0:0|0:0,0:0:0:0:
109,235,80832,5,2,0:0:0:0:
132,272,80923,1,0,0:0:0:0:
177,292,81015,1,0,0:0:0:0:
221,292,81106,1,0,0:0:0:0:
256,263,81198,2,0,L|246:206,3,44.9999976158143,10|0|2|0,0:0|0:0|0:0|0:0,0:0:0:0:
316,148,81563,6,0,P|331:208|334:333,1,179.999990463257,2|8,0:0|0:0,0:0:0:0:
455,359,82112,1,2,0:0:0:0:
455,359,82204,1,0,0:0:0:0:
455,359,82295,1,2,0:0:0:0:
309,252,82478,1,8,0:0:0:0:
501,294,82661,1,2,0:0:0:0:
354,143,82844,1,2,0:0:0:0:
401,343,83027,6,0,P|421:296|434:247,1,89.9999952316285,8|2,0:0|0:0,0:0:0:0:
395,92,83393,2,0,P|375:139|362:188,1,89.9999952316285,0|2,0:0|0:0,0:0:0:0:
359,212,83667,1,8,0:0:0:0:
326,197,83758,1,8,0:0:0:0:
292,182,83850,1,8,0:0:0:0:
256,182,83941,1,2,0:0:0:0:
223,197,84033,1,0,0:0:0:0:
196,221,84124,1,0,0:0:0:0:
167,242,84216,5,0,0:0:0:0:
131,244,84307,1,2,0:0:0:0:
95,235,84399,1,0,0:0:0:0:
63,217,84490,6,0,P|111:176|134:50,1,179.999990463257,6|8,0:0|0:0,0:0:0:0:
326,110,85039,1,2,0:0:0:0:
326,110,85130,1,0,0:0:0:0:
326,110,85222,1,2,0:0:0:0:
148,154,85405,1,0,0:0:0:0:
303,253,85588,1,8,0:0:0:0:
225,39,85771,6,0,B|183:69|137:62|137:62|83:49|36:92,1,179.999990463257,2|0,0:0|0:0,0:0:0:0:
162,238,86319,1,10,0:0:0:0:
10,171,86502,1,0,0:0:0:0:
213,141,86685,2,0,L|224:245,1,89.9999952316285,2|0,0:0|0:0,0:0:0:0:
313,355,87051,2,0,L|301:254,1,89.9999952316285,8|0,0:0|0:0,0:0:0:0:
444,148,87417,6,0,B|396:119|351:138|351:138|291:158|240:113,1,179.999990463257,2|8,0:0|0:0,0:0:0:0:
160,35,87966,1,2,0:0:0:0:
160,35,88057,1,0,0:0:0:0:
160,35,88149,1,2,0:0:0:0:
274,191,88332,1,0,0:0:0:0:
94,127,88515,1,8,0:0:0:0:
314,38,88697,6,0,P|266:143|331:205,1,179.999990463257,2|0,0:0|0:0,0:0:0:0:
339,287,89246,1,8,0:0:0:0:
159,229,89429,1,0,0:0:0:0:
159,229,89521,1,0,0:0:0:0:
159,229,89612,2,0,L|160:288,1,44.9999976158143,2|8,0:0|0:0,0:0:0:0:
95,375,89795,2,0,L|94:321,1,44.9999976158143
29,253,89978,6,0,L|150:245,1,89.9999952316285,10|0,0:0|0:0,0:0:0:0:
198,84,90344,6,0,P|210:151|216:268,1,179.999990463257,6|8,0:0|0:0,0:0:0:0:
340,375,90893,1,2,0:0:0:0:
340,375,90984,1,0,0:0:0:0:
340,375,91075,1,2,0:0:0:0:
300,197,91258,1,0,0:0:0:0:
470,258,91441,1,8,0:0:0:0:
246,321,91624,6,0,P|286:278|234:167,1,179.999990463257,2|0,0:0|0:0,0:0:0:0:
202,31,92173,2,0,P|184:81|180:144,1,89.9999952316285,8|0,0:0|0:0,0:0:0:0:
315,78,92539,1,2,0:0:0:0:
194,226,92722,1,0,0:0:0:0:
95,72,92905,2,0,P|103:122|103:173,1,89.9999952316285,10|0,0:0|0:0,0:0:0:0:
401,226,93271,5,14,0:0:0:0:
260,267,93454,2,0,P|206:275|152:292,1,89.9999952316285,8|0,0:0|0:0,0:0:0:0:
420,225,93819,5,14,0:0:0:0:
202,166,94002,2,0,P|148:158|94:141,1,89.9999952316285,8|0,0:0|0:0,0:0:0:0:
444,225,94368,5,14,0:0:0:0:
176,279,94551,2,0,P|122:287|68:304,1,89.9999952316285,8|0,0:0|0:0,0:0:0:0:
464,225,94917,5,14,0:0:0:0:
141,178,95100,2,0,P|87:170|33:153,1,89.9999952316285,8|0,0:0|0:0,0:0:0:0:
238,58,95466,5,8,0:0:0:0:
258,87,95557,1,8,0:0:0:0:
270,120,95649,1,0,0:0:0:0:
274,155,95740,1,8,0:0:0:0:
267,190,95832,1,8,0:0:0:0:
143,317,96015,6,0,L|251:308,1,89.9999952316285,2|0,0:0|0:0,0:0:0:0:
256,192,96289,12,2,99033,0:0:0:0:
