osu file format v14

[General]
AudioFilename: audio.mp3
AudioLeadIn: 0
PreviewTime: 60344
Countdown: 0
SampleSet: Soft
StackLeniency: 0.7
Mode: 0
LetterboxInBreaks: 0
EpilepsyWarning: 1
WidescreenStoryboard: 1

[Editor]
Bookmarks: 59246
DistanceSpacing: 3.8
BeatDivisor: 4
GridSize: 16
TimelineZoom: 2.5

[Metadata]
Title:Aonatsu Line (Short Ver.)
TitleUnicode:アオナツライン
Artist:KOTOKO
ArtistUnicode:KOTOKO
Creator:Zer0-G
Version:Hard (in progress)
Source:アオナツライン
Tags:Blue giga eroge visual novel vn opening short ver
BeatmapID:2179931
BeatmapSetID:1039174

[Difficulty]
HPDrainRate:4.7
CircleSize:3.7
OverallDifficulty:4.8
ApproachRate:7.7
SliderMultiplier:1.39999990463257
SliderTickRate:1

[Events]
//Background and Video events
0,0,"gbb.jpg",0,0
//Break Periods
//Storyboard Layer 0 (Background)
//Storyboard Layer 1 (Fail)
//Storyboard Layer 2 (Pass)
//Storyboard Layer 3 (Foreground)
//Storyboard Layer 4 (Overlay)
//Storyboard Sound Samples

[TimingPoints]
1076,365.853658536585,4,1,0,100,1,0
2539,-133.333333333333,4,2,1,45,0,0
14246,-125,4,2,1,45,0,0
25954,-133.333333333333,4,2,1,45,0,0

[Colours]
Combo1 : 0,255,0
Combo2 : 0,128,255
Combo3 : 255,128,0
Combo4 : 128,128,192

[HitObjects]
118,37,2539,6,0,P|95:100|103:147,1,104.999996852875
178,176,3088,2,0,P|166:218|114:266,1,104.999996852875
32,333,3636,1,0,0:0:0:0:
32,333,3819,6,0,L|143:337,1,104.999996852875
337,346,4551,1,0,0:0:0:0:
337,346,4734,2,0,P|333:305|337:278,1,52.4999984264374
403,213,5100,2,0,P|409:251|408:273,1,52.4999984264374
307,224,5466,6,0,L|185:249,1,104.999996852875
104,297,6015,2,0,L|-13:286,1,104.999996852875
92,193,6563,1,0,0:0:0:0:
92,193,6746,2,0,P|106:152|78:81,1,104.999996852875
0,0,7478,5,0,0:0:0:0:
0,0,7569,1,0,0:0:0:0:
0,0,7661,2,0,L|76:5,1,52.4999984264374
161,43,8027,2,0,L|234:28,1,52.4999984264374
272,145,8393,6,0,P|281:104|353:75,1,104.999996852875
360,191,8941,1,0,0:0:0:0:
360,191,9124,2,0,P|358:237|329:291,1,104.999996852875
405,352,9673,6,0,P|463:338|492:289,1,104.999996852875
507,204,10222,2,0,L|492:139,1,52.4999984264374
446,68,10588,2,0,L|467:-1,1,52.4999984264374
350,22,10954,2,0,L|294:40,1,52.4999984264374
186,64,11319,6,0,P|216:86|232:167,1,104.999996852875
123,148,11868,1,0,0:0:0:0:
123,148,12051,2,0,L|58:166,1,52.4999984264374
64,32,12417,1,0,0:0:0:0:
64,32,12600,1,0,0:0:0:0:
256,192,12691,12,0,13880,0:0:0:0:
482,207,14246,6,0,B|443:180|398:198|398:198|347:215|298:192,1,167.999988555908
212,236,14978,1,0,0:0:0:0:
212,236,15161,2,0,L|137:243,1,55.9999961853028
43,283,15527,6,0,P|60:252|29:168,1,111.999992370606
2,99,16075,2,0,L|76:93,1,55.9999961853028
156,120,16441,2,0,L|245:106,1,83.9999942779542
369,47,16990,1,0,0:0:0:0:
369,47,17082,1,0,0:0:0:0:
369,47,17173,6,0,P|350:89|364:162,1,111.999992370606
448,253,17722,2,0,P|452:216|437:185,1,55.9999961853028
382,306,18088,2,0,P|370:350|378:381,1,55.9999961853028
370,223,18454,6,0,B|329:217|329:217|245:240,1,111.999992370606
166,271,19002,2,0,L|101:264,1,55.9999961853028
30,342,19368,6,0,L|36:383,7,27.9999980926514
24,301,20100,6,0,B|16:268|16:268|31:176,1,111.999992370606
17,69,20649,1,0,0:0:0:0:
17,69,20832,2,0,L|56:71,3,27.9999980926514
104,116,21197,2,0,L|141:107,3,27.9999980926514
173,45,21563,6,0,L|211:51,3,27.9999980926514
245,110,21929,2,0,L|281:116,3,27.9999980926514
317,53,22295,2,0,L|354:47,3,27.9999980926514
362,139,22661,1,0,0:0:0:0:
362,139,22752,1,0,0:0:0:0:
362,139,22844,1,0,0:0:0:0:
451,243,23027,5,0,0:0:0:0:
451,243,23210,1,0,0:0:0:0:
276,269,23575,5,0,0:0:0:0:
276,269,23758,1,0,0:0:0:0:
263,88,24124,5,0,0:0:0:0:
263,88,24307,1,0,0:0:0:0:
89,152,24673,5,0,0:0:0:0:
89,152,24856,1,0,0:0:0:0:
204,263,25222,6,0,L|241:258,3,27.9999980926514
145,321,25588,2,0,L|111:319,3,27.9999980926514
222,338,25954,6,0,B|262:351|262:351|336:336,1,104.999996852875
429,375,26502,2,0,P|412:336|431:266,1,104.999996852875
483,192,27051,1,0,0:0:0:0:
483,192,27234,2,0,P|453:177|371:195,1,104.999996852875
266,177,27783,1,0,0:0:0:0:
266,177,27966,2,0,P|297:160|327:88,1,104.999996852875
188,151,28515,2,0,P|169:176|151:205,1,52.4999984264374
141,295,28880,6,0,P|164:263|149:186,1,104.999996852875
36,148,29429,2,0,L|109:133,1,52.4999984264374
173,97,29795,2,0,L|242:110,1,52.4999984264374
346,60,30161,1,0,0:0:0:0:
346,60,30344,6,0,P|319:91|330:171,1,104.999996852875
341,276,31075,2,0,P|388:264|418:204,1,104.999996852875
284,210,31807,6,0,B|233:229|233:229|164:234,1,104.999996852875
102,191,32356,2,0,P|101:245|84:314,1,104.999996852875
20,183,32905,1,0,0:0:0:0:
20,183,33088,2,0,P|36:136|102:112,1,104.999996852875
147,32,33636,1,0,0:0:0:0:
147,32,33819,2,0,P|174:71|177:143,1,104.999996852875
97,218,34368,2,0,L|168:218,1,52.4999984264374
294,198,34734,6,0,P|264:224|261:304,1,104.999996852875
