osu file format v14

[General]
AudioFilename: audio.mp3
AudioLeadIn: 0
PreviewTime: 60143
Countdown: 0
SampleSet: Soft
StackLeniency: 0.7
Mode: 3
LetterboxInBreaks: 0
SpecialStyle: 0
WidescreenStoryboard: 1

[Editor]
DistanceSpacing: 0.8
BeatDivisor: 4
GridSize: 8
TimelineZoom: 1.3

[Metadata]
Title:Aonatsu Line
TitleUnicode:アオナツライン
Artist:KOTOKO
ArtistUnicode:KOTOKO
Creator:Nabi-
Version:Normal
Source:アオナツライン
Tags:sun drum-hitnormal dudehacker eroge visual novel vn giga japanese jpop j-pop blue summertime えびかれー伯爵 galgame galge seishun aonatsu video game op opening haru
BeatmapID:4506691
BeatmapSetID:2138012

[Difficulty]
HPDrainRate:7
CircleSize:4
OverallDifficulty:7
ApproachRate:5
SliderMultiplier:1.4
SliderTickRate:1

[Events]
//Background and Video events
Video,0,"aonatsu.mp4"
0,0,"zev_yui_12a.jpg",0,0
//Break Periods
//Storyboard Layer 0 (Background)
//Storyboard Layer 1 (Fail)
//Storyboard Layer 2 (Pass)
//Storyboard Layer 3 (Foreground)
//Storyboard Layer 4 (Overlay)
//Storyboard Sound Samples

[TimingPoints]
2384,365.853658536585,4,2,0,20,1,0
2430,365.853658536585,4,2,0,20,1,0
60966,-100,4,2,0,20,0,1
84381,-100,4,2,0,20,0,0

[HitObjects]
448,192,2430,5,0,0:0:0:0:
64,192,2430,1,0,0:0:0:0:
192,192,2612,1,0,0:0:0:0:
320,192,2795,1,0,0:0:0:0:
448,192,2978,1,0,0:0:0:0:
192,192,3344,1,0,0:0:0:0:
64,192,3527,1,0,0:0:0:0:
448,192,3710,1,0,0:0:0:0:
192,192,3893,1,0,0:0:0:0:
320,192,4076,1,0,0:0:0:0:
448,192,4259,1,0,0:0:0:0:
64,192,4442,1,0,0:0:0:0:
448,192,4625,1,0,0:0:0:0:
320,192,4808,1,0,0:0:0:0:
64,192,4990,1,0,0:0:0:0:
192,192,5173,1,0,0:0:0:0:
448,192,5356,1,0,0:0:0:0:
64,192,5539,1,0,0:0:0:0:
192,192,5722,1,0,0:0:0:0:
320,192,5905,1,0,0:0:0:0:
64,192,6088,1,0,0:0:0:0:
448,192,6271,1,0,0:0:0:0:
320,192,6454,1,0,0:0:0:0:
64,192,6637,1,0,0:0:0:0:
192,192,6820,1,0,0:0:0:0:
320,192,7003,1,0,0:0:0:0:
64,192,7186,1,0,0:0:0:0:
448,192,7369,1,0,0:0:0:0:
320,192,7460,1,0,0:0:0:0:
192,192,7551,1,0,0:0:0:0:
320,192,7734,1,0,0:0:0:0:
64,192,7917,1,0,0:0:0:0:
192,192,8100,1,0,0:0:0:0:
448,192,8283,1,0,0:0:0:0:
320,192,8283,1,0,0:0:0:0:
64,192,8466,1,0,0:0:0:0:
192,192,8649,1,0,0:0:0:0:
320,192,8832,1,0,0:0:0:0:
64,192,9015,1,0,0:0:0:0:
192,192,9015,1,0,0:0:0:0:
448,192,9198,1,0,0:0:0:0:
320,192,9381,1,0,0:0:0:0:
64,192,9564,1,0,0:0:0:0:
192,192,9747,1,0,0:0:0:0:
320,192,9929,1,0,0:0:0:0:
320,192,10112,1,0,0:0:0:0:
64,192,10295,1,0,0:0:0:0:
448,192,10478,1,0,0:0:0:0:
320,192,10478,1,0,0:0:0:0:
192,192,10661,1,0,0:0:0:0:
448,192,10844,1,0,0:0:0:0:
320,192,11027,1,0,0:0:0:0:
64,192,11210,1,0,0:0:0:0:
448,192,11393,1,0,0:0:0:0:
192,192,11576,1,0,0:0:0:0:
320,192,11759,1,0,0:0:0:0:
64,192,11942,1,0,0:0:0:0:
448,192,11942,1,0,0:0:0:0:
192,192,12125,1,0,0:0:0:0:
320,192,12308,1,0,0:0:0:0:
448,192,12308,1,0,0:0:0:0:
64,192,12490,128,0,13771:0:0:0:0:
192,192,12490,1,0,0:0:0:0:
448,192,13039,128,0,13771:0:0:0:0:
64,192,14137,128,0,15051:0:0:0:0:
448,192,14137,128,0,14869:0:0:0:0:
192,192,15051,128,0,15417:0:0:0:0:
448,192,15417,128,0,16149:0:0:0:0:
320,192,15417,128,0,16149:0:0:0:0:
64,192,16149,128,0,16515:0:0:0:0:
320,192,16515,128,0,17064:0:0:0:0:
64,192,17064,128,0,17978:0:0:0:0:
448,192,17064,128,0,17612:0:0:0:0:
192,192,17612,128,0,17978:0:0:0:0:
320,192,17978,128,0,18161:0:0:0:0:
192,192,18161,128,0,18344:0:0:0:0:
64,192,18344,128,0,19442:0:0:0:0:
448,192,18344,128,0,18893:0:0:0:0:
192,192,18893,1,0,0:0:0:0:
320,192,19076,128,0,19442:0:0:0:0:
192,192,19625,1,0,0:0:0:0:
448,192,19808,1,0,0:0:0:0:
64,192,19990,1,0,0:0:0:0:
448,192,19990,1,0,0:0:0:0:
64,192,20356,1,0,0:0:0:0:
320,192,20356,1,0,0:0:0:0:
448,192,20722,1,0,0:0:0:0:
64,192,20722,1,0,0:0:0:0:
448,192,21088,1,0,0:0:0:0:
192,192,21088,1,0,0:0:0:0:
192,192,21454,1,0,0:0:0:0:
320,192,21454,1,0,0:0:0:0:
64,192,21637,1,0,0:0:0:0:
320,192,21820,1,0,0:0:0:0:
448,192,21820,1,0,0:0:0:0:
192,192,22003,1,0,0:0:0:0:
64,192,22186,1,0,0:0:0:0:
448,192,22186,1,0,0:0:0:0:
320,192,22369,1,0,0:0:0:0:
64,192,22551,1,0,0:0:0:0:
192,192,22551,1,0,0:0:0:0:
448,192,22734,1,0,0:0:0:0:
192,192,22917,1,0,0:0:0:0:
320,192,22917,1,0,0:0:0:0:
64,192,23100,1,0,0:0:0:0:
448,192,23100,1,0,0:0:0:0:
64,192,23466,1,0,0:0:0:0:
192,192,23466,1,0,0:0:0:0:
320,192,23649,1,0,0:0:0:0:
448,192,23649,1,0,0:0:0:0:
192,192,24015,1,0,0:0:0:0:
320,192,24015,1,0,0:0:0:0:
192,192,24198,1,0,0:0:0:0:
320,192,24198,1,0,0:0:0:0:
64,192,24564,1,0,0:0:0:0:
448,192,24564,1,0,0:0:0:0:
64,192,24747,1,0,0:0:0:0:
448,192,24747,1,0,0:0:0:0:
192,192,25112,1,0,0:0:0:0:
320,192,25112,1,0,0:0:0:0:
320,192,25295,1,0,0:0:0:0:
448,192,25478,1,0,0:0:0:0:
64,192,25478,1,0,0:0:0:0:
64,192,25661,1,0,0:0:0:0:
448,192,25661,1,0,0:0:0:0:
192,192,25844,1,0,0:0:0:0:
320,192,25844,128,0,26210:0:0:0:0:
192,192,26210,1,0,0:0:0:0:
448,192,26393,1,0,0:0:0:0:
192,192,26576,1,0,0:0:0:0:
448,192,26759,1,0,0:0:0:0:
192,192,26942,1,0,0:0:0:0:
448,192,27125,1,0,0:0:0:0:
192,192,27308,1,0,0:0:0:0:
320,192,27308,1,0,0:0:0:0:
64,192,27490,1,0,0:0:0:0:
320,192,27673,1,0,0:0:0:0:
64,192,27856,1,0,0:0:0:0:
320,192,28039,1,0,0:0:0:0:
64,192,28222,1,0,0:0:0:0:
320,192,28405,1,0,0:0:0:0:
64,192,28588,1,0,0:0:0:0:
192,192,28771,1,0,0:0:0:0:
320,192,28771,1,0,0:0:0:0:
448,192,28954,1,0,0:0:0:0:
192,192,29137,1,0,0:0:0:0:
448,192,29320,1,0,0:0:0:0:
192,192,29503,1,0,0:0:0:0:
448,192,29686,1,0,0:0:0:0:
192,192,29869,1,0,0:0:0:0:
448,192,30051,1,0,0:0:0:0:
192,192,30234,1,0,0:0:0:0:
64,192,30234,1,0,0:0:0:0:
320,192,30417,1,0,0:0:0:0:
64,192,30600,1,0,0:0:0:0:
448,192,30783,1,0,0:0:0:0:
192,192,30966,1,0,0:0:0:0:
320,192,30966,1,0,0:0:0:0:
448,192,31149,1,0,0:0:0:0:
64,192,31332,1,0,0:0:0:0:
192,192,31332,1,0,0:0:0:0:
320,192,31515,1,0,0:0:0:0:
448,192,31698,1,0,0:0:0:0:
64,192,31698,128,0,32064:0:0:0:0:
448,192,32064,1,0,0:0:0:0:
192,192,32247,1,0,0:0:0:0:
448,192,32429,1,0,0:0:0:0:
192,192,32612,1,0,0:0:0:0:
448,192,32795,1,0,0:0:0:0:
192,192,32978,1,0,0:0:0:0:
320,192,33161,1,0,0:0:0:0:
448,192,33161,1,0,0:0:0:0:
64,192,33344,1,0,0:0:0:0:
320,192,33527,1,0,0:0:0:0:
64,192,33710,1,0,0:0:0:0:
320,192,33893,1,0,0:0:0:0:
64,192,34076,1,0,0:0:0:0:
320,192,34259,1,0,0:0:0:0:
64,192,34442,1,0,0:0:0:0:
320,192,34625,1,0,0:0:0:0:
192,192,34625,1,0,0:0:0:0:
448,192,34808,1,0,0:0:0:0:
192,192,34990,1,0,0:0:0:0:
448,192,35173,1,0,0:0:0:0:
192,192,35356,1,0,0:0:0:0:
448,192,35539,1,0,0:0:0:0:
192,192,35722,1,0,0:0:0:0:
448,192,35905,1,0,0:0:0:0:
64,192,36088,1,0,0:0:0:0:
192,192,36088,1,0,0:0:0:0:
320,192,36271,1,0,0:0:0:0:
448,192,36454,1,0,0:0:0:0:
192,192,36637,1,0,0:0:0:0:
320,192,36820,1,0,0:0:0:0:
448,192,36820,1,0,0:0:0:0:
64,192,37003,1,0,0:0:0:0:
320,192,37186,1,0,0:0:0:0:
192,192,37186,1,0,0:0:0:0:
448,192,37369,1,0,0:0:0:0:
192,192,37551,1,0,0:0:0:0:
64,192,37551,128,0,37917:0:0:0:0:
320,192,37917,1,0,0:0:0:0:
448,192,37917,1,0,0:0:0:0:
192,192,38100,1,0,0:0:0:0:
448,192,38283,1,0,0:0:0:0:
320,192,38466,1,0,0:0:0:0:
192,192,38649,1,0,0:0:0:0:
64,192,38649,1,0,0:0:0:0:
320,192,38832,1,0,0:0:0:0:
448,192,38832,128,0,39198:0:0:0:0:
64,192,39198,1,0,0:0:0:0:
192,192,39381,1,0,0:0:0:0:
320,192,39381,1,0,0:0:0:0:
448,192,39564,1,0,0:0:0:0:
64,192,39747,1,0,0:0:0:0:
448,192,39929,1,0,0:0:0:0:
320,192,40112,1,0,0:0:0:0:
192,192,40112,1,0,0:0:0:0:
64,192,40295,1,0,0:0:0:0:
320,192,40478,1,0,0:0:0:0:
448,192,40478,128,0,40844:0:0:0:0:
192,192,40844,1,0,0:0:0:0:
64,192,40844,1,0,0:0:0:0:
320,192,41027,1,0,0:0:0:0:
64,192,41210,1,0,0:0:0:0:
192,192,41393,1,0,0:0:0:0:
320,192,41576,1,0,0:0:0:0:
448,192,41576,1,0,0:0:0:0:
192,192,41759,1,0,0:0:0:0:
64,192,41759,128,0,42125:0:0:0:0:
448,192,42125,1,0,0:0:0:0:
320,192,42308,1,0,0:0:0:0:
192,192,42308,1,0,0:0:0:0:
64,192,42490,1,0,0:0:0:0:
320,192,42673,1,0,0:0:0:0:
64,192,42856,1,0,0:0:0:0:
320,192,43039,1,0,0:0:0:0:
192,192,43039,1,0,0:0:0:0:
448,192,43222,1,0,0:0:0:0:
64,192,43405,1,0,0:0:0:0:
192,192,43405,128,0,43771:0:0:0:0:
320,192,43771,1,0,0:0:0:0:
448,192,43771,1,0,0:0:0:0:
64,192,43954,1,0,0:0:0:0:
320,192,44137,1,0,0:0:0:0:
192,192,44320,1,0,0:0:0:0:
64,192,44503,1,0,0:0:0:0:
448,192,44503,1,0,0:0:0:0:
320,192,44686,128,0,45051:0:0:0:0:
192,192,45051,1,0,0:0:0:0:
64,192,45234,1,0,0:0:0:0:
448,192,45234,1,0,0:0:0:0:
192,192,45417,128,0,45783:0:0:0:0:
320,192,45783,1,0,0:0:0:0:
64,192,45966,1,0,0:0:0:0:
448,192,45966,1,0,0:0:0:0:
320,192,46149,1,0,0:0:0:0:
192,192,46332,1,0,0:0:0:0:
64,192,46332,1,0,0:0:0:0:
320,192,46698,1,0,0:0:0:0:
448,192,46698,1,0,0:0:0:0:
64,192,47064,1,0,0:0:0:0:
192,192,47247,1,0,0:0:0:0:
320,192,47429,1,0,0:0:0:0:
448,192,47612,1,0,0:0:0:0:
64,192,47612,128,0,47978:0:0:0:0:
320,192,47978,1,0,0:0:0:0:
448,192,47978,1,0,0:0:0:0:
192,192,48161,1,0,0:0:0:0:
64,192,48161,1,0,0:0:0:0:
320,192,48344,1,0,0:0:0:0:
448,192,48527,1,0,0:0:0:0:
64,192,48710,128,0,49259:0:0:0:0:
192,192,48710,1,0,0:0:0:0:
320,192,49259,1,0,0:0:0:0:
448,192,49259,128,0,49625:0:0:0:0:
192,192,49625,128,0,49990:0:0:0:0:
320,192,49990,128,0,50356:0:0:0:0:
64,192,50356,1,0,0:0:0:0:
448,192,50539,1,0,0:0:0:0:
192,192,50539,128,0,50905:0:0:0:0:
320,192,50905,1,0,0:0:0:0:
64,192,51088,1,0,0:0:0:0:
192,192,51271,1,0,0:0:0:0:
320,192,51454,1,0,0:0:0:0:
448,192,51454,1,0,0:0:0:0:
64,192,51637,1,0,0:0:0:0:
320,192,51820,1,0,0:0:0:0:
192,192,51820,1,0,0:0:0:0:
448,192,52003,1,0,0:0:0:0:
192,192,52186,1,0,0:0:0:0:
64,192,52186,128,0,52551:0:0:0:0:
448,192,52551,128,0,52734:0:0:0:0:
192,192,52734,128,0,53100:0:0:0:0:
320,192,53100,1,0,0:0:0:0:
448,192,53100,1,0,0:0:0:0:
64,192,53283,1,0,0:0:0:0:
192,192,53466,1,0,0:0:0:0:
320,192,53466,1,0,0:0:0:0:
192,192,53832,1,0,0:0:0:0:
448,192,54015,1,0,0:0:0:0:
64,192,54198,1,0,0:0:0:0:
320,192,54381,1,0,0:0:0:0:
192,192,54503,1,0,0:0:0:0:
448,192,54625,1,0,0:0:0:0:
320,192,54747,1,0,0:0:0:0:
64,192,54869,1,0,0:0:0:0:
192,192,54990,1,0,0:0:0:0:
320,192,55112,1,0,0:0:0:0:
448,192,55112,1,0,0:0:0:0:
64,192,55478,1,0,0:0:0:0:
192,192,55661,1,0,0:0:0:0:
320,192,56027,1,0,0:0:0:0:
64,192,56210,1,0,0:0:0:0:
448,192,56393,1,0,0:0:0:0:
192,192,56576,1,0,0:0:0:0:
320,192,56942,1,0,0:0:0:0:
64,192,57125,1,0,0:0:0:0:
448,192,57308,1,0,0:0:0:0:
192,192,57490,1,0,0:0:0:0:
320,192,57673,1,0,0:0:0:0:
448,192,57856,128,0,58222:0:0:0:0:
64,192,57856,128,0,58222:0:0:0:0:
320,192,58222,1,0,0:0:0:0:
192,192,58405,1,0,0:0:0:0:
64,192,58405,1,0,0:0:0:0:
448,192,58588,1,0,0:0:0:0:
320,192,58771,1,0,0:0:0:0:
192,192,58771,1,0,0:0:0:0:
64,192,58954,1,0,0:0:0:0:
320,192,59137,1,0,0:0:0:0:
448,192,59137,1,0,0:0:0:0:
64,192,59320,1,0,0:0:0:0:
192,192,59320,128,0,59686:0:0:0:0:
320,192,59686,1,0,0:0:0:0:
448,192,59686,128,0,60051:0:0:0:0:
192,192,59869,1,0,0:0:0:0:
64,192,59869,128,0,60051:0:0:0:0:
192,192,60234,128,0,60600:0:0:0:0:
320,192,60600,128,0,60966:0:0:0:0:
64,192,60966,128,0,61698:0:0:0:0:
448,192,60966,1,0,0:0:0:0:
192,192,61332,1,0,0:0:0:0:
448,192,61698,1,0,0:0:0:0:
320,192,61881,1,0,0:0:0:0:
64,192,62064,1,0,0:0:0:0:
192,192,62064,1,0,0:0:0:0:
448,192,62247,128,0,62612:0:0:0:0:
64,192,62612,1,0,0:0:0:0:
320,192,62795,1,0,0:0:0:0:
192,192,62795,1,0,0:0:0:0:
448,192,62978,128,0,63161:0:0:0:0:
64,192,63161,128,0,63527:0:0:0:0:
448,192,63527,1,0,0:0:0:0:
320,192,63527,128,0,63893:0:0:0:0:
192,192,63893,128,0,64259:0:0:0:0:
64,192,64259,1,0,0:0:0:0:
448,192,64259,128,0,64442:0:0:0:0:
320,192,64442,128,0,64625:0:0:0:0:
64,192,64625,1,0,0:0:0:0:
192,192,64808,128,0,64990:0:0:0:0:
320,192,64990,1,0,0:0:0:0:
448,192,64990,1,0,0:0:0:0:
64,192,65173,128,0,65539:0:0:0:0:
192,192,65539,1,0,0:0:0:0:
448,192,65722,1,0,0:0:0:0:
320,192,65722,1,0,0:0:0:0:
64,192,65905,1,0,0:0:0:0:
320,192,66088,128,0,66454:0:0:0:0:
192,192,66454,128,0,66820:0:0:0:0:
64,192,66454,1,0,0:0:0:0:
448,192,66820,128,0,67186:0:0:0:0:
192,192,67186,1,0,0:0:0:0:
64,192,67186,1,0,0:0:0:0:
320,192,67369,128,0,67734:0:0:0:0:
64,192,67734,1,0,0:0:0:0:
320,192,67917,1,0,0:0:0:0:
192,192,67917,128,0,68100:0:0:0:0:
448,192,68100,128,0,68466:0:0:0:0:
64,192,68466,128,0,68832:0:0:0:0:
320,192,68832,128,0,69198:0:0:0:0:
448,192,68832,1,0,0:0:0:0:
192,192,69198,1,0,0:0:0:0:
448,192,69381,1,0,0:0:0:0:
320,192,69564,1,0,0:0:0:0:
192,192,69747,1,0,0:0:0:0:
64,192,69747,128,0,70112:0:0:0:0:
320,192,70112,1,0,0:0:0:0:
448,192,70112,1,0,0:0:0:0:
192,192,70295,1,0,0:0:0:0:
448,192,70478,1,0,0:0:0:0:
64,192,70661,1,0,0:0:0:0:
320,192,70844,1,0,0:0:0:0:
448,192,70844,1,0,0:0:0:0:
64,192,71027,1,0,0:0:0:0:
192,192,71027,1,0,0:0:0:0:
320,192,71393,1,0,0:0:0:0:
448,192,71576,1,0,0:0:0:0:
64,192,71576,128,0,71759:0:0:0:0:
192,192,71759,1,0,0:0:0:0:
448,192,71942,128,0,72125:0:0:0:0:
320,192,72125,1,0,0:0:0:0:
64,192,72308,128,0,72490:0:0:0:0:
192,192,72490,1,0,0:0:0:0:
320,192,72673,1,0,0:0:0:0:
448,192,72673,128,0,73405:0:0:0:0:
192,192,73039,1,0,0:0:0:0:
64,192,73405,1,0,0:0:0:0:
192,192,73588,1,0,0:0:0:0:
320,192,73771,1,0,0:0:0:0:
448,192,73771,1,0,0:0:0:0:
192,192,73954,1,0,0:0:0:0:
64,192,73954,128,0,74320:0:0:0:0:
448,192,74320,1,0,0:0:0:0:
320,192,74503,1,0,0:0:0:0:
192,192,74503,1,0,0:0:0:0:
64,192,74686,128,0,74869:0:0:0:0:
448,192,74869,128,0,75234:0:0:0:0:
192,192,75234,128,0,75600:0:0:0:0:
64,192,75234,1,0,0:0:0:0:
320,192,75600,128,0,75966:0:0:0:0:
448,192,75966,1,0,0:0:0:0:
64,192,75966,1,0,0:0:0:0:
192,192,76149,128,0,76515:0:0:0:0:
320,192,76149,1,0,0:0:0:0:
448,192,76515,128,0,76698:0:0:0:0:
64,192,76698,1,0,0:0:0:0:
192,192,76698,1,0,0:0:0:0:
448,192,76881,1,0,0:0:0:0:
320,192,76881,128,0,77247:0:0:0:0:
64,192,77247,1,0,0:0:0:0:
320,192,77429,1,0,0:0:0:0:
192,192,77429,1,0,0:0:0:0:
448,192,77612,128,0,77795:0:0:0:0:
64,192,77795,128,0,77978:0:0:0:0:
192,192,77978,1,0,0:0:0:0:
320,192,78161,1,0,0:0:0:0:
448,192,78161,1,0,0:0:0:0:
64,192,78344,1,0,0:0:0:0:
192,192,78527,1,0,0:0:0:0:
320,192,78527,1,0,0:0:0:0:
448,192,78710,1,0,0:0:0:0:
192,192,78893,1,0,0:0:0:0:
64,192,78893,1,0,0:0:0:0:
320,192,79076,1,0,0:0:0:0:
64,192,79259,1,0,0:0:0:0:
192,192,79442,1,0,0:0:0:0:
320,192,79625,1,0,0:0:0:0:
448,192,79625,1,0,0:0:0:0:
64,192,79808,1,0,0:0:0:0:
448,192,79990,1,0,0:0:0:0:
320,192,80173,1,0,0:0:0:0:
192,192,80356,1,0,0:0:0:0:
64,192,80356,1,0,0:0:0:0:
448,192,80539,1,0,0:0:0:0:
64,192,80722,1,0,0:0:0:0:
192,192,80905,1,0,0:0:0:0:
320,192,81088,1,0,0:0:0:0:
448,192,81088,1,0,0:0:0:0:
64,192,81271,1,0,0:0:0:0:
448,192,81454,128,0,81820:0:0:0:0:
192,192,81820,1,0,0:0:0:0:
64,192,81820,1,0,0:0:0:0:
320,192,82003,1,0,0:0:0:0:
64,192,82186,1,0,0:0:0:0:
192,192,82369,1,0,0:0:0:0:
448,192,82551,1,0,0:0:0:0:
320,192,82551,128,0,82734:0:0:0:0:
64,192,82734,128,0,82917:0:0:0:0:
448,192,82917,1,0,0:0:0:0:
192,192,82917,1,0,0:0:0:0:
320,192,83100,128,0,83283:0:0:0:0:
192,192,83283,1,0,0:0:0:0:
448,192,83466,128,0,83649:0:0:0:0:
64,192,83649,1,0,0:0:0:0:
192,192,83832,128,0,84015:0:0:0:0:
448,192,84015,1,0,0:0:0:0:
64,192,84198,128,0,84747:0:0:0:0:
320,192,84381,1,0,0:0:0:0:
192,192,84747,1,0,0:0:0:0:
448,192,84747,1,0,0:0:0:0:
320,192,84929,128,0,85112:0:0:0:0:
192,192,85112,128,0,86210:0:0:0:0:
448,192,85295,1,0,0:0:0:0:
64,192,85478,1,0,0:0:0:0:
320,192,85661,1,0,0:0:0:0:
448,192,85844,1,0,0:0:0:0:
64,192,86027,1,0,0:0:0:0:
320,192,86210,1,0,0:0:0:0:
448,192,86210,1,0,0:0:0:0:
64,192,86393,1,0,0:0:0:0:
320,192,86576,128,0,86942:0:0:0:0:
448,192,86942,1,0,0:0:0:0:
64,192,86942,1,0,0:0:0:0:
192,192,87125,128,0,90234:0:0:0:0:
320,192,87308,1,0,0:0:0:0:
448,192,87490,1,0,0:0:0:0:
64,192,87673,1,0,0:0:0:0:
320,192,87856,1,0,0:0:0:0:
448,192,88039,1,0,0:0:0:0:
64,192,88222,1,0,0:0:0:0:
448,192,88405,1,0,0:0:0:0:
320,192,88588,1,0,0:0:0:0:
64,192,88771,1,0,0:0:0:0:
448,192,88954,1,0,0:0:0:0:
320,192,89137,1,0,0:0:0:0:
64,192,89320,1,0,0:0:0:0:
448,192,89503,1,0,0:0:0:0:
64,192,89686,1,0,0:0:0:0:
320,192,89869,1,0,0:0:0:0:
448,192,90051,1,0,0:0:0:0:
64,192,90234,1,0,0:0:0:0:
320,192,90234,1,0,0:0:0:0:
448,192,90600,1,0,0:0:0:0:
192,192,90600,1,0,0:0:0:0:
64,192,90783,1,0,0:0:0:0:
448,192,90966,1,0,0:0:0:0:
320,192,91149,1,0,0:0:0:0:
192,192,91332,1,0,0:0:0:0:
64,192,91332,1,0,0:0:0:0:
448,192,91515,1,0,0:0:0:0:
64,192,91698,1,0,0:0:0:0:
192,192,91881,1,0,0:0:0:0:
320,192,92064,1,0,0:0:0:0:
448,192,92064,1,0,0:0:0:0:
64,192,92247,1,0,0:0:0:0:
320,192,92429,1,0,0:0:0:0:
192,192,92612,1,0,0:0:0:0:
448,192,92795,1,0,0:0:0:0:
64,192,92795,1,0,0:0:0:0:
320,192,92978,1,0,0:0:0:0:
192,192,93161,1,0,0:0:0:0:
64,192,93161,1,0,0:0:0:0:
448,192,93344,1,0,0:0:0:0:
320,192,93344,1,0,0:0:0:0:
320,192,93710,1,0,0:0:0:0:
192,192,93710,1,0,0:0:0:0:
64,192,93893,1,0,0:0:0:0:
448,192,93893,1,0,0:0:0:0:
192,192,94259,1,0,0:0:0:0:
64,192,94259,1,0,0:0:0:0:
64,192,94442,1,0,0:0:0:0:
192,192,94442,1,0,0:0:0:0:
320,192,94808,1,0,0:0:0:0:
448,192,94808,1,0,0:0:0:0:
448,192,94990,1,0,0:0:0:0:
320,192,94990,1,0,0:0:0:0:
192,192,95356,1,0,0:0:0:0:
320,192,95356,1,0,0:0:0:0:
64,192,95539,1,0,0:0:0:0:
448,192,95539,1,0,0:0:0:0:
320,192,95722,1,0,0:0:0:0:
192,192,95722,1,0,0:0:0:0:
448,192,95905,1,0,0:0:0:0:
64,192,95905,1,0,0:0:0:0:
