osu file format v14

[General]
AudioFilename: audio.mp3
AudioLeadIn: 0
PreviewTime: 41486
Countdown: 0
SampleSet: Normal
StackLeniency: 0.7
Mode: 1
LetterboxInBreaks: 0
WidescreenStoryboard: 0

[Editor]
Bookmarks: 14034,27185
DistanceSpacing: 0.9
BeatDivisor: 12
GridSize: 32
TimelineZoom: 1.9

[Metadata]
Title:-> unfinished -> (TV Size)
TitleUnicode:→unfinished→ (TV Size)
Artist:KOTOKO
ArtistUnicode:KOTOKO
Creator:BlackBN
Version:Inner Oni
Source:アクセル・ワールド
Tags:BlackBq Anime Japanese pop jpop j-pop ending 1 one ed1 黒羽早雪 Kuroba Sayuki 黑雪姬 Kuroyukihime 三澤紗千香 Misawa Sachika 八木沼悟志 Satoshi Yaginuma fripSide Accel World EX AW
BeatmapID:4356801
BeatmapSetID:2080480

[Difficulty]
HPDrainRate:6
CircleSize:2
OverallDifficulty:5.5
ApproachRate:10
SliderMultiplier:1.4
SliderTickRate:1

[Events]
//Background and Video events
0,0,"u.jpg",0,20
Video,-512,"unfinished.mp4"
//Break Periods
//Storyboard Layer 0 (Background)
//Storyboard Layer 1 (Fail)
//Storyboard Layer 2 (Pass)
//Storyboard Layer 3 (Foreground)
//Storyboard Layer 4 (Overlay)
//Storyboard Sound Samples

[TimingPoints]
881,410.958904109589,4,1,0,85,1,0
881,-95.2380952380952,4,1,0,85,0,0
10742,-95.2380952380952,4,1,0,85,0,0
10947,-94.1203412148623,4,1,0,85,0,0
11050,-93.5685828116107,4,1,0,85,0,0
11255,-92.4894514767932,4,1,0,85,0,0
11358,-91.9565946973934,4,1,0,85,0,0
11563,-90.9141182325941,4,1,0,85,0,0
11666,-90.3992081821181,4,1,0,85,0,0
11872,-89.3866898651588,4,1,0,85,0,0
11974,-88.8936952525143,4,1,0,85,0,0
12077,-88.4013550572673,4,1,0,85,0,0
12180,-87.9144385026738,4,1,0,85,0,0
12385,-86.961121396456,4,1,0,85,0,0
12591,-86.0237559520695,4,1,0,85,0,0
12694,-85.5626105964401,4,1,0,85,0,0
12796,-85.1107889832263,4,1,0,85,0,0
13002,-84.2126831267288,4,1,0,85,0,0
13207,-83.3375576620875,4,1,0,85,0,0
13310,-82.9046898638427,4,1,0,85,0,0
13413,-82.4762955902273,4,1,0,85,0,0
13515,-82.056401297729,4,1,0,85,0,0
13618,-81.6367067236071,4,1,0,85,0,0
13687,-81.3579452664918,4,1,0,85,0,0
13755,-81.0850801479655,4,1,0,85,0,0
13824,-80.810066850177,4,1,0,85,0,0
13926,-80.4069255600117,4,1,0,85,0,0
13979,-80.0038931334858,4,1,0,75,0,0
14030,-80,4,1,0,75,0,0
14082,-125,4,1,0,65,0,0
19732,-125,4,1,0,70,0,0
19988,-121.221058840879,4,1,0,70,0,0
20091,-119.407321324811,4,1,0,70,0,0
20194,-117.647058823529,4,1,0,70,0,0
20399,-114.293659621802,4,1,0,70,0,0
20605,-111.111111111111,4,1,0,70,0,0
23277,-111.111115,4,1,0,70,0,0
23688,-106.78912,4,1,0,70,0,0
23842,-105.264843399731,4,1,0,75,0,0
23893,-105.263157894737,4,1,0,75,0,0
24098,-104.918765361167,4,1,0,75,0,0
24200,-104.748247291268,4,1,0,75,0,0
24303,-104.576618996866,4,1,0,75,0,0
24509,-104.235044157986,4,1,0,75,0,0
24817,-103.728481941398,4,1,0,75,0,0
24920,-103.560176433522,4,1,0,75,0,0
25125,-103.226819502238,4,1,0,75,0,0
25228,-103.060136702828,4,1,0,75,0,0
25331,-102.893991328982,4,1,0,75,0,0
25433,-102.729986092229,4,1,0,75,0,0
25536,-102.564902646031,4,1,0,75,0,0
25742,-102.236322353893,4,1,0,75,0,0
25844,-102.07440531644,4,1,0,75,0,0
25947,-101.911420465996,4,1,0,75,0,0
26152,-101.588577079985,4,1,0,75,0,0
26358,-101.266212760714,4,1,0,75,0,0
26461,-101.105796588794,4,1,0,75,0,0
26563,-100.947437925157,4,1,0,75,0,0
26666,-100.788029313464,4,1,0,75,0,0
26769,-100.629123360223,4,1,0,75,0,0
26872,-100.470717691649,4,1,0,75,0,0
26974,-100.314340647603,4,1,0,75,0,0
27077,-100.156923686336,4,1,0,75,0,0
27130,-100,4,1,0,80,0,0
33757,-90.9090909090909,4,1,0,80,0,0
33962,-100,4,1,0,80,0,0
35401,-90.9090909090909,4,1,0,80,0,0
35606,-100,4,1,0,80,0,0
37044,-90.9090909090909,4,1,0,80,0,0
37248,-100,4,1,0,80,0,0
37454,-100.66960640209,4,1,0,80,0,0
37659,-101.348240710293,4,1,0,80,0,0
37762,-101.692678259148,4,1,0,80,0,0
37865,-102.039464971527,4,1,0,80,0,0
37968,-102.388624962626,4,1,0,80,0,0
38070,-102.73675789193,4,1,0,80,0,0
38276,-103.447118450643,4,1,0,80,0,0
38481,-104.163850209544,4,1,0,80,0,0
38687,-104.894152882717,4,1,0,80,0,0
38892,-105.631147821914,4,1,0,80,0,0
38995,-106.005365618766,4,1,0,80,0,0
39098,-106.382244313279,4,1,0,80,0,0
39303,-107.140374052701,4,1,0,80,0,0
39509,-107.913165266106,4,1,0,80,0,0
39611,-108.299950804695,4,1,0,80,0,0
39714,-108.693352142479,4,1,0,80,0,0
39817,-109.089621973666,4,1,0,80,0,0
39920,-109.488791786564,4,1,0,80,0,0
40022,-109.886975434093,4,1,0,80,0,0
40125,-110.292012596622,4,1,0,80,0,0
40228,-110.700046693725,4,1,0,80,0,0
40280,-111.111111111111,4,1,0,70,0,0
41769,-100.024336821611,4,1,0,70,0,0
41872,-95.2491309385863,4,1,0,70,0,0
41924,-100,4,1,0,85,0,0
41976,-90.9090909090909,4,1,0,85,0,1
45264,-83.3333333333333,4,1,0,85,0,1
45469,-90.9090909090909,4,1,0,85,0,1
46906,-83.3333333333333,4,1,0,85,0,1
47111,-89.8900978730384,4,1,0,85,0,1
47214,-89.3866898651588,4,1,0,85,0,1
47317,-88.8888888888889,4,1,0,85,0,1
47522,-87.9144385026738,4,1,0,85,0,1
47625,-87.4328564590757,4,1,0,85,0,1
47728,-86.9565217391304,4,1,0,85,0,1
47831,-86.4853490451891,4,1,0,85,0,1
47933,-86.0237559520695,4,1,0,85,0,1
48036,-85.5626105964401,4,1,0,85,0,1
48139,-85.1063829787234,4,1,0,85,0,1
48344,-84.2126831267288,4,1,0,85,0,1
48550,-83.3333333333333,4,1,0,85,0,1
48757,-90.9090909090909,4,1,0,85,0,1
50195,-83.3333333333333,4,1,0,85,0,1
50401,-90.9090909090909,4,1,0,85,0,1
51839,-83.3333333333333,4,1,0,85,0,1
52044,-90.9090909090909,4,1,0,85,0,1
52661,-83.3333333333333,4,1,0,85,0,1
52866,-90.9090909090909,4,1,0,85,0,1
53483,-83.3333333333333,4,1,0,85,0,1
53688,-90.9090909090909,4,1,0,85,0,1
53789,-89.7523857044845,4,1,0,85,0,1
53892,-88.6138309009175,4,1,0,85,0,1
54098,-86.4212359618041,4,1,0,85,0,1
54200,-85.3752595668941,4,1,0,85,0,1
54303,-84.3444112302913,4,1,0,85,0,1
54406,-83.3381594949904,4,1,0,85,0,1
54509,-82.3556344073714,4,1,0,85,0,1
54611,-81.4052158171635,4,1,0,85,0,1
54715,-80.4674830844937,4,1,0,85,0,0
54783,-79.8512846123966,4,1,0,85,0,0
54851,-79.2531805915074,4,1,0,85,0,0
54920,-78.6553703197595,4,1,0,85,0,0
55022,-77.7879885399211,4,1,0,85,0,0
55127,-76.9230769230769,4,1,0,85,0,1
55332,-90.9090909090909,4,1,0,85,0,1
58414,-83.3333333333333,4,1,0,85,0,1
58620,-90.9090909090909,4,1,0,85,0,1
59236,-83.3333333333333,4,1,0,85,0,1
59442,-90.9090909090909,4,1,0,85,0,1
60058,-83.3333333333333,4,1,0,85,0,1
60264,-90.9090909090909,4,1,0,85,0,1
61702,-83.3333333333333,4,1,0,85,0,1
61907,-90.9090909090909,4,1,0,85,0,1
63346,-83.3333333333333,4,1,0,85,0,1
63551,-90.9090909090909,4,1,0,85,0,1
64989,-83.3333333333333,4,1,0,85,0,1
65194,-91.9520931273785,4,1,0,85,0,1
65296,-92.4800180119329,4,1,0,85,0,1
65502,-93.5649202733485,4,1,0,85,0,1
65605,-94.1169731339864,4,1,0,85,0,1
65810,-95.2353350336193,4,1,0,85,0,1
66015,-96.3805948260691,4,1,0,85,0,1
66118,-96.966477809254,4,1,0,85,0,1
66221,-97.5595273439819,4,1,0,85,0,1
66426,-98.7617215676845,4,1,0,85,0,1
66582,-100,4,1,0,75,0,1
67403,-100,4,1,0,85,0,1
67455,-100,4,1,0,85,0,1
67558,-97.552284,4,1,0,85,0,1
67660,-95.24362,4,1,0,85,0,1
67763,-93.02062,4,1,0,85,0,1
67866,-90.899025,4,1,0,85,0,1
67934,-89.55061,4,1,0,85,0,1
68003,-88.22266,4,1,0,85,0,1
68071,-86.95192,4,1,0,85,0,1
68174,-85.09536,4,1,0,85,0,1
68225,-100,4,1,0,80,0,1
68277,-83.31642,4,1,0,80,0,0
68483,-100,4,1,0,80,0,0
69921,-90.9090909090909,4,1,0,80,0,0
70127,-100,4,1,0,80,0,0
71565,-90.9090909090909,4,1,0,80,0,0
71770,-100,4,1,0,80,0,0
72798,-90.9090909090909,4,1,0,80,0,0
73003,-100,4,1,0,80,0,0
73157,-100.024336821611,4,1,0,85,0,0
73208,-100,4,1,0,85,0,0
73276,-98.3724269985639,4,1,0,85,0,0
73344,-96.7969853980217,4,1,0,85,0,0
73413,-95.2491309385863,4,1,0,85,0,0
73515,-93.0495811636857,4,1,0,85,0,0
73618,-90.929203539823,4,1,0,85,0,0
73678,-83.3333333333333,4,1,0,70,0,0
74029,-100,4,1,0,68,0,0
74440,-100,4,1,0,65,0,0
74851,-90.9090909090909,4,1,0,62,0,0
75262,-100,4,1,0,59,0,0
75673,-100,4,1,0,56,0,0
76084,-100,4,1,0,53,0,0
76495,-100,4,1,0,50,0,0
77317,-100,4,1,0,50,0,0
77728,-100,4,1,0,40,0,0
78139,-111.111111111111,4,1,0,30,0,0
78550,-100,4,1,0,20,0,0
78961,-100,4,1,0,10,0,0

[HitObjects]
384,96,881,5,12,0:0:0:0:
256,192,1086,1,0,0:0:0:0:
256,192,1189,1,0,0:0:0:0:
256,192,1291,1,8,0:0:0:0:
256,192,1497,1,8,0:0:0:0:
256,192,1702,1,0,0:0:0:0:
256,192,1805,1,8,0:0:0:0:
256,192,1908,1,8,0:0:0:0:
256,192,2011,1,0,0:0:0:0:
256,192,2113,1,0,0:0:0:0:
256,192,2216,1,0,0:0:0:0:
256,192,2319,1,8,0:0:0:0:
256,192,2524,1,0,0:0:0:0:
256,192,2627,1,0,0:0:0:0:
256,192,2833,1,8,0:0:0:0:
256,192,2935,1,0,0:0:0:0:
256,192,3141,1,8,0:0:0:0:
256,192,3346,1,0,0:0:0:0:
256,192,3552,1,8,0:0:0:0:
256,192,3654,1,8,0:0:0:0:
256,192,3757,1,0,0:0:0:0:
256,192,3860,1,8,0:0:0:0:
256,192,3963,1,0,0:0:0:0:
384,96,4168,1,12,0:0:0:0:
256,192,4374,1,0,0:0:0:0:
256,192,4476,1,8,0:0:0:0:
256,192,4579,1,0,0:0:0:0:
256,192,4785,1,0,0:0:0:0:
256,192,4990,1,8,0:0:0:0:
256,192,5093,1,8,0:0:0:0:
256,192,5196,1,0,0:0:0:0:
256,192,5298,1,8,0:0:0:0:
256,192,5401,1,0,0:0:0:0:
256,192,5504,1,0,0:0:0:0:
256,192,5607,1,8,0:0:0:0:
256,192,5812,1,0,0:0:0:0:
256,192,5915,1,0,0:0:0:0:
256,192,6120,1,0,0:0:0:0:
256,192,6223,1,8,0:0:0:0:
256,192,6428,1,0,0:0:0:0:
256,192,6634,1,8,0:0:0:0:
256,192,6737,1,8,0:0:0:0:
256,192,6839,1,0,0:0:0:0:
256,192,6942,1,8,0:0:0:0:
256,192,7045,1,8,0:0:0:0:
256,192,7148,1,0,0:0:0:0:
256,192,7250,1,8,0:0:0:0:
384,96,7456,1,4,0:0:0:0:
256,192,7661,1,0,0:0:0:0:
256,192,7764,1,0,0:0:0:0:
256,192,7867,1,8,0:0:0:0:
256,192,8072,1,0,0:0:0:0:
256,192,8278,1,8,0:0:0:0:
256,192,8381,1,8,0:0:0:0:
256,192,8586,1,0,0:0:0:0:
256,192,8689,1,8,0:0:0:0:
256,192,8894,1,8,0:0:0:0:
384,96,9100,1,4,0:0:0:0:
256,192,9305,1,0,0:0:0:0:
256,192,9408,1,0,0:0:0:0:
256,192,9511,1,8,0:0:0:0:
256,192,9716,1,0,0:0:0:0:
256,192,9922,1,8,0:0:0:0:
256,192,10024,1,0,0:0:0:0:
256,192,10230,1,8,0:0:0:0:
256,192,10333,1,8,0:0:0:0:
256,192,10435,1,0,0:0:0:0:
256,192,10538,1,8,0:0:0:0:
384,96,10744,1,4,0:0:0:0:
256,192,10949,1,0,0:0:0:0:
256,192,11052,1,8,0:0:0:0:
256,192,11257,1,0,0:0:0:0:
256,192,11360,1,8,0:0:0:0:
256,192,11565,1,8,0:0:0:0:
256,192,11668,1,0,0:0:0:0:
256,192,11874,1,8,0:0:0:0:
256,192,11976,1,0,0:0:0:0:
256,192,12079,1,0,0:0:0:0:
256,192,12182,1,8,0:0:0:0:
384,96,12387,1,4,0:0:0:0:
256,192,12593,1,8,0:0:0:0:
256,192,12696,1,0,0:0:0:0:
256,192,12798,1,8,0:0:0:0:
256,192,13004,1,0,0:0:0:0:
256,192,13209,1,8,0:0:0:0:
256,192,13312,1,8,0:0:0:0:
256,192,13415,1,0,0:0:0:0:
256,192,13517,1,0,0:0:0:0:
256,192,13620,1,8,0:0:0:0:
256,192,13689,1,8,0:0:0:0:
256,192,13757,1,8,0:0:0:0:
256,192,13826,1,0,0:0:0:0:
256,192,13928,1,0,0:0:0:0:
384,96,14031,1,12,0:0:0:0:
256,192,14442,1,0,0:0:0:0:
256,192,14648,1,0,0:0:0:0:
256,192,15059,1,0,0:0:0:0:
256,192,15264,1,8,0:0:0:0:
256,192,15470,1,0,0:0:0:0:
256,192,15675,1,8,0:0:0:0:
256,192,16702,1,8,0:0:0:0:
256,192,16908,1,0,0:0:0:0:
256,192,17113,1,0,0:0:0:0:
256,192,17319,1,0,0:0:0:0:
256,192,17730,1,0,0:0:0:0:
256,192,17935,1,0,0:0:0:0:
256,192,18141,1,8,0:0:0:0:
256,192,18552,1,8,0:0:0:0:
256,192,18757,1,8,0:0:0:0:
256,192,18963,1,0,0:0:0:0:
256,192,19785,1,0,0:0:0:0:
256,192,19990,1,8,0:0:0:0:
256,192,20093,1,8,0:0:0:0:
256,192,20196,1,0,0:0:0:0:
256,192,20401,1,8,0:0:0:0:
384,96,20607,1,4,0:0:0:0:
256,192,20812,1,8,0:0:0:0:
256,192,21223,1,8,0:0:0:0:
256,192,21634,1,8,0:0:0:0:
256,192,22045,1,0,0:0:0:0:
256,192,22250,1,0,0:0:0:0:
256,192,22456,1,8,0:0:0:0:
256,192,22867,1,8,0:0:0:0:
256,192,23278,1,8,0:0:0:0:
256,192,23689,1,8,0:0:0:0:
384,96,23894,1,4,0:0:0:0:
256,192,24100,1,0,0:0:0:0:
256,192,24202,1,8,0:0:0:0:
256,192,24305,1,0,0:0:0:0:
256,192,24511,1,0,0:0:0:0:
256,192,24819,1,8,0:0:0:0:
256,192,24922,1,0,0:0:0:0:
256,192,25127,1,8,0:0:0:0:
256,192,25230,1,8,0:0:0:0:
256,192,25333,1,8,0:0:0:0:
256,192,25435,1,0,0:0:0:0:
256,192,25538,1,0,0:0:0:0:
256,192,25744,1,0,0:0:0:0:
256,192,25846,1,0,0:0:0:0:
256,192,25949,1,8,0:0:0:0:
256,192,26154,1,8,0:0:0:0:
256,192,26360,1,0,0:0:0:0:
256,192,26463,1,0,0:0:0:0:
256,192,26565,1,8,0:0:0:0:
256,192,26668,1,0,0:0:0:0:
256,192,26771,1,0,0:0:0:0:
256,192,26874,1,0,0:0:0:0:
256,192,26976,1,8,0:0:0:0:
256,192,27079,1,8,0:0:0:0:
384,96,27182,1,4,0:0:0:0:
256,192,27387,1,0,0:0:0:0:
256,192,27490,1,0,0:0:0:0:
256,192,27593,1,8,0:0:0:0:
256,192,27798,1,0,0:0:0:0:
256,192,28004,1,8,0:0:0:0:
256,192,28107,1,0,0:0:0:0:
256,192,28209,1,8,0:0:0:0:
256,192,28312,1,8,0:0:0:0:
256,192,28415,1,0,0:0:0:0:
256,192,28620,1,0,0:0:0:0:
256,192,28723,1,8,0:0:0:0:
256,192,28826,1,0,0:0:0:0:
256,192,29031,1,8,0:0:0:0:
256,192,29237,1,0,0:0:0:0:
256,192,29339,1,8,0:0:0:0:
256,192,29442,1,8,0:0:0:0:
256,192,29648,1,0,0:0:0:0:
256,192,29853,1,8,0:0:0:0:
256,192,29956,1,8,0:0:0:0:
256,192,30059,1,0,0:0:0:0:
256,192,30161,1,8,0:0:0:0:
256,192,30264,1,0,0:0:0:0:
384,96,30470,1,4,0:0:0:0:
256,192,30675,1,0,0:0:0:0:
256,192,30778,1,0,0:0:0:0:
256,192,30881,1,8,0:0:0:0:
256,192,31086,1,0,0:0:0:0:
256,192,31291,1,8,0:0:0:0:
256,192,31394,1,8,0:0:0:0:
256,192,31497,1,0,0:0:0:0:
256,192,31600,1,0,0:0:0:0:
256,192,31702,1,8,0:0:0:0:
256,192,31908,1,0,0:0:0:0:
256,192,32011,1,8,0:0:0:0:
256,192,32113,1,0,0:0:0:0:
256,192,32216,1,0,0:0:0:0:
256,192,32422,1,8,0:0:0:0:
256,192,32524,1,0,0:0:0:0:
256,192,32730,1,0,0:0:0:0:
256,192,32833,1,8,0:0:0:0:
256,192,32935,1,8,0:0:0:0:
256,192,33038,1,0,0:0:0:0:
256,192,33141,1,8,0:0:0:0:
256,192,33244,1,8,0:0:0:0:
256,192,33346,1,0,0:0:0:0:
256,192,33449,1,0,0:0:0:0:
256,192,33552,1,8,0:0:0:0:
384,96,33757,5,12,0:0:0:0:
256,192,33963,1,8,0:0:0:0:
256,192,34065,1,8,0:0:0:0:
256,192,34168,1,0,0:0:0:0:
256,192,34374,1,0,0:0:0:0:
256,192,34476,1,8,0:0:0:0:
256,192,34682,1,0,0:0:0:0:
256,192,34785,1,0,0:0:0:0:
256,192,34990,1,8,0:0:0:0:
256,192,35093,1,0,0:0:0:0:
256,192,35196,1,8,0:0:0:0:
384,96,35401,1,4,0:0:0:0:
256,192,35607,1,0,0:0:0:0:
256,192,35709,1,8,0:0:0:0:
256,192,35812,1,0,0:0:0:0:
256,192,36017,1,0,0:0:0:0:
256,192,36120,1,8,0:0:0:0:
256,192,36326,1,8,0:0:0:0:
256,192,36428,1,0,0:0:0:0:
256,192,36634,1,8,0:0:0:0:
256,192,36737,1,8,0:0:0:0:
256,192,36839,1,0,0:0:0:0:
384,96,37045,1,12,0:0:0:0:
256,192,37250,1,0,0:0:0:0:
256,192,37353,1,8,0:0:0:0:
256,192,37456,1,0,0:0:0:0:
256,192,37661,1,0,0:0:0:0:
256,192,37764,1,8,0:0:0:0:
256,192,37867,1,0,0:0:0:0:
256,192,37970,1,0,0:0:0:0:
256,192,38072,1,8,0:0:0:0:
256,192,38278,1,0,0:0:0:0:
256,192,38483,1,0,0:0:0:0:
256,192,38689,1,8,0:0:0:0:
256,192,38894,1,0,0:0:0:0:
256,192,38997,1,0,0:0:0:0:
256,192,39100,1,8,0:0:0:0:
256,192,39305,1,8,0:0:0:0:
256,192,39511,1,0,0:0:0:0:
256,192,39613,1,0,0:0:0:0:
256,192,39716,1,0,0:0:0:0:
256,192,39819,1,0,0:0:0:0:
256,192,39922,1,8,0:0:0:0:
256,192,40024,1,8,0:0:0:0:
256,192,40127,1,0,0:0:0:0:
256,192,40230,1,8,0:0:0:0:
256,192,40333,5,0,0:0:0:0:
256,192,40538,1,0,0:0:0:0:
256,192,40744,1,8,0:0:0:0:
256,192,40949,1,8,0:0:0:0:
256,192,41052,1,0,0:0:0:0:
256,192,41154,1,0,0:0:0:0:
256,192,41257,1,8,0:0:0:0:
256,192,41360,1,8,0:0:0:0:
256,192,41463,1,0,0:0:0:0:
256,192,41771,1,0,0:0:0:0:
256,192,41874,1,0,0:0:0:0:
384,96,41976,1,12,0:0:0:0:
256,192,42182,1,0,0:0:0:0:
256,192,42285,1,8,0:0:0:0:
256,192,42387,1,0,0:0:0:0:
256,192,42593,1,0,0:0:0:0:
256,192,42798,1,8,0:0:0:0:
256,192,42901,1,8,0:0:0:0:
256,192,43004,1,0,0:0:0:0:
256,192,43209,1,8,0:0:0:0:
256,192,43312,1,0,0:0:0:0:
256,192,43415,1,8,0:0:0:0:
256,192,43517,1,8,0:0:0:0:
256,192,43620,1,0,0:0:0:0:
256,192,43826,1,0,0:0:0:0:
256,192,44031,1,0,0:0:0:0:
256,192,44134,1,0,0:0:0:0:
256,192,44237,1,8,0:0:0:0:
256,192,44339,1,8,0:0:0:0:
256,192,44442,1,0,0:0:0:0:
256,192,44648,1,8,0:0:0:0:
256,192,44853,1,0,0:0:0:0:
256,192,44956,1,8,0:0:0:0:
256,192,45059,1,0,0:0:0:0:
384,96,45264,1,4,0:0:0:0:
256,192,45470,1,8,0:0:0:0:
256,192,45572,1,8,0:0:0:0:
256,192,45675,1,0,0:0:0:0:
256,192,45881,1,8,0:0:0:0:
256,192,46086,1,8,0:0:0:0:
256,192,46189,1,0,0:0:0:0:
256,192,46291,1,0,0:0:0:0:
256,192,46394,1,0,0:0:0:0:
256,192,46497,1,8,0:0:0:0:
256,192,46702,1,0,0:0:0:0:
384,96,46908,1,12,0:0:0:0:
256,192,47113,1,0,0:0:0:0:
256,192,47216,1,0,0:0:0:0:
256,192,47319,1,8,0:0:0:0:
256,192,47524,1,0,0:0:0:0:
256,192,47627,1,8,0:0:0:0:
256,192,47730,1,8,0:0:0:0:
256,192,47833,1,0,0:0:0:0:
256,192,47935,1,8,0:0:0:0:
256,192,48038,1,0,0:0:0:0:
256,192,48141,1,0,0:0:0:0:
256,192,48346,1,0,0:0:0:0:
384,96,48552,1,12,0:0:0:0:
256,192,48757,1,0,0:0:0:0:
256,192,48860,1,0,0:0:0:0:
256,192,48963,1,8,0:0:0:0:
256,192,49168,1,0,0:0:0:0:
256,192,49374,1,8,0:0:0:0:
256,192,49476,1,8,0:0:0:0:
256,192,49579,1,0,0:0:0:0:
256,192,49785,1,0,0:0:0:0:
256,192,49887,1,8,0:0:0:0:
256,192,49990,1,0,0:0:0:0:
384,96,50196,1,12,0:0:0:0:
256,192,50401,1,0,0:0:0:0:
256,192,50607,1,8,0:0:0:0:
256,192,50709,1,8,0:0:0:0:
256,192,50812,1,0,0:0:0:0:
256,192,50915,1,0,0:0:0:0:
256,192,51017,1,8,0:0:0:0:
256,192,51223,1,0,0:0:0:0:
256,192,51326,1,0,0:0:0:0:
256,192,51428,1,8,0:0:0:0:
256,192,51634,1,0,0:0:0:0:
384,96,51839,1,12,0:0:0:0:
256,192,52045,1,0,0:0:0:0:
256,192,52148,1,0,0:0:0:0:
256,192,52353,1,0,0:0:0:0:
256,192,52456,1,8,0:0:0:0:
384,96,52661,1,12,0:0:0:0:
256,192,52867,1,0,0:0:0:0:
256,192,52970,1,8,0:0:0:0:
256,192,53072,1,0,0:0:0:0:
256,192,53278,1,8,0:0:0:0:
256,192,53381,1,8,0:0:0:0:
384,96,53483,1,4,0:0:0:0:
256,192,53689,1,0,0:0:0:0:
256,192,53791,1,0,0:0:0:0:
256,192,53894,1,8,0:0:0:0:
256,192,54100,1,0,0:0:0:0:
256,192,54202,1,8,0:0:0:0:
256,192,54305,1,0,0:0:0:0:
256,192,54408,1,8,0:0:0:0:
256,192,54511,1,8,0:0:0:0:
256,192,54613,1,0,0:0:0:0:
256,192,54716,1,8,0:0:0:0:
256,192,54785,1,8,0:0:0:0:
256,192,54853,1,8,0:0:0:0:
256,192,54922,1,0,0:0:0:0:
256,192,55024,1,0,0:0:0:0:
384,96,55127,1,12,0:0:0:0:
256,192,55333,1,8,0:0:0:0:
256,192,55435,1,8,0:0:0:0:
256,192,55538,1,0,0:0:0:0:
256,192,55744,1,0,0:0:0:0:
256,192,55949,1,8,0:0:0:0:
256,192,56052,1,0,0:0:0:0:
256,192,56154,1,8,0:0:0:0:
256,192,56360,1,0,0:0:0:0:
256,192,56463,1,0,0:0:0:0:
256,192,56565,1,8,0:0:0:0:
256,192,56668,1,8,0:0:0:0:
256,192,56771,1,0,0:0:0:0:
256,192,56874,1,8,0:0:0:0:
256,192,56976,1,0,0:0:0:0:
256,192,57182,1,8,0:0:0:0:
256,192,57285,1,0,0:0:0:0:
256,192,57387,1,8,0:0:0:0:
256,192,57490,1,8,0:0:0:0:
256,192,57593,1,0,0:0:0:0:
256,192,57696,1,0,0:0:0:0:
256,192,57798,1,8,0:0:0:0:
256,192,58004,1,0,0:0:0:0:
256,192,58107,1,8,0:0:0:0:
256,192,58209,1,0,0:0:0:0:
384,96,58415,1,12,0:0:0:0:
256,192,58620,1,8,0:0:0:0:
256,192,58723,1,8,0:0:0:0:
256,192,58826,1,0,0:0:0:0:
256,192,59031,1,8,0:0:0:0:
384,96,59237,1,12,0:0:0:0:
256,192,59442,1,0,0:0:0:0:
256,192,59545,1,8,0:0:0:0:
256,192,59648,1,0,0:0:0:0:
256,192,59750,1,0,0:0:0:0:
256,192,59853,1,8,0:0:0:0:
384,96,60059,1,4,0:0:0:0:
256,192,60264,1,8,0:0:0:0:
256,192,60367,1,8,0:0:0:0:
256,192,60470,1,0,0:0:0:0:
256,192,60675,1,8,0:0:0:0:
256,192,60778,1,0,0:0:0:0:
256,192,60881,1,8,0:0:0:0:
256,192,60983,1,8,0:0:0:0:
256,192,61086,1,0,0:0:0:0:
256,192,61189,1,0,0:0:0:0:
256,192,61291,1,8,0:0:0:0:
256,192,61394,1,0,0:0:0:0:
256,192,61497,1,8,0:0:0:0:
384,96,61702,1,4,0:0:0:0:
256,192,61908,1,0,0:0:0:0:
256,192,62011,1,8,0:0:0:0:
256,192,62113,1,0,0:0:0:0:
256,192,62319,1,8,0:0:0:0:
256,192,62524,1,8,0:0:0:0:
256,192,62627,1,8,0:0:0:0:
256,192,62730,1,0,0:0:0:0:
256,192,62935,1,0,0:0:0:0:
256,192,63038,1,0,0:0:0:0:
256,192,63141,1,8,0:0:0:0:
384,96,63346,1,4,0:0:0:0:
256,192,63552,1,0,0:0:0:0:
256,192,63757,1,8,0:0:0:0:
256,192,63860,1,0,0:0:0:0:
256,192,63963,1,8,0:0:0:0:
256,192,64065,1,8,0:0:0:0:
256,192,64168,1,0,0:0:0:0:
256,192,64374,1,8,0:0:0:0:
256,192,64579,1,0,0:0:0:0:
256,192,64682,1,8,0:0:0:0:
256,192,64785,1,0,0:0:0:0:
384,96,64990,1,12,0:0:0:0:
256,192,65196,1,8,0:0:0:0:
256,192,65298,1,0,0:0:0:0:
256,192,65504,1,0,0:0:0:0:
256,192,65607,1,8,0:0:0:0:
256,192,65812,1,0,0:0:0:0:
256,192,66017,1,8,0:0:0:0:
256,192,66120,1,8,0:0:0:0:
256,192,66223,1,0,0:0:0:0:
256,192,66428,1,8,0:0:0:0:
384,96,66634,1,4,0:0:0:0:
256,192,66839,1,0,0:0:0:0:
256,192,66942,1,0,0:0:0:0:
256,192,67045,1,8,0:0:0:0:
256,192,67250,1,0,0:0:0:0:
256,192,67456,1,0,0:0:0:0:
256,192,67559,1,8,0:0:0:0:
256,192,67661,1,8,0:0:0:0:
256,192,67764,1,0,0:0:0:0:
256,192,67867,1,8,0:0:0:0:
256,192,67935,1,8,0:0:0:0:
256,192,68004,1,8,0:0:0:0:
256,192,68072,1,0,0:0:0:0:
256,192,68175,1,0,0:0:0:0:
384,96,68278,1,12,0:0:0:0:
256,192,68586,1,8,0:0:0:0:
256,192,68894,1,0,0:0:0:0:
256,192,69100,1,8,0:0:0:0:
256,192,69305,1,0,0:0:0:0:
256,192,69408,1,8,0:0:0:0:
256,192,69511,1,0,0:0:0:0:
256,192,69716,1,8,0:0:0:0:
384,96,69922,1,4,0:0:0:0:
256,192,70127,1,0,0:0:0:0:
256,192,70230,1,0,0:0:0:0:
256,192,70333,1,8,0:0:0:0:
256,192,70538,1,8,0:0:0:0:
256,192,70641,1,8,0:0:0:0:
256,192,70744,1,0,0:0:0:0:
256,192,70846,1,8,0:0:0:0:
256,192,70949,1,0,0:0:0:0:
256,192,71052,1,0,0:0:0:0:
256,192,71154,1,8,0:0:0:0:
256,192,71257,1,0,0:0:0:0:
256,192,71360,1,0,0:0:0:0:
384,96,71565,1,12,0:0:0:0:
256,192,71771,1,0,0:0:0:0:
256,192,71976,1,8,0:0:0:0:
256,192,72182,1,0,0:0:0:0:
256,192,72285,1,8,0:0:0:0:
256,192,72490,1,8,0:0:0:0:
256,192,72593,1,0,0:0:0:0:
384,96,72798,1,12,0:0:0:0:
256,192,73209,1,0,0:0:0:0:
256,192,73278,1,8,0:0:0:0:
256,192,73346,1,8,0:0:0:0:
256,192,73415,1,0,0:0:0:0:
256,192,73517,1,8,0:0:0:0:
384,96,73620,1,4,0:0:0:0:
256,192,73723,12,0,78963,0:0:0:0:
