osu file format v14

[General]
AudioFilename: KORPIKLAANI - Tequila.mp3
AudioLeadIn: 0
PreviewTime: 61895
Countdown: 0
SampleSet: Normal
StackLeniency: 0.7
Mode: 0
LetterboxInBreaks: 0
WidescreenStoryboard: 1

[Editor]
Bookmarks: 105895,108395,116712
DistanceSpacing: 1.2
BeatDivisor: 8
GridSize: 16
TimelineZoom: 3.099999

[Metadata]
Title:Tequila
TitleUnicode:Tequila
Artist:KORPIKLAANI
ArtistUnicode:KORPIKLAANI
Creator:TheLeviathan
Version:Tarantula Plata
Source:
Tags:Vodka Rock Finnish Beer Levan Polkka Drink Dance
BeatmapID:1192849
BeatmapSetID:563227

[Difficulty]
HPDrainRate:5
CircleSize:4.1
OverallDifficulty:6.1
ApproachRate:8
SliderMultiplier:1.8
SliderTickRate:1

[Events]
//Background and Video events
0,0,"MUSIC+BACKGROUND.jpg",0,0
//Break Periods
2,108595,115956
//Storyboard Layer 0 (Background)
//Storyboard Layer 1 (Fail)
//Storyboard Layer 2 (Pass)
//Storyboard Layer 3 (Foreground)
//Storyboard Sound Samples

[TimingPoints]
562,333.333333333333,4,1,1,100,1,0
562,-133.333333333333,4,1,1,75,0,0
5895,-111.111111111111,4,1,1,75,0,1
13895,-100,4,1,2,75,0,0
14728,-200,4,1,1,75,0,0
15228,-100,4,1,1,75,0,0
16228,-200,4,1,1,75,0,0
16478,-200,4,1,1,5,0,0
16561,-100,4,1,1,75,0,1
27228,-100,4,1,1,75,0,0
36728,-100,4,1,1,5,0,0
36895,-100,4,1,1,75,0,0
37561,-200,4,1,1,75,0,0
37811,-200,4,1,1,15,0,0
37895,-100,4,1,1,75,0,0
49645,-200,4,1,1,75,0,0
51228,-100,4,1,1,75,0,1
59228,-100,4,1,1,75,0,0
61728,-100,4,1,1,11,0,0
61895,-100,4,1,1,75,0,1
69728,-100,4,1,1,5,0,1
69895,-100,4,1,1,75,0,1
72561,-100,4,1,1,75,0,0
93895,-133.333333333333,4,1,1,75,0,0
105645,-200,4,1,1,75,0,0
105895,-200,4,1,1,5,0,0
116706,333.333333333333,4,1,1,75,1,0
118039,-133.333333333333,4,1,1,75,0,0
120706,-100,4,1,1,75,0,0
122039,-100,4,1,1,75,0,0
131705,-100,4,1,1,40,0,0
132705,-200,4,1,1,40,0,0
134039,-100,4,1,1,75,0,1
143372,-100,4,1,1,75,0,0
144039,-100,4,1,1,75,0,0
146039,-100,4,1,1,75,0,1
167372,-100,4,1,1,75,0,0
168622,-100,4,1,1,5,0,0
168705,-100,4,1,1,100,0,0

[Colours]
Combo1 : 78,238,148
Combo2 : 128,128,128

[HitObjects]
80,144,562,6,0,P|160:112|208:144,1,135.000005149841
320,144,1228,2,0,P|400:112|448:144,1,135.000005149841
73,251,1895,6,0,P|135:273|192:240,1,135.000005149841
313,251,2561,2,0,P|375:273|432:240,1,135.000005149841
144,112,3228,6,0,L|256:192,1,135.000005149841
368,112,3895,2,0,L|256:192,1,135.000005149841
256,192,4561,12,0,5728,0:0:0:0:
320,160,5895,6,0,L|400:128,3,80.9999975280762
480,224,6561,2,0,L|384:208,3,80.9999975280762
336,288,7228,6,0,L|416:288,3,80.9999975280762
490,348,7895,2,0,L|410:380,3,80.9999975280762
323,357,8561,6,0,P|275:325|291:229,1,161.999995056152
234,168,9228,2,0,P|317:156|368:218,1,161.999995056152
177,228,9895,2,0,P|152:182|203:92,1,161.999995056152
288,231,10561,1,0,0:0:0:0:
288,231,10895,1,0,0:0:0:0:
312,311,11228,6,0,P|359:277|341:174,1,161.999995056153
438,153,11895,2,0,P|377:99|288:113,1,161.999995056153
219,112,12561,6,0,P|232:61|258:32,3,80.9999975280763
341,15,13228,2,0,P|381:12|431:23,4,80.9999975280763
256,192,13978,12,0,16228,0:0:0:0:
101,254,16561,6,0,L|201:237,1,90
235,315,16895,2,0,L|333:298,1,90
302,217,17228,6,0,L|394:201,1,90
370,116,17561,2,0,L|462:101,1,90
299,63,17895,6,0,L|202:56,1,90
205,133,18228,2,0,L|108:126,1,90
171,212,18561,6,0,L|267:215,1,90
225,296,18895,2,0,L|135:293,1,90
92,170,19228,6,0,P|125:141|181:125,1,90
135,50,19561,2,0,P|196:49|240:66,1,90
308,31,19895,6,0,P|308:85|289:122,1,90
347,186,20228,2,0,P|286:203|248:195,1,90
180,240,20561,6,0,P|222:275|257:286,1,90
364,296,20895,1,0,0:0:0:0:
474,284,21061,2,0,P|502:248|509:203,3,90
445,44,21895,5,0,0:0:0:0:
445,44,22061,2,0,L|366:101,2,90
421,157,22561,2,0,P|369:172|330:163,1,90
295,239,22895,2,0,P|260:207|255:153,1,90
242,58,23228,6,0,P|203:72|164:110,1,90
77,91,23561,2,0,P|88:147|117:179,1,90
78,258,23895,2,0,L|168:260,1,90
271,264,24228,1,0,0:0:0:0:
440,345,24561,6,0,L|340:345,1,90
252,346,24895,1,0,0:0:0:0:
184,269,25061,2,0,P|187:220|222:184,2,90
252,346,25561,2,0,L|351:346,1,90
448,352,25895,6,0,L|496:352,14,45
400,256,27228,6,0,P|400:192|496:144,1,180
477,225,27895,2,0,P|479:289|382:339,1,180
183,291,28561,5,0,0:0:0:0:
218,114,28895,1,0,0:0:0:0:
395,141,29228,1,0,0:0:0:0:
367,318,29561,1,0,0:0:0:0:
218,202,29895,6,0,P|274:178|285:63,1,180
136,184,30561,2,0,P|156:256|252:282,1,180
445,176,31228,5,0,0:0:0:0:
312,54,31561,1,0,0:0:0:0:
185,183,31895,1,0,0:0:0:0:
319,305,32228,1,0,0:0:0:0:
252,135,32561,6,0,P|196:103|104:162,1,180
161,313,33228,1,0,0:0:0:0:
255,169,33561,1,0,0:0:0:0:
97,363,33895,6,0,P|153:393|240:325,1,180
188,183,34562,1,0,0:0:0:0:
94,327,34895,1,0,0:0:0:0:
307,343,35228,6,0,P|368:326|393:211,1,180
303,243,35895,2,0,P|313:169|406:127,1,180
481,307,36561,5,0,0:0:0:0:
289,358,36895,1,0,0:0:0:0:
443,234,37228,1,0,0:0:0:0:
243,289,37561,1,0,0:0:0:0:
106,187,37895,6,0,L|65:153,4,45
199,255,38395,2,0,B|243:290|243:290|276:230|276:230|292:285|408:288,1,270
419,106,39228,6,0,L|475:111,4,45
297,93,39728,2,0,B|234:83|234:83|199:31|199:31|184:73|140:129|144:162,1,270
340,285,40561,6,0,L|333:341,4,45
355,172,41061,2,0,P|377:111|448:219,1,270
261,247,41895,5,0,0:0:0:0:
122,105,42228,1,0,0:0:0:0:
306,177,42561,1,0,0:0:0:0:
107,188,42895,1,0,0:0:0:0:
322,91,43228,6,0,L|374:69,4,45
212,135,43728,2,0,B|170:175|243:233|243:233|341:234|341:234|390:268,1,270
259,351,44561,6,0,L|321:356,4,45
136,333,45061,2,0,B|66:315|66:315|68:252|68:252|124:253|187:183,1,270
341,252,45895,6,0,L|382:218,4,45
248,320,46395,2,0,B|204:355|204:355|171:295|171:295|155:350|39:353,1,270
68,145,47228,5,0,0:0:0:0:
233,253,47561,1,0,0:0:0:0:
378,118,47895,1,0,0:0:0:0:
213,19,48228,1,0,0:0:0:0:
256,192,48561,12,0,50895,0:0:0:0:
160,128,51228,6,0,L|80:80,1,90
176,48,51561,2,0,L|256:96,1,90
262,193,51895,6,0,L|352:183,1,90
370,85,52228,2,0,L|470:76,1,90
383,159,52561,6,0,P|328:151|297:112,1,90
225,127,52895,2,0,P|248:70|280:51,1,90
349,56,53228,6,0,P|326:113|294:132,1,90
319,207,53561,2,0,P|260:198|236:176,1,90
156,214,53895,5,0,0:0:0:0:
79,182,54061,2,0,P|110:144|158:129,2,90
84,269,54561,5,0,0:0:0:0:
165,299,54728,2,0,P|206:281|233:246,2,90
156,214,55228,6,0,P|204:179|239:171,1,90
213,93,55561,2,0,P|279:105|309:131,1,90
315,209,55895,6,0,L|315:304,2,90
431,117,56561,5,0,0:0:0:0:
431,117,56728,2,0,L|439:26,2,90
433,217,57228,5,0,0:0:0:0:
433,217,57395,2,0,L|486:290,2,90
355,165,57895,6,0,P|325:216|319:254,1,90
285,325,58228,2,0,P|244:290|235:246,1,90
174,187,58561,2,0,P|152:229|149:282,2,90
262,170,59061,1,0,0:0:0:0:
262,75,59228,6,0,P|343:122|352:201,1,180
172,169,59895,5,0,0:0:0:0:
172,169,60061,2,0,L|265:170,1,90
168,256,60561,5,0,0:0:0:0:
256,192,60603,12,0,61728,0:0:0:0:
256,64,61895,5,0,0:0:0:0:
157,56,62061,1,0,0:0:0:0:
57,50,62228,2,0,P|69:106|103:132,1,90
211,144,62561,6,0,P|275:155|312:141,1,90
319,232,62895,2,0,P|369:205|387:169,1,90
446,104,63228,6,0,P|475:152|478:185,1,90
425,269,63561,1,0,0:0:0:0:
485,342,63728,2,0,B|394:349|394:349|357:298|316:286,1,180
250,352,64228,2,0,P|227:304|234:256,1,90
114,222,64561,6,0,L|101:172,2,45
186,157,64895,2,0,L|187:107,2,45
109,98,65228,6,0,P|49:117|21:154,1,90
28,235,65561,2,0,P|51:280|93:304,1,90
161,372,65895,6,0,P|198:332|243:319,1,90
329,312,66228,1,0,0:0:0:0:
427,303,66395,1,0,0:0:0:0:
489,226,66561,2,0,P|435:212|386:214,2,90
238,189,67228,6,0,L|328:203,1,90
266,277,67561,2,0,L|173:263,1,90
99,200,67895,1,0,0:0:0:0:
102,101,68061,1,0,0:0:0:0:
30,32,68228,2,0,P|1:89|7:128,1,90
16,220,68561,6,0,P|40:263|85:286,1,90
129,362,68895,2,0,L|221:348,1,90
263,254,69228,2,0,L|170:272,1,90
111,196,69561,2,0,P|82:146|37:125,1,90
96,41,69895,6,0,P|131:80|170:103,1,90
261,107,70228,1,0,0:0:0:0:
344,52,70395,2,0,P|364:110|352:146,1,90
286,205,70728,1,0,0:0:0:0:
377,232,70895,2,0,P|418:212|448:171,1,90
451,61,71228,6,0,L|451:111,14,45
361,18,72561,6,0,P|286:10|261:15,1,90
309,105,72895,2,0,P|264:108|220:99,1,90
265,11,73228,2,0,P|190:3|165:8,1,90
97,93,73561,1,0,0:0:0:0:
328,197,73895,6,0,P|379:171|377:54,1,180
380,264,74395,2,0,P|337:276|293:270,2,90
460,201,74895,1,0,0:0:0:0:
164,352,75228,6,0,B|115:296|115:296|148:241|150:187,1,180
147,97,75728,1,0,0:0:0:0:
44,71,75895,2,0,P|47:129|67:159,2,90
356,39,76561,5,0,0:0:0:0:
147,97,76895,1,0,0:0:0:0:
348,192,77228,1,0,0:0:0:0:
139,250,77562,1,0,0:0:0:0:
433,189,77895,6,0,P|417:143|376:113,1,90
267,102,78228,1,0,0:0:0:0:
348,192,78395,1,0,0:0:0:0:
232,167,78561,1,0,0:0:0:0:
335,57,78728,2,0,P|381:41|425:47,1,90
147,170,79228,6,0,P|163:216|204:246,1,90
313,257,79561,1,0,0:0:0:0:
232,167,79728,1,0,0:0:0:0:
348,192,79894,1,0,0:0:0:0:
245,302,80061,2,0,P|199:318|155:312,1,90
105,59,80561,6,0,P|156:77|182:105,1,90
270,134,80895,2,0,P|267:81|241:36,2,90
225,233,81395,1,0,0:0:0:0:
106,142,81561,1,0,0:0:0:0:
368,276,81895,5,0,0:0:0:0:
404,63,82228,1,0,0:0:0:0:
225,233,82561,1,0,0:0:0:0:
261,31,82894,1,0,0:0:0:0:
106,197,83228,6,0,L|71:225,4,45
199,129,83727,2,0,B|243:94|243:94|276:154|276:154|292:99|399:96,1,270
419,278,84561,6,0,L|463:273,4,45
297,291,85060,2,0,B|234:301|234:301|199:353|199:353|184:311|140:255|144:222,1,270
340,99,85894,6,0,L|334:54,4,45
355,211,86395,2,0,P|440:284|462:175,1,270
354,47,87228,5,0,0:0:0:0:
215,189,87561,1,0,0:0:0:0:
399,117,87894,1,0,0:0:0:0:
200,106,88228,1,0,0:0:0:0:
114,285,88561,6,0,L|62:307,4,45
224,241,89061,2,0,B|266:201|193:143|193:143|95:142|95:142|46:108,1,270
177,25,89894,6,0,L|115:20,4,45
300,43,90394,2,0,B|370:61|370:61|368:124|368:124|312:123|249:193,1,270
95,124,91228,6,0,L|54:158,4,45
188,56,91728,2,0,B|232:21|232:21|265:81|265:81|281:26|397:23,1,270
368,232,92561,5,0,0:0:0:0:
203,123,92894,1,0,0:0:0:0:
58,258,93228,1,0,0:0:0:0:
223,357,93561,1,0,0:0:0:0:
118,149,93895,6,0,P|116:93|181:45,1,135.000005149842
377,56,94561,6,0,L|305:75,1,67.5000025749208
387,122,94895,2,0,L|315:141,1,67.5000025749208
231,239,95228,6,0,P|292:268|369:264,1,135.000005149842
448,54,95895,6,0,L|459:126,1,67.5000025749208
377,56,96228,2,0,L|388:128,1,67.5000025749208
436,246,96561,6,0,P|438:302|373:350,1,135.000005149842
175,322,97227,6,0,L|247:303,1,67.5000025749208
165,256,97561,2,0,L|237:237,1,67.5000025749208
96,275,97895,6,0,L|78:208,1,67.5000025749208
154,224,98228,2,0,L|136:157,1,67.5000025749208
62,142,98561,2,0,L|44:75,1,67.5000025749208
120,91,98894,2,0,L|102:24,1,67.5000025749208
259,67,99228,6,0,P|262:135|215:187,1,135.000005149842
315,7,99895,6,0,P|342:35|353:68,1,67.5000025749208
430,35,100228,2,0,P|428:79|411:110,1,67.5000025749208
317,151,100561,6,0,P|372:205|431:219,1,135.000005149842
242,124,101228,6,0,P|240:175|251:195,1,67.5000025749208
171,227,101561,2,0,P|198:258|236:270,1,67.5000025749208
324,302,101895,6,0,P|292:350|210:373,1,135.000005149842
55,292,102561,6,0,P|77:261|106:244,1,67.5000025749208
190,272,102895,2,0,P|168:303|139:320,1,67.5000025749208
37,191,103228,6,0,P|64:166|95:145,1,67.5000025749208
196,115,103561,2,0,L|237:106,2,33.7500012874604
171,201,103895,6,0,P|200:227|234:236,1,67.5000025749208
311,188,104228,2,0,P|282:162|248:153,1,67.5000025749208
311,270,104561,6,0,P|351:258|388:170,1,135.000005149842
224,33,105228,6,0,L|292:26,1,67.5000025749208
266,99,105561,2,0,L|218:104,1,33.7500012874604
256,192,105728,12,0,108395,0:0:0:0:
338,151,116706,6,0,L|385:134,4,45
99,272,117372,5,0,0:0:0:0:
418,302,117706,1,0,0:0:0:0:
18,153,118039,6,0,P|74:126|147:136,1,135.000005149842
213,286,118706,6,0,P|157:313|84:303,1,135.000005149842
198,206,119206,6,0,L|232:193,2,33.7500012874604
284,40,119706,6,0,B|319:81|319:81|368:105|368:105|396:131,1,135.000005149842
373,283,120372,5,0,0:0:0:0:
171,82,120706,6,0,P|233:88|297:107,1,120
247,205,121150,2,0,P|249:269|228:324,1,120
130,237,121594,2,0,P|94:203|79:133,1,120
305,19,122039,6,0,P|367:59|391:86,1,90
483,51,122372,2,0,P|471:118|458:141,1,90
357,171,122706,2,0,P|391:218|426:235,2,90
372,354,123372,6,0,B|286:311|286:311|285:263|285:263|257:227,1,180
92,79,124039,5,0,0:0:0:0:
55,180,124205,1,0,0:0:0:0:
161,160,124372,1,0,0:0:0:0:
60,338,124705,6,0,B|120:265|120:265|171:265|171:265|212:248,1,180
396,182,125372,5,0,0:0:0:0:
376,288,125539,1,0,0:0:0:0:
295,216,125705,1,0,0:0:0:0:
462,78,126039,5,0,0:0:0:0:
436,292,126372,1,0,0:0:0:0:
441,68,126705,1,0,0:0:0:0:
273,205,127039,1,0,0:0:0:0:
114,58,127372,5,0,0:0:0:0:
114,58,127455,1,0,0:0:0:0:
114,58,127539,1,0,0:0:0:0:
114,58,127622,1,0,0:0:0:0:
114,58,127705,1,0,0:0:0:0:
206,63,127872,5,0,0:0:0:0:
296,55,128039,2,0,L|392:47,2,90
448,166,128705,5,0,0:0:0:0:
448,166,128788,1,0,0:0:0:0:
448,166,128872,1,0,0:0:0:0:
448,166,128955,1,0,0:0:0:0:
448,166,129038,1,0,0:0:0:0:
356,161,129205,5,0,0:0:0:0:
266,169,129372,2,0,L|176:176,2,90
152,265,130039,6,0,P|96:228|84:195,1,90
3,227,130372,2,0,P|13:167|35:134,1,90
53,50,130705,2,0,P|102:79|121:109,1,90
199,65,131039,2,0,P|206:122|190:163,1,90
111,162,131372,5,0,0:0:0:0:
343,307,132705,6,0,P|253:302|350:204,1,315
309,93,134039,6,0,P|363:111|399:133,2,90
208,121,134539,1,0,0:0:0:0:
118,161,134705,2,0,P|63:180|31:184,2,90
