osu file format v14

[General]
AudioFilename: audio.ogg
AudioLeadIn: 0
PreviewTime: 61335
Countdown: 0
SampleSet: Soft
StackLeniency: 0.7
Mode: 3
LetterboxInBreaks: 0
EpilepsyWarning: 1
SpecialStyle: 0
WidescreenStoryboard: 1

[Editor]
Bookmarks: 2559,12355,22151,41743,50008,51539,61335,78478,80927
DistanceSpacing: 1
BeatDivisor: 4
GridSize: 16
TimelineZoom: 1.5

[Metadata]
Title:SCOPIN
TitleUnicode:SCOPIN
Artist:KORDHELL
ArtistUnicode:KORDHELL
Creator:keksikosu
Version:PLUT'S HARD
Source:
Tags:drift phonk phonkonaut phonkhouse house english hip hop hip-hop rap electronic instrumental chordjack chordjacks chord chords jack jacks cj rice Plutes
BeatmapID:4175234
BeatmapSetID:2007310

[Difficulty]
HPDrainRate:7.5
CircleSize:4
OverallDifficulty:7.5
ApproachRate:5
SliderMultiplier:1.4
SliderTickRate:1

[Events]
//Background and Video events
0,0,"bg.jpg",0,0
Video,0,"scopin.mp4"
//Break Periods
//Storyboard Layer 0 (Background)
//Storyboard Layer 1 (Fail)
//Storyboard Layer 2 (Pass)
//Storyboard Layer 3 (Foreground)
//Storyboard Layer 4 (Overlay)
//Storyboard Sound Samples

[TimingPoints]
111,612.244897959184,4,2,1,30,1,0
12355,-100,4,2,1,35,0,0
22151,-100,4,2,1,40,0,1
30723,-100,4,2,1,35,0,0
31947,-100,4,2,1,40,0,1
39294,-100,4,2,1,35,0,0
41743,-100,4,2,1,30,0,0
51539,-100,4,2,1,35,0,0
61335,-100,4,2,1,40,0,1
69906,-100,4,2,1,35,0,0
71131,-100,4,2,1,40,0,1
78478,-100,4,2,1,35,0,0
80927,-100,4,2,1,40,0,1
98070,-100,4,2,1,30,0,0

[HitObjects]
448,192,2559,5,0,0:0:0:0:
448,192,2713,1,0,0:0:0:0:
64,192,2866,1,0,0:0:0:0:
192,192,3019,1,0,0:0:0:0:
448,192,3172,1,0,0:0:0:0:
64,192,3172,1,0,0:0:0:0:
320,192,3325,1,0,0:0:0:0:
192,192,3478,1,0,0:0:0:0:
448,192,3631,1,0,0:0:0:0:
64,192,3784,1,0,0:0:0:0:
448,192,3937,1,0,0:0:0:0:
320,192,4090,1,0,0:0:0:0:
320,192,4243,1,0,0:0:0:0:
192,192,4396,1,0,0:0:0:0:
64,192,4396,1,0,0:0:0:0:
448,192,4549,1,0,0:0:0:0:
192,192,4702,1,0,0:0:0:0:
320,192,4702,1,0,0:0:0:0:
448,192,4855,1,0,0:0:0:0:
64,192,4855,1,0,0:0:0:0:
192,192,5008,1,0,0:0:0:0:
192,192,5162,1,0,0:0:0:0:
448,192,5315,1,0,0:0:0:0:
320,192,5468,1,0,0:0:0:0:
448,192,5621,1,0,0:0:0:0:
64,192,5621,1,0,0:0:0:0:
192,192,5774,1,0,0:0:0:0:
320,192,5927,1,0,0:0:0:0:
64,192,6080,1,0,0:0:0:0:
448,192,6233,1,0,0:0:0:0:
448,192,6386,1,0,0:0:0:0:
320,192,6539,1,0,0:0:0:0:
192,192,6692,1,0,0:0:0:0:
448,192,6845,1,0,0:0:0:0:
64,192,6845,1,0,0:0:0:0:
320,192,6998,1,0,0:0:0:0:
192,192,7151,1,0,0:0:0:0:
64,192,7151,1,0,0:0:0:0:
448,192,7304,1,0,0:0:0:0:
320,192,7304,1,0,0:0:0:0:
448,192,7457,1,0,0:0:0:0:
64,192,7611,1,0,0:0:0:0:
64,192,7764,1,0,0:0:0:0:
192,192,7917,1,0,0:0:0:0:
320,192,8070,1,0,0:0:0:0:
64,192,8070,1,0,0:0:0:0:
448,192,8223,1,0,0:0:0:0:
448,192,8376,1,0,0:0:0:0:
320,192,8529,1,0,0:0:0:0:
192,192,8682,1,0,0:0:0:0:
64,192,8835,1,0,0:0:0:0:
64,192,8988,1,0,0:0:0:0:
192,192,9141,1,0,0:0:0:0:
64,192,9294,1,0,0:0:0:0:
448,192,9294,1,0,0:0:0:0:
320,192,9447,1,0,0:0:0:0:
320,192,9600,1,0,0:0:0:0:
192,192,9600,1,0,0:0:0:0:
64,192,9753,1,0,0:0:0:0:
448,192,9753,1,0,0:0:0:0:
192,192,9906,1,0,0:0:0:0:
192,192,10059,1,0,0:0:0:0:
448,192,10213,1,0,0:0:0:0:
320,192,10366,1,0,0:0:0:0:
448,192,10519,1,0,0:0:0:0:
64,192,10519,1,0,0:0:0:0:
192,192,10672,1,0,0:0:0:0:
320,192,10825,1,0,0:0:0:0:
448,192,10825,1,0,0:0:0:0:
192,192,10978,1,0,0:0:0:0:
64,192,10978,1,0,0:0:0:0:
448,192,11131,1,0,0:0:0:0:
448,192,11284,1,0,0:0:0:0:
192,192,11437,1,0,0:0:0:0:
64,192,11590,1,0,0:0:0:0:
192,192,11667,1,0,0:0:0:0:
320,192,11743,1,0,0:0:0:0:
448,192,11743,1,0,0:0:0:0:
192,192,11896,1,0,0:0:0:0:
64,192,11896,1,0,0:0:0:0:
320,192,12049,1,0,0:0:0:0:
448,192,12049,1,0,0:0:0:0:
64,192,12202,1,0,0:0:0:0:
448,192,12202,1,0,0:0:0:0:
192,192,12355,1,0,0:0:0:0:
64,192,12355,1,0,0:0:0:0:
320,192,12508,1,0,0:0:0:0:
320,192,12662,1,0,0:0:0:0:
448,192,12662,1,0,0:0:0:0:
192,192,12815,1,0,0:0:0:0:
448,192,12968,1,0,0:0:0:0:
64,192,12968,1,0,0:0:0:0:
320,192,13121,1,0,0:0:0:0:
64,192,13274,1,0,0:0:0:0:
192,192,13274,1,0,0:0:0:0:
64,192,13427,1,0,0:0:0:0:
320,192,13580,1,0,0:0:0:0:
448,192,13580,1,0,0:0:0:0:
64,192,13733,1,0,0:0:0:0:
448,192,13886,1,0,0:0:0:0:
192,192,13886,1,0,0:0:0:0:
320,192,14039,1,0,0:0:0:0:
448,192,14192,1,0,0:0:0:0:
64,192,14192,1,0,0:0:0:0:
192,192,14345,1,0,0:0:0:0:
320,192,14498,1,0,0:0:0:0:
192,192,14498,1,0,0:0:0:0:
320,192,14651,1,0,0:0:0:0:
448,192,14651,1,0,0:0:0:0:
192,192,14804,1,0,0:0:0:0:
64,192,14804,1,0,0:0:0:0:
448,192,14957,1,0,0:0:0:0:
448,192,15111,1,0,0:0:0:0:
320,192,15111,1,0,0:0:0:0:
64,192,15264,1,0,0:0:0:0:
192,192,15417,1,0,0:0:0:0:
320,192,15417,1,0,0:0:0:0:
448,192,15570,1,0,0:0:0:0:
192,192,15723,1,0,0:0:0:0:
64,192,15723,1,0,0:0:0:0:
320,192,15876,1,0,0:0:0:0:
448,192,16029,1,0,0:0:0:0:
64,192,16029,1,0,0:0:0:0:
192,192,16182,1,0,0:0:0:0:
320,192,16335,1,0,0:0:0:0:
448,192,16335,1,0,0:0:0:0:
448,192,16488,1,0,0:0:0:0:
64,192,16641,1,0,0:0:0:0:
320,192,16641,1,0,0:0:0:0:
192,192,16794,1,0,0:0:0:0:
448,192,16947,1,0,0:0:0:0:
192,192,16947,1,0,0:0:0:0:
320,192,17100,1,0,0:0:0:0:
448,192,17100,1,0,0:0:0:0:
192,192,17253,1,0,0:0:0:0:
64,192,17253,1,0,0:0:0:0:
64,192,17406,1,0,0:0:0:0:
320,192,17559,1,0,0:0:0:0:
448,192,17559,1,0,0:0:0:0:
192,192,17713,1,0,0:0:0:0:
64,192,17866,1,0,0:0:0:0:
448,192,17866,1,0,0:0:0:0:
448,192,18019,1,0,0:0:0:0:
192,192,18172,1,0,0:0:0:0:
64,192,18172,1,0,0:0:0:0:
320,192,18325,1,0,0:0:0:0:
448,192,18478,1,0,0:0:0:0:
192,192,18478,1,0,0:0:0:0:
192,192,18631,1,0,0:0:0:0:
64,192,18784,1,0,0:0:0:0:
448,192,18784,1,0,0:0:0:0:
320,192,18937,1,0,0:0:0:0:
192,192,19090,1,0,0:0:0:0:
64,192,19090,1,0,0:0:0:0:
64,192,19243,1,0,0:0:0:0:
448,192,19396,1,0,0:0:0:0:
320,192,19396,1,0,0:0:0:0:
192,192,19549,1,0,0:0:0:0:
448,192,19702,1,0,0:0:0:0:
64,192,19702,1,0,0:0:0:0:
448,192,19855,1,0,0:0:0:0:
64,192,20008,1,0,0:0:0:0:
192,192,20008,1,0,0:0:0:0:
64,192,20162,1,0,0:0:0:0:
320,192,20315,1,0,0:0:0:0:
448,192,20315,1,0,0:0:0:0:
448,192,20468,1,0,0:0:0:0:
192,192,20621,1,0,0:0:0:0:
64,192,20621,1,0,0:0:0:0:
64,192,20774,1,0,0:0:0:0:
192,192,20850,1,0,0:0:0:0:
320,192,20927,1,0,0:0:0:0:
448,192,20927,1,0,0:0:0:0:
192,192,22151,1,0,0:0:0:0:
320,192,22151,1,0,0:0:0:0:
64,192,22151,1,0,0:0:0:0:
320,192,22304,1,0,0:0:0:0:
320,192,22457,1,0,0:0:0:0:
448,192,22457,1,0,0:0:0:0:
192,192,22611,1,0,0:0:0:0:
448,192,22764,1,0,0:0:0:0:
320,192,22764,1,0,0:0:0:0:
64,192,22764,1,0,0:0:0:0:
64,192,22917,1,0,0:0:0:0:
448,192,23070,1,0,0:0:0:0:
192,192,23070,1,0,0:0:0:0:
448,192,23223,1,0,0:0:0:0:
192,192,23376,1,0,0:0:0:0:
64,192,23376,1,0,0:0:0:0:
192,192,23529,1,0,0:0:0:0:
192,192,23682,1,0,0:0:0:0:
448,192,23682,1,0,0:0:0:0:
320,192,23835,1,0,0:0:0:0:
192,192,23988,1,0,0:0:0:0:
320,192,23988,1,0,0:0:0:0:
448,192,23988,1,0,0:0:0:0:
64,192,24141,1,0,0:0:0:0:
192,192,24294,1,0,0:0:0:0:
64,192,24294,1,0,0:0:0:0:
320,192,24447,1,0,0:0:0:0:
448,192,24447,1,0,0:0:0:0:
64,192,24600,1,0,0:0:0:0:
448,192,24600,1,0,0:0:0:0:
64,192,24753,1,0,0:0:0:0:
64,192,24906,1,0,0:0:0:0:
192,192,24906,1,0,0:0:0:0:
320,192,25059,1,0,0:0:0:0:
320,192,25213,1,0,0:0:0:0:
192,192,25213,1,0,0:0:0:0:
64,192,25213,1,0,0:0:0:0:
192,192,25366,1,0,0:0:0:0:
448,192,25519,1,0,0:0:0:0:
320,192,25519,1,0,0:0:0:0:
448,192,25672,1,0,0:0:0:0:
320,192,25825,1,0,0:0:0:0:
64,192,25825,1,0,0:0:0:0:
448,192,25978,1,0,0:0:0:0:
64,192,25978,1,0,0:0:0:0:
192,192,26131,1,0,0:0:0:0:
320,192,26131,1,0,0:0:0:0:
320,192,26284,1,0,0:0:0:0:
448,192,26284,1,0,0:0:0:0:
64,192,26437,1,0,0:0:0:0:
192,192,26437,1,0,0:0:0:0:
448,192,26437,1,0,0:0:0:0:
192,192,26590,1,0,0:0:0:0:
320,192,26743,1,0,0:0:0:0:
64,192,26743,1,0,0:0:0:0:
320,192,26896,1,0,0:0:0:0:
64,192,27049,1,0,0:0:0:0:
448,192,27049,1,0,0:0:0:0:
64,192,27202,1,0,0:0:0:0:
64,192,27355,1,0,0:0:0:0:
192,192,27355,1,0,0:0:0:0:
320,192,27508,1,0,0:0:0:0:
448,192,27662,1,0,0:0:0:0:
320,192,27662,1,0,0:0:0:0:
192,192,27662,1,0,0:0:0:0:
448,192,27815,1,0,0:0:0:0:
64,192,27968,1,0,0:0:0:0:
320,192,27968,1,0,0:0:0:0:
64,192,28121,1,0,0:0:0:0:
192,192,28274,1,0,0:0:0:0:
320,192,28274,1,0,0:0:0:0:
192,192,28427,1,0,0:0:0:0:
192,192,28580,1,0,0:0:0:0:
64,192,28580,1,0,0:0:0:0:
448,192,28733,1,0,0:0:0:0:
320,192,28886,1,0,0:0:0:0:
448,192,28886,1,0,0:0:0:0:
64,192,28886,1,0,0:0:0:0:
192,192,29039,1,0,0:0:0:0:
64,192,29192,1,0,0:0:0:0:
448,192,29192,1,0,0:0:0:0:
192,192,29345,1,0,0:0:0:0:
64,192,29345,1,0,0:0:0:0:
192,192,29498,1,0,0:0:0:0:
448,192,29498,1,0,0:0:0:0:
448,192,29651,1,0,0:0:0:0:
448,192,29804,1,0,0:0:0:0:
320,192,29804,1,0,0:0:0:0:
64,192,29957,1,0,0:0:0:0:
320,192,30111,1,0,0:0:0:0:
192,192,30111,1,0,0:0:0:0:
64,192,30111,1,0,0:0:0:0:
320,192,30264,1,0,0:0:0:0:
192,192,30417,1,0,0:0:0:0:
448,192,30417,1,0,0:0:0:0:
192,192,30570,1,0,0:0:0:0:
320,192,30723,1,0,0:0:0:0:
64,192,30723,1,0,0:0:0:0:
192,192,30876,1,0,0:0:0:0:
448,192,31029,1,0,0:0:0:0:
320,192,31029,1,0,0:0:0:0:
64,192,31182,1,0,0:0:0:0:
192,192,31258,1,0,0:0:0:0:
320,192,31335,1,0,0:0:0:0:
448,192,31335,1,0,0:0:0:0:
192,192,31488,1,0,0:0:0:0:
64,192,31488,1,0,0:0:0:0:
448,192,31641,1,0,0:0:0:0:
320,192,31641,1,0,0:0:0:0:
64,192,31794,1,0,0:0:0:0:
448,192,31794,1,0,0:0:0:0:
192,192,31947,1,0,0:0:0:0:
64,192,31947,1,0,0:0:0:0:
192,192,32100,1,0,0:0:0:0:
192,192,32253,1,0,0:0:0:0:
448,192,32253,1,0,0:0:0:0:
320,192,32406,1,0,0:0:0:0:
448,192,32559,1,0,0:0:0:0:
320,192,32559,1,0,0:0:0:0:
64,192,32559,1,0,0:0:0:0:
448,192,32713,1,0,0:0:0:0:
64,192,32866,1,0,0:0:0:0:
192,192,32866,1,0,0:0:0:0:
64,192,33019,1,0,0:0:0:0:
192,192,33172,1,0,0:0:0:0:
320,192,33172,1,0,0:0:0:0:
320,192,33325,1,0,0:0:0:0:
320,192,33478,1,0,0:0:0:0:
64,192,33478,1,0,0:0:0:0:
192,192,33631,1,0,0:0:0:0:
64,192,33784,1,0,0:0:0:0:
192,192,33784,1,0,0:0:0:0:
448,192,33784,1,0,0:0:0:0:
320,192,33937,1,0,0:0:0:0:
64,192,34090,1,0,0:0:0:0:
192,192,34090,1,0,0:0:0:0:
320,192,34243,1,0,0:0:0:0:
192,192,34243,1,0,0:0:0:0:
448,192,34396,1,0,0:0:0:0:
64,192,34396,1,0,0:0:0:0:
448,192,34549,1,0,0:0:0:0:
448,192,34702,1,0,0:0:0:0:
320,192,34702,1,0,0:0:0:0:
64,192,34855,1,0,0:0:0:0:
192,192,35008,1,0,0:0:0:0:
64,192,35008,1,0,0:0:0:0:
448,192,35008,1,0,0:0:0:0:
192,192,35162,1,0,0:0:0:0:
320,192,35315,1,0,0:0:0:0:
448,192,35315,1,0,0:0:0:0:
320,192,35468,1,0,0:0:0:0:
448,192,35621,1,0,0:0:0:0:
64,192,35621,1,0,0:0:0:0:
320,192,35774,1,0,0:0:0:0:
448,192,35774,1,0,0:0:0:0:
192,192,35927,1,0,0:0:0:0:
64,192,35927,1,0,0:0:0:0:
320,192,36080,1,0,0:0:0:0:
64,192,36080,1,0,0:0:0:0:
192,192,36233,1,0,0:0:0:0:
320,192,36233,1,0,0:0:0:0:
448,192,36233,1,0,0:0:0:0:
448,192,36386,1,0,0:0:0:0:
64,192,36539,1,0,0:0:0:0:
192,192,36539,1,0,0:0:0:0:
64,192,36692,1,0,0:0:0:0:
192,192,36845,1,0,0:0:0:0:
320,192,36845,1,0,0:0:0:0:
192,192,36998,1,0,0:0:0:0:
192,192,37151,1,0,0:0:0:0:
64,192,37151,1,0,0:0:0:0:
448,192,37304,1,0,0:0:0:0:
448,192,37457,1,0,0:0:0:0:
320,192,37457,1,0,0:0:0:0:
64,192,37457,1,0,0:0:0:0:
64,192,37611,1,0,0:0:0:0:
320,192,37764,1,0,0:0:0:0:
192,192,37764,1,0,0:0:0:0:
192,192,37917,1,0,0:0:0:0:
320,192,38070,1,0,0:0:0:0:
448,192,38070,1,0,0:0:0:0:
448,192,38223,1,0,0:0:0:0:
448,192,38376,1,0,0:0:0:0:
64,192,38376,1,0,0:0:0:0:
192,192,38529,1,0,0:0:0:0:
320,192,38682,1,0,0:0:0:0:
192,192,38682,1,0,0:0:0:0:
64,192,38682,1,0,0:0:0:0:
64,192,38835,1,0,0:0:0:0:
192,192,38988,1,0,0:0:0:0:
320,192,38988,1,0,0:0:0:0:
448,192,39141,1,0,0:0:0:0:
320,192,39141,1,0,0:0:0:0:
448,192,39294,1,0,0:0:0:0:
64,192,39294,1,0,0:0:0:0:
64,192,39447,1,0,0:0:0:0:
448,192,39600,1,0,0:0:0:0:
320,192,39753,1,0,0:0:0:0:
192,192,39753,1,0,0:0:0:0:
448,192,39906,1,0,0:0:0:0:
64,192,39906,1,0,0:0:0:0:
192,192,40059,1,0,0:0:0:0:
320,192,40213,1,0,0:0:0:0:
320,192,40366,1,0,0:0:0:0:
64,192,40366,1,0,0:0:0:0:
448,192,40519,1,0,0:0:0:0:
64,192,40672,1,0,0:0:0:0:
192,192,40672,1,0,0:0:0:0:
448,192,40825,1,0,0:0:0:0:
320,192,40978,1,0,0:0:0:0:
192,192,41054,1,0,0:0:0:0:
448,192,41131,1,0,0:0:0:0:
320,192,41131,1,0,0:0:0:0:
192,192,41284,1,0,0:0:0:0:
64,192,41284,1,0,0:0:0:0:
448,192,41437,1,0,0:0:0:0:
320,192,41437,1,0,0:0:0:0:
192,192,41590,1,0,0:0:0:0:
64,192,41590,1,0,0:0:0:0:
448,192,41743,1,0,0:0:0:0:
64,192,41743,1,0,0:0:0:0:
320,192,41896,1,0,0:0:0:0:
320,192,42049,1,0,0:0:0:0:
64,192,42202,1,0,0:0:0:0:
448,192,42355,1,0,0:0:0:0:
320,192,42355,1,0,0:0:0:0:
448,192,42508,1,0,0:0:0:0:
192,192,42662,1,0,0:0:0:0:
192,192,42815,1,0,0:0:0:0:
64,192,42968,1,0,0:0:0:0:
320,192,42968,1,0,0:0:0:0:
192,192,43121,1,0,0:0:0:0:
448,192,43274,1,0,0:0:0:0:
448,192,43427,1,0,0:0:0:0:
192,192,43580,1,0,0:0:0:0:
64,192,43580,1,0,0:0:0:0:
320,192,43733,1,0,0:0:0:0:
64,192,43886,1,0,0:0:0:0:
448,192,43886,1,0,0:0:0:0:
64,192,44039,1,0,0:0:0:0:
192,192,44039,1,0,0:0:0:0:
448,192,44192,1,0,0:0:0:0:
320,192,44192,1,0,0:0:0:0:
448,192,44345,1,0,0:0:0:0:
192,192,44498,1,0,0:0:0:0:
320,192,44651,1,0,0:0:0:0:
64,192,44804,1,0,0:0:0:0:
448,192,44804,1,0,0:0:0:0:
192,192,44957,1,0,0:0:0:0:
64,192,45111,1,0,0:0:0:0:
64,192,45264,1,0,0:0:0:0:
320,192,45417,1,0,0:0:0:0:
448,192,45417,1,0,0:0:0:0:
448,192,45570,1,0,0:0:0:0:
64,192,45723,1,0,0:0:0:0:
320,192,45876,1,0,0:0:0:0:
64,192,46029,1,0,0:0:0:0:
192,192,46029,1,0,0:0:0:0:
448,192,46182,1,0,0:0:0:0:
448,192,46335,1,0,0:0:0:0:
320,192,46335,1,0,0:0:0:0:
192,192,46488,1,0,0:0:0:0:
64,192,46488,1,0,0:0:0:0:
64,192,46641,1,0,0:0:0:0:
448,192,46641,1,0,0:0:0:0:
320,192,46794,1,0,0:0:0:0:
320,192,46947,1,0,0:0:0:0:
192,192,47100,1,0,0:0:0:0:
448,192,47253,1,0,0:0:0:0:
320,192,47253,1,0,0:0:0:0:
64,192,47406,1,0,0:0:0:0:
64,192,47559,1,0,0:0:0:0:
192,192,47713,1,0,0:0:0:0:
320,192,47866,1,0,0:0:0:0:
64,192,47866,1,0,0:0:0:0:
448,192,48019,1,0,0:0:0:0:
448,192,48172,1,0,0:0:0:0:
320,192,48325,1,0,0:0:0:0:
192,192,48478,1,0,0:0:0:0:
64,192,48478,1,0,0:0:0:0:
64,192,48631,1,0,0:0:0:0:
320,192,48784,1,0,0:0:0:0:
192,192,48784,1,0,0:0:0:0:
64,192,48937,1,0,0:0:0:0:
448,192,48937,1,0,0:0:0:0:
448,192,49090,1,0,0:0:0:0:
320,192,49090,1,0,0:0:0:0:
320,192,49243,1,0,0:0:0:0:
64,192,49396,1,0,0:0:0:0:
192,192,49549,1,0,0:0:0:0:
64,192,49702,1,0,0:0:0:0:
448,192,49702,1,0,0:0:0:0:
192,192,49855,1,0,0:0:0:0:
320,192,50008,1,0,0:0:0:0:
64,192,50162,1,0,0:0:0:0:
320,192,50162,1,0,0:0:0:0:
192,192,50315,1,0,0:0:0:0:
448,192,50315,1,0,0:0:0:0:
64,192,50468,1,0,0:0:0:0:
320,192,50621,1,0,0:0:0:0:
64,192,50774,1,0,0:0:0:0:
448,192,50850,1,0,0:0:0:0:
192,192,50927,1,0,0:0:0:0:
64,192,50927,1,0,0:0:0:0:
448,192,51080,1,0,0:0:0:0:
320,192,51080,1,0,0:0:0:0:
192,192,51233,1,0,0:0:0:0:
64,192,51233,1,0,0:0:0:0:
64,192,51386,1,0,0:0:0:0:
448,192,51386,1,0,0:0:0:0:
448,192,51539,1,0,0:0:0:0:
320,192,51539,1,0,0:0:0:0:
192,192,51692,1,0,0:0:0:0:
64,192,51845,1,0,0:0:0:0:
320,192,51845,1,0,0:0:0:0:
320,192,51998,1,0,0:0:0:0:
192,192,52151,1,0,0:0:0:0:
64,192,52151,1,0,0:0:0:0:
448,192,52304,1,0,0:0:0:0:
320,192,52457,1,0,0:0:0:0:
192,192,52457,1,0,0:0:0:0:
192,192,52611,1,0,0:0:0:0:
64,192,52764,1,0,0:0:0:0:
448,192,52764,1,0,0:0:0:0:
192,192,52917,1,0,0:0:0:0:
320,192,53070,1,0,0:0:0:0:
448,192,53070,1,0,0:0:0:0:
448,192,53223,1,0,0:0:0:0:
192,192,53376,1,0,0:0:0:0:
64,192,53376,1,0,0:0:0:0:
64,192,53529,1,0,0:0:0:0:
448,192,53682,1,0,0:0:0:0:
320,192,53682,1,0,0:0:0:0:
320,192,53835,1,0,0:0:0:0:
192,192,53835,1,0,0:0:0:0:
64,192,53988,1,0,0:0:0:0:
192,192,53988,1,0,0:0:0:0:
448,192,54141,1,0,0:0:0:0:
448,192,54294,1,0,0:0:0:0:
320,192,54294,1,0,0:0:0:0:
192,192,54447,1,0,0:0:0:0:
64,192,54600,1,0,0:0:0:0:
448,192,54600,1,0,0:0:0:0:
192,192,54753,1,0,0:0:0:0:
64,192,54906,1,0,0:0:0:0:
320,192,54906,1,0,0:0:0:0:
320,192,55059,1,0,0:0:0:0:
192,192,55213,1,0,0:0:0:0:
448,192,55213,1,0,0:0:0:0:
64,192,55366,1,0,0:0:0:0:
448,192,55519,1,0,0:0:0:0:
320,192,55519,1,0,0:0:0:0:
320,192,55672,1,0,0:0:0:0:
448,192,55825,1,0,0:0:0:0:
192,192,55825,1,0,0:0:0:0:
192,192,55978,1,0,0:0:0:0:
64,192,56131,1,0,0:0:0:0:
320,192,56131,1,0,0:0:0:0:
192,192,56284,1,0,0:0:0:0:
64,192,56284,1,0,0:0:0:0:
320,192,56437,1,0,0:0:0:0:
448,192,56437,1,0,0:0:0:0:
448,192,56590,1,0,0:0:0:0:
192,192,56743,1,0,0:0:0:0:
64,192,56743,1,0,0:0:0:0:
320,192,56896,1,0,0:0:0:0:
64,192,57049,1,0,0:0:0:0:
448,192,57049,1,0,0:0:0:0:
64,192,57202,1,0,0:0:0:0:
320,192,57355,1,0,0:0:0:0:
192,192,57355,1,0,0:0:0:0:
64,192,57508,1,0,0:0:0:0:
448,192,57662,1,0,0:0:0:0:
320,192,57662,1,0,0:0:0:0:
320,192,57815,1,0,0:0:0:0:
64,192,57968,1,0,0:0:0:0:
448,192,57968,1,0,0:0:0:0:
320,192,58121,1,0,0:0:0:0:
192,192,58274,1,0,0:0:0:0:
64,192,58274,1,0,0:0:0:0:
64,192,58427,1,0,0:0:0:0:
192,192,58580,1,0,0:0:0:0:
448,192,58580,1,0,0:0:0:0:
320,192,58733,1,0,0:0:0:0:
448,192,58733,1,0,0:0:0:0:
64,192,58886,1,0,0:0:0:0:
192,192,58886,1,0,0:0:0:0:
64,192,59039,1,0,0:0:0:0:
448,192,59192,1,0,0:0:0:0:
320,192,59192,1,0,0:0:0:0:
192,192,59345,1,0,0:0:0:0:
64,192,59498,1,0,0:0:0:0:
320,192,59498,1,0,0:0:0:0:
448,192,59651,1,0,0:0:0:0:
64,192,59804,1,0,0:0:0:0:
192,192,59804,1,0,0:0:0:0:
64,192,59957,1,0,0:0:0:0:
192,192,60034,1,0,0:0:0:0:
320,192,60111,1,0,0:0:0:0:
448,192,60111,1,0,0:0:0:0:
64,192,60264,1,0,0:0:0:0:
448,192,60417,1,0,0:0:0:0:
192,192,60570,1,0,0:0:0:0:
448,192,60723,1,0,0:0:0:0:
320,192,60723,1,0,0:0:0:0:
192,192,61029,1,0,0:0:0:0:
64,192,61029,1,0,0:0:0:0:
320,192,61182,1,0,0:0:0:0:
448,192,61182,1,0,0:0:0:0:
448,192,61335,1,0,0:0:0:0:
64,192,61335,1,0,0:0:0:0:
192,192,61335,1,0,0:0:0:0:
64,192,61488,1,0,0:0:0:0:
192,192,61641,1,0,0:0:0:0:
64,192,61641,1,0,0:0:0:0:
320,192,61794,1,0,0:0:0:0:
192,192,61947,1,0,0:0:0:0:
320,192,61947,1,0,0:0:0:0:
448,192,61947,1,0,0:0:0:0:
448,192,62100,1,0,0:0:0:0:
64,192,62253,1,0,0:0:0:0:
192,192,62253,1,0,0:0:0:0:
192,192,62406,1,0,0:0:0:0:
64,192,62559,1,0,0:0:0:0:
448,192,62559,1,0,0:0:0:0:
448,192,62713,1,0,0:0:0:0:
448,192,62866,1,0,0:0:0:0:
320,192,62866,1,0,0:0:0:0:
192,192,63019,1,0,0:0:0:0:
320,192,63172,1,0,0:0:0:0:
192,192,63172,1,0,0:0:0:0:
64,192,63172,1,0,0:0:0:0:
64,192,63325,1,0,0:0:0:0:
192,192,63478,1,0,0:0:0:0:
320,192,63478,1,0,0:0:0:0:
448,192,63631,1,0,0:0:0:0:
320,192,63631,1,0,0:0:0:0:
192,192,63784,1,0,0:0:0:0:
64,192,63784,1,0,0:0:0:0:
192,192,63937,1,0,0:0:0:0:
448,192,64090,1,0,0:0:0:0:
192,192,64090,1,0,0:0:0:0:
64,192,64243,1,0,0:0:0:0:
448,192,64396,1,0,0:0:0:0:
320,192,64396,1,0,0:0:0:0:
64,192,64396,1,0,0:0:0:0:
448,192,64549,1,0,0:0:0:0:
192,192,64702,1,0,0:0:0:0:
320,192,64702,1,0,0:0:0:0:
192,192,64855,1,0,0:0:0:0:
64,192,65008,1,0,0:0:0:0:
448,192,65008,1,0,0:0:0:0:
448,192,65162,1,0,0:0:0:0:
320,192,65162,1,0,0:0:0:0:
192,192,65315,1,0,0:0:0:0:
64,192,65315,1,0,0:0:0:0:
64,192,65468,1,0,0:0:0:0:
448,192,65468,1,0,0:0:0:0:
192,192,65621,1,0,0:0:0:0:
320,192,65621,1,0,0:0:0:0:
448,192,65621,1,0,0:0:0:0:
192,192,65774,1,0,0:0:0:0:
64,192,65927,1,0,0:0:0:0:
320,192,65927,1,0,0:0:0:0:
320,192,66080,1,0,0:0:0:0:
192,192,66233,1,0,0:0:0:0:
64,192,66233,1,0,0:0:0:0:
64,192,66386,1,0,0:0:0:0:
448,192,66539,1,0,0:0:0:0:
64,192,66539,1,0,0:0:0:0:
320,192,66692,1,0,0:0:0:0:
448,192,66845,1,0,0:0:0:0:
320,192,66845,1,0,0:0:0:0:
64,192,66845,1,0,0:0:0:0:
448,192,66998,1,0,0:0:0:0:
192,192,67151,1,0,0:0:0:0:
64,192,67151,1,0,0:0:0:0:
64,192,67304,1,0,0:0:0:0:
192,192,67457,1,0,0:0:0:0:
448,192,67457,1,0,0:0:0:0:
448,192,67611,1,0,0:0:0:0:
320,192,67764,1,0,0:0:0:0:
448,192,67764,1,0,0:0:0:0:
192,192,67917,1,0,0:0:0:0:
320,192,68070,1,0,0:0:0:0:
192,192,68070,1,0,0:0:0:0:
64,192,68070,1,0,0:0:0:0:
64,192,68223,1,0,0:0:0:0:
192,192,68376,1,0,0:0:0:0:
320,192,68376,1,0,0:0:0:0:
448,192,68529,1,0,0:0:0:0:
320,192,68529,1,0,0:0:0:0:
448,192,68682,1,0,0:0:0:0:
192,192,68682,1,0,0:0:0:0:
192,192,68835,1,0,0:0:0:0:
192,192,68988,1,0,0:0:0:0:
64,192,68988,1,0,0:0:0:0:
320,192,69141,1,0,0:0:0:0:
320,192,69294,1,0,0:0:0:0:
448,192,69294,1,0,0:0:0:0:
64,192,69294,1,0,0:0:0:0:
64,192,69447,1,0,0:0:0:0:
192,192,69600,1,0,0:0:0:0:
448,192,69600,1,0,0:0:0:0:
448,192,69753,1,0,0:0:0:0:
64,192,69906,1,0,0:0:0:0:
320,192,69906,1,0,0:0:0:0:
192,192,70059,1,0,0:0:0:0:
320,192,70213,1,0,0:0:0:0:
448,192,70213,1,0,0:0:0:0:
64,192,70366,1,0,0:0:0:0:
192,192,70442,1,0,0:0:0:0:
448,192,70519,1,0,0:0:0:0:
320,192,70519,1,0,0:0:0:0:
64,192,70672,1,0,0:0:0:0:
448,192,70672,1,0,0:0:0:0:
192,192,70825,1,0,0:0:0:0:
64,192,70825,1,0,0:0:0:0:
320,192,70978,1,0,0:0:0:0:
448,192,70978,1,0,0:0:0:0:
64,192,71131,1,0,0:0:0:0:
448,192,71131,1,0,0:0:0:0:
64,192,71284,1,0,0:0:0:0:
64,192,71437,1,0,0:0:0:0:
320,192,71437,1,0,0:0:0:0:
448,192,71590,1,0,0:0:0:0:
448,192,71743,1,0,0:0:0:0:
320,192,71743,1,0,0:0:0:0:
64,192,71743,1,0,0:0:0:0:
320,192,71896,1,0,0:0:0:0:
192,192,72049,1,0,0:0:0:0:
64,192,72049,1,0,0:0:0:0:
64,192,72202,1,0,0:0:0:0:
192,192,72355,1,0,0:0:0:0:
448,192,72355,1,0,0:0:0:0:
448,192,72508,1,0,0:0:0:0:
448,192,72662,1,0,0:0:0:0:
320,192,72662,1,0,0:0:0:0:
192,192,72815,1,0,0:0:0:0:
192,192,72968,1,0,0:0:0:0:
64,192,72968,1,0,0:0:0:0:
320,192,72968,1,0,0:0:0:0:
320,192,73121,1,0,0:0:0:0:
192,192,73274,1,0,0:0:0:0:
64,192,73274,1,0,0:0:0:0:
64,192,73427,1,0,0:0:0:0:
448,192,73427,1,0,0:0:0:0:
448,192,73580,1,0,0:0:0:0:
192,192,73580,1,0,0:0:0:0:
192,192,73733,1,0,0:0:0:0:
192,192,73886,1,0,0:0:0:0:
448,192,73886,1,0,0:0:0:0:
320,192,74039,1,0,0:0:0:0:
192,192,74192,1,0,0:0:0:0:
64,192,74192,1,0,0:0:0:0:
320,192,74192,1,0,0:0:0:0:
64,192,74345,1,0,0:0:0:0:
448,192,74498,1,0,0:0:0:0:
192,192,74498,1,0,0:0:0:0:
192,192,74651,1,0,0:0:0:0:
448,192,74804,1,0,0:0:0:0:
64,192,74804,1,0,0:0:0:0:
448,192,74957,1,0,0:0:0:0:
320,192,74957,1,0,0:0:0:0:
192,192,75111,1,0,0:0:0:0:
64,192,75111,1,0,0:0:0:0:
64,192,75264,1,0,0:0:0:0:
448,192,75264,1,0,0:0:0:0:
192,192,75417,1,0,0:0:0:0:
320,192,75417,1,0,0:0:0:0:
448,192,75417,1,0,0:0:0:0:
192,192,75570,1,0,0:0:0:0:
64,192,75723,1,0,0:0:0:0:
320,192,75723,1,0,0:0:0:0:
320,192,75876,1,0,0:0:0:0:
64,192,76029,1,0,0:0:0:0:
192,192,76029,1,0,0:0:0:0:
64,192,76182,1,0,0:0:0:0:
448,192,76335,1,0,0:0:0:0:
64,192,76335,1,0,0:0:0:0:
320,192,76488,1,0,0:0:0:0:
448,192,76641,1,0,0:0:0:0:
320,192,76641,1,0,0:0:0:0:
64,192,76641,1,0,0:0:0:0:
448,192,76794,1,0,0:0:0:0:
192,192,76947,1,0,0:0:0:0:
64,192,76947,1,0,0:0:0:0:
64,192,77100,1,0,0:0:0:0:
192,192,77253,1,0,0:0:0:0:
448,192,77253,1,0,0:0:0:0:
448,192,77406,1,0,0:0:0:0:
448,192,77559,1,0,0:0:0:0:
320,192,77559,1,0,0:0:0:0:
64,192,77713,1,0,0:0:0:0:
192,192,77866,1,0,0:0:0:0:
64,192,77866,1,0,0:0:0:0:
448,192,77866,1,0,0:0:0:0:
448,192,78019,1,0,0:0:0:0:
64,192,78172,1,0,0:0:0:0:
192,192,78172,1,0,0:0:0:0:
320,192,78325,1,0,0:0:0:0:
192,192,78325,1,0,0:0:0:0:
448,192,78478,1,0,0:0:0:0:
64,192,78478,1,0,0:0:0:0:
192,192,78631,1,0,0:0:0:0:
192,192,78784,1,0,0:0:0:0:
448,192,78937,1,0,0:0:0:0:
320,192,78937,1,0,0:0:0:0:
192,192,79090,1,0,0:0:0:0:
64,192,79090,1,0,0:0:0:0:
320,192,79243,1,0,0:0:0:0:
448,192,79396,1,0,0:0:0:0:
448,192,79549,1,0,0:0:0:0:
64,192,79549,1,0,0:0:0:0:
192,192,79702,1,0,0:0:0:0:
320,192,79855,1,0,0:0:0:0:
448,192,79855,1,0,0:0:0:0:
192,192,80008,1,0,0:0:0:0:
64,192,80162,1,0,0:0:0:0:
192,192,80238,1,0,0:0:0:0:
320,192,80315,1,0,0:0:0:0:
448,192,80315,1,0,0:0:0:0:
192,192,80468,1,0,0:0:0:0:
64,192,80468,1,0,0:0:0:0:
320,192,80621,1,0,0:0:0:0:
448,192,80621,1,0,0:0:0:0:
192,192,80774,1,0,0:0:0:0:
64,192,80774,1,0,0:0:0:0:
64,192,80927,1,0,0:0:0:0:
448,192,80927,1,0,0:0:0:0:
320,192,80927,1,0,0:0:0:0:
320,192,81080,1,0,0:0:0:0:
192,192,81233,1,0,0:0:0:0:
320,192,81233,1,0,0:0:0:0:
64,192,81386,1,0,0:0:0:0:
192,192,81539,1,0,0:0:0:0:
64,192,81539,1,0,0:0:0:0:
448,192,81539,1,0,0:0:0:0:
192,192,81692,1,0,0:0:0:0:
320,192,81845,1,0,0:0:0:0:
448,192,81845,1,0,0:0:0:0:
448,192,81998,1,0,0:0:0:0:
64,192,82151,1,0,0:0:0:0:
192,192,82151,1,0,0:0:0:0:
64,192,82304,1,0,0:0:0:0:
64,192,82457,1,0,0:0:0:0:
448,192,82457,1,0,0:0:0:0:
320,192,82611,1,0,0:0:0:0:
192,192,82764,1,0,0:0:0:0:
320,192,82764,1,0,0:0:0:0:
448,192,82764,1,0,0:0:0:0:
192,192,82917,1,0,0:0:0:0:
320,192,83070,1,0,0:0:0:0:
448,192,83070,1,0,0:0:0:0:
448,192,83223,1,0,0:0:0:0:
64,192,83223,1,0,0:0:0:0:
192,192,83376,1,0,0:0:0:0:
320,192,83376,1,0,0:0:0:0:
320,192,83529,1,0,0:0:0:0:
320,192,83682,1,0,0:0:0:0:
448,192,83682,1,0,0:0:0:0:
64,192,83835,1,0,0:0:0:0:
192,192,83988,1,0,0:0:0:0:
64,192,83988,1,0,0:0:0:0:
448,192,83988,1,0,0:0:0:0:
448,192,84141,1,0,0:0:0:0:
320,192,84294,1,0,0:0:0:0:
192,192,84294,1,0,0:0:0:0:
192,192,84447,1,0,0:0:0:0:
64,192,84600,1,0,0:0:0:0:
448,192,84600,1,0,0:0:0:0:
320,192,84753,1,0,0:0:0:0:
448,192,84753,1,0,0:0:0:0:
192,192,84906,1,0,0:0:0:0:
64,192,84906,1,0,0:0:0:0:
320,192,85059,1,0,0:0:0:0:
192,192,85059,1,0,0:0:0:0:
448,192,85213,1,0,0:0:0:0:
320,192,85213,1,0,0:0:0:0:
64,192,85213,1,0,0:0:0:0:
448,192,85366,1,0,0:0:0:0:
192,192,85519,1,0,0:0:0:0:
320,192,85519,1,0,0:0:0:0:
192,192,85672,1,0,0:0:0:0:
448,192,85672,1,0,0:0:0:0:
64,192,85825,1,0,0:0:0:0:
320,192,85825,1,0,0:0:0:0:
64,192,85978,1,0,0:0:0:0:
448,192,86131,1,0,0:0:0:0:
64,192,86131,1,0,0:0:0:0:
192,192,86284,1,0,0:0:0:0:
320,192,86437,1,0,0:0:0:0:
192,192,86437,1,0,0:0:0:0:
64,192,86437,1,0,0:0:0:0:
320,192,86590,1,0,0:0:0:0:
448,192,86743,1,0,0:0:0:0:
192,192,86743,1,0,0:0:0:0:
448,192,86896,1,0,0:0:0:0:
192,192,87049,1,0,0:0:0:0:
64,192,87049,1,0,0:0:0:0:
192,192,87202,1,0,0:0:0:0:
320,192,87355,1,0,0:0:0:0:
192,192,87355,1,0,0:0:0:0:
320,192,87508,1,0,0:0:0:0:
192,192,87662,1,0,0:0:0:0:
448,192,87662,1,0,0:0:0:0:
64,192,87662,1,0,0:0:0:0:
448,192,87815,1,0,0:0:0:0:
192,192,87968,1,0,0:0:0:0:
64,192,87968,1,0,0:0:0:0:
192,192,88121,1,0,0:0:0:0:
320,192,88121,1,0,0:0:0:0:
64,192,88274,1,0,0:0:0:0:
448,192,88274,1,0,0:0:0:0:
64,192,88427,1,0,0:0:0:0:
320,192,88580,1,0,0:0:0:0:
64,192,88580,1,0,0:0:0:0:
448,192,88733,1,0,0:0:0:0:
448,192,88886,1,0,0:0:0:0:
320,192,88886,1,0,0:0:0:0:
64,192,88886,1,0,0:0:0:0:
320,192,89039,1,0,0:0:0:0:
192,192,89192,1,0,0:0:0:0:
64,192,89192,1,0,0:0:0:0:
192,192,89345,1,0,0:0:0:0:
448,192,89498,1,0,0:0:0:0:
320,192,89498,1,0,0:0:0:0:
64,192,89651,1,0,0:0:0:0:
448,192,89651,1,0,0:0:0:0:
192,192,89804,1,0,0:0:0:0:
64,192,89804,1,0,0:0:0:0:
320,192,89957,1,0,0:0:0:0:
192,192,90034,1,0,0:0:0:0:
64,192,90111,1,0,0:0:0:0:
448,192,90111,1,0,0:0:0:0:
320,192,90264,1,0,0:0:0:0:
448,192,90264,1,0,0:0:0:0:
192,192,90417,1,0,0:0:0:0:
64,192,90417,1,0,0:0:0:0:
448,192,90570,1,0,0:0:0:0:
64,192,90570,1,0,0:0:0:0:
320,192,90723,1,0,0:0:0:0:
448,192,90723,1,0,0:0:0:0:
320,192,90876,1,0,0:0:0:0:
192,192,91029,1,0,0:0:0:0:
320,192,91029,1,0,0:0:0:0:
64,192,91182,1,0,0:0:0:0:
448,192,91335,1,0,0:0:0:0:
320,192,91335,1,0,0:0:0:0:
64,192,91335,1,0,0:0:0:0:
192,192,91488,1,0,0:0:0:0:
192,192,91641,1,0,0:0:0:0:
64,192,91641,1,0,0:0:0:0:
448,192,91794,1,0,0:0:0:0:
448,192,91947,1,0,0:0:0:0:
192,192,91947,1,0,0:0:0:0:
192,192,92100,1,0,0:0:0:0:
64,192,92253,1,0,0:0:0:0:
192,192,92253,1,0,0:0:0:0:
320,192,92406,1,0,0:0:0:0:
192,192,92559,1,0,0:0:0:0:
320,192,92559,1,0,0:0:0:0:
448,192,92559,1,0,0:0:0:0:
448,192,92713,1,0,0:0:0:0:
320,192,92866,1,0,0:0:0:0:
192,192,92866,1,0,0:0:0:0:
192,192,93019,1,0,0:0:0:0:
64,192,93019,1,0,0:0:0:0:
64,192,93172,1,0,0:0:0:0:
448,192,93172,1,0,0:0:0:0:
448,192,93325,1,0,0:0:0:0:
320,192,93478,1,0,0:0:0:0:
448,192,93478,1,0,0:0:0:0:
192,192,93631,1,0,0:0:0:0:
320,192,93784,1,0,0:0:0:0:
192,192,93784,1,0,0:0:0:0:
64,192,93784,1,0,0:0:0:0:
320,192,93937,1,0,0:0:0:0:
448,192,94090,1,0,0:0:0:0:
64,192,94090,1,0,0:0:0:0:
64,192,94243,1,0,0:0:0:0:
320,192,94396,1,0,0:0:0:0:
448,192,94396,1,0,0:0:0:0:
192,192,94549,1,0,0:0:0:0:
64,192,94549,1,0,0:0:0:0:
192,192,94702,1,0,0:0:0:0:
320,192,94702,1,0,0:0:0:0:
448,192,94855,1,0,0:0:0:0:
64,192,94855,1,0,0:0:0:0:
192,192,95008,1,0,0:0:0:0:
64,192,95008,1,0,0:0:0:0:
448,192,95008,1,0,0:0:0:0:
192,192,95162,1,0,0:0:0:0:
320,192,95315,1,0,0:0:0:0:
64,192,95315,1,0,0:0:0:0:
320,192,95468,1,0,0:0:0:0:
448,192,95468,1,0,0:0:0:0:
448,192,95621,1,0,0:0:0:0:
192,192,95621,1,0,0:0:0:0:
192,192,95774,1,0,0:0:0:0:
192,192,95927,1,0,0:0:0:0:
320,192,95927,1,0,0:0:0:0:
64,192,96080,1,0,0:0:0:0:
448,192,96233,1,0,0:0:0:0:
320,192,96233,1,0,0:0:0:0:
64,192,96233,1,0,0:0:0:0:
448,192,96386,1,0,0:0:0:0:
192,192,96539,1,0,0:0:0:0:
64,192,96539,1,0,0:0:0:0:
192,192,96692,1,0,0:0:0:0:
448,192,96845,1,0,0:0:0:0:
320,192,96845,1,0,0:0:0:0:
320,192,96998,1,0,0:0:0:0:
64,192,97151,1,0,0:0:0:0:
320,192,97151,1,0,0:0:0:0:
192,192,97304,1,0,0:0:0:0:
192,192,97457,1,0,0:0:0:0:
320,192,97457,1,0,0:0:0:0:
448,192,97457,1,0,0:0:0:0:
448,192,97611,1,0,0:0:0:0:
64,192,97764,1,0,0:0:0:0:
192,192,97764,1,0,0:0:0:0:
320,192,97917,1,0,0:0:0:0:
192,192,97917,1,0,0:0:0:0:
448,192,98070,1,0,0:0:0:0:
64,192,98223,1,0,0:0:0:0:
64,192,98376,1,0,0:0:0:0:
448,192,98529,1,0,0:0:0:0:
320,192,98529,1,0,0:0:0:0:
192,192,98682,1,0,0:0:0:0:
64,192,98682,1,0,0:0:0:0:
192,192,98835,1,0,0:0:0:0:
320,192,98988,1,0,0:0:0:0:
448,192,99141,1,0,0:0:0:0:
64,192,99294,1,0,0:0:0:0:
192,192,99447,1,0,0:0:0:0:
320,192,99600,1,0,0:0:0:0:
320,192,99753,1,0,0:0:0:0:
64,192,99906,1,0,0:0:0:0:
448,192,99906,1,0,0:0:0:0:
320,192,100059,1,0,0:0:0:0:
64,192,100213,1,0,0:0:0:0:
192,192,100213,1,0,0:0:0:0:
448,192,100366,1,0,0:0:0:0:
320,192,100366,1,0,0:0:0:0:
